  0
SECTION
  2
HEADER
  9
$ACADVER
  1
AC1014
  9
$ACADMAINTVER
 70
     9
  9
$DWGCODEPAGE
  3
ANSI_932
  9
$INSBASE
 10
0.0
 20
0.0
 30
0.0
  9
$EXTMIN
 10
-126.961767617623
 20
125.599982343594
 30
0.0
  9
$EXTMAX
 10
610.841143303851
 20
548.93285386429
 30
0.0
  9
$LIMMIN
 10
-360.747566795242
 20
4.457354754526
  9
$LIMMAX
 10
-162.153696144267
 20
287.675440264018
  9
$ORTHOMODE
 70
     0
  9
$REGENMODE
 70
     1
  9
$FILLMODE
 70
     1
  9
$QTEXTMODE
 70
     0
  9
$MIRRTEXT
 70
     1
  9
$DRAGMODE
 70
     2
  9
$LTSCALE
 40
1.0
  9
$OSMODE
 70
   935
  9
$ATTMODE
 70
     1
  9
$TEXTSIZE
 40
4.0
  9
$TRACEWID
 40
1.0
  9
$TEXTSTYLE
  7
STANDARD
  9
$CLAYER
  8
寸法線
  9
$CELTYPE
  6
BYLAYER
  9
$CECOLOR
 62
   256
  9
$CELTSCALE
 40
10.0
  9
$DELOBJ
 70
     1
  9
$DISPSILH
 70
     0
  9
$DIMSCALE
 40
1.0
  9
$DIMASZ
 40
6.0
  9
$DIMEXO
 40
0.625
  9
$DIMDLI
 40
3.75
  9
$DIMRND
 40
0.0
  9
$DIMDLE
 40
0.0
  9
$DIMEXE
 40
1.25
  9
$DIMTP
 40
0.1
  9
$DIMTM
 40
0.1
  9
$DIMTXT
 40
8.0
  9
$DIMCEN
 40
2.5
  9
$DIMTSZ
 40
0.0
  9
$DIMTOL
 70
     0
  9
$DIMLIM
 70
     0
  9
$DIMTIH
 70
     0
  9
$DIMTOH
 70
     0
  9
$DIMSE1
 70
     0
  9
$DIMSE2
 70
     0
  9
$DIMTAD
 70
     1
  9
$DIMZIN
 70
     8
  9
$DIMBLK
  1
OPEN30
  9
$DIMASO
 70
     1
  9
$DIMSHO
 70
     1
  9
$DIMPOST
  1

  9
$DIMAPOST
  1

  9
$DIMALT
 70
     0
  9
$DIMALTD
 70
     2
  9
$DIMALTF
 40
0.0394
  9
$DIMLFAC
 40
1.0
  9
$DIMTOFL
 70
     1
  9
$DIMTVP
 40
1.0
  9
$DIMTIX
 70
     0
  9
$DIMSOXD
 70
     0
  9
$DIMSAH
 70
     0
  9
$DIMBLK1
  1

  9
$DIMBLK2
  1

  9
$DIMSTYLE
  2
ISO-25
  9
$DIMCLRD
 70
     0
  9
$DIMCLRE
 70
     0
  9
$DIMCLRT
 70
     0
  9
$DIMTFAC
 40
1.0
  9
$DIMGAP
 40
0.625
  9
$DIMJUST
 70
     0
  9
$DIMSD1
 70
     0
  9
$DIMSD2
 70
     0
  9
$DIMTOLJ
 70
     1
  9
$DIMTZIN
 70
     0
  9
$DIMALTZ
 70
     0
  9
$DIMALTTZ
 70
     0
  9
$DIMFIT
 70
     3
  9
$DIMUPT
 70
     0
  9
$DIMUNIT
 70
     2
  9
$DIMDEC
 70
     1
  9
$DIMTDEC
 70
     1
  9
$DIMALTU
 70
     2
  9
$DIMALTTD
 70
     2
  9
$DIMTXSTY
  7
STANDARD
  9
$DIMAUNIT
 70
     0
  9
$LUNITS
 70
     2
  9
$LUPREC
 70
     4
  9
$SKETCHINC
 40
1.0
  9
$FILLETRAD
 40
1.0
  9
$AUNITS
 70
     0
  9
$AUPREC
 70
     0
  9
$MENU
  1
.
  9
$ELEVATION
 40
0.0
  9
$PELEVATION
 40
0.0
  9
$THICKNESS
 40
0.0
  9
$LIMCHECK
 70
     0
  9
$CHAMFERA
 40
0.5
  9
$CHAMFERB
 40
0.5
  9
$CHAMFERC
 40
20.0
  9
$CHAMFERD
 40
0.0
  9
$SKPOLY
 70
     0
  9
$TDCREATE
 40
2450576.597302431
  9
$TDUPDATE
 40
2457658.777407789
  9
$TDINDWG
 40
1.3349720139
  9
$TDUSRTIMER
 40
1.3349720139
  9
$USRTIMER
 70
     1
  9
$ANGBASE
 50
0.0
  9
$ANGDIR
 70
     0
  9
$PDMODE
 70
     0
  9
$PDSIZE
 40
0.0
  9
$PLINEWID
 40
0.0
  9
$COORDS
 70
     2
  9
$SPLFRAME
 70
     0
  9
$SPLINETYPE
 70
     6
  9
$SPLINESEGS
 70
     8
  9
$ATTDIA
 70
     0
  9
$ATTREQ
 70
     1
  9
$HANDLING
 70
     1
  9
$HANDSEED
  5
5890
  9
$SURFTAB1
 70
     6
  9
$SURFTAB2
 70
     6
  9
$SURFTYPE
 70
     6
  9
$SURFU
 70
     6
  9
$SURFV
 70
     6
  9
$UCSNAME
  2

  9
$UCSORG
 10
0.0
 20
0.0
 30
0.0
  9
$UCSXDIR
 10
1.0
 20
0.0
 30
0.0
  9
$UCSYDIR
 10
0.0
 20
1.0
 30
0.0
  9
$PUCSNAME
  2

  9
$PUCSORG
 10
0.0
 20
0.0
 30
0.0
  9
$PUCSXDIR
 10
1.0
 20
0.0
 30
0.0
  9
$PUCSYDIR
 10
0.0
 20
1.0
 30
0.0
  9
$USERI1
 70
     0
  9
$USERI2
 70
     0
  9
$USERI3
 70
     0
  9
$USERI4
 70
     0
  9
$USERI5
 70
     0
  9
$USERR1
 40
0.0
  9
$USERR2
 40
0.0
  9
$USERR3
 40
0.0
  9
$USERR4
 40
0.0
  9
$USERR5
 40
0.0
  9
$WORLDVIEW
 70
     1
  9
$SHADEDGE
 70
     3
  9
$SHADEDIF
 70
    70
  9
$TILEMODE
 70
     0
  9
$MAXACTVP
 70
    16
  9
$PINSBASE
 10
0.0
 20
0.0
 30
0.0
  9
$PLIMCHECK
 70
     0
  9
$PEXTMIN
 10
4.746305129083
 20
1.396645458131
 30
0.0
  9
$PEXTMAX
 10
404.746305129083
 20
281.396645458131
 30
0.0
  9
$PLIMMIN
 10
-6.946593322754
 20
-6.94658241272
  9
$PLIMMAX
 10
417.718108215332
 20
293.315276107788
  9
$UNITMODE
 70
     0
  9
$VISRETAIN
 70
     0
  9
$PLINEGEN
 70
     0
  9
$PSLTSCALE
 70
     1
  9
$TREEDEPTH
 70
  3020
  9
$PICKSTYLE
 70
     1
  9
$CMLSTYLE
  2
STANDARD
  9
$CMLJUST
 70
     0
  9
$CMLSCALE
 40
1.0
  9
$PROXYGRAPHICS
 70
     1
  9
$MEASUREMENT
 70
     1
  0
ENDSEC
  0
SECTION
  2
CLASSES
  0
CLASS
  1
ACDBDICTIONARYWDFLT
  2
AcDbDictionaryWithDefault
  3
ObjectDBX Classes
 90
        0
280
     0
281
     0
  0
CLASS
  1
ACDBPLACEHOLDER
  2
AcDbPlaceHolder
  3
ObjectDBX Classes
 90
        0
280
     0
281
     0
  0
CLASS
  1
LAYOUT
  2
AcDbLayout
  3
ObjectDBX Classes
 90
        0
280
     0
281
     0
  0
CLASS
  1
SORTENTSTABLE
  2
AcDbSortentsTable
  3
ObjectDBX Classes
 90
        0
280
     0
281
     0
  0
CLASS
  1
VISUALSTYLE
  2
AcDbVisualStyle
  3
ObjectDBX Classes
 90
     4095
280
     0
281
     0
  0
CLASS
  1
SCALE
  2
AcDbScale
  3
ObjectDBX Classes
 90
     1153
280
     0
281
     0
  0
CLASS
  1
MATERIAL
  2
AcDbMaterial
  3
ObjectDBX Classes
 90
     1153
280
     0
281
     0
  0
CLASS
  1
TABLESTYLE
  2
AcDbTableStyle
  3
ObjectDBX Classes
 90
     4095
280
     0
281
     0
  0
CLASS
  1
MLEADERSTYLE
  2
AcDbMLeaderStyle
  3
ACDB_MLEADERSTYLE_CLASS
 90
     4095
280
     0
281
     0
  0
CLASS
  1
SUN
  2
AcDbSun
  3
SCENEOE
 90
     1153
280
     0
281
     0
  0
CLASS
  1
DICTIONARYVAR
  2
AcDbDictionaryVar
  3
ObjectDBX Classes
 90
        0
280
     0
281
     0
  0
CLASS
  1
CELLSTYLEMAP
  2
AcDbCellStyleMap
  3
ObjectDBX Classes
 90
     1152
280
     0
281
     0
  0
CLASS
  1
XRECORD
  2
AcDbXrecord
  3
ObjectDBX Classes
 90
        0
280
     0
281
     0
  0
CLASS
  1
LWPOLYLINE
  2
AcDbPolyline
  3
ObjectDBX Classes
 90
        0
280
     0
281
     1
  0
CLASS
  1
HATCH
  2
AcDbHatch
  3
ObjectDBX Classes
 90
        0
280
     0
281
     1
  0
ENDSEC
  0
SECTION
  2
TABLES
  0
TABLE
  2
VPORT
  5
8
102
{ACAD_XDICTIONARY
360
5888
102
}
330
0
100
AcDbSymbolTable
 70
     2
  0
VPORT
  5
50FA
330
8
100
AcDbSymbolTableRecord
100
AcDbViewportTableRecord
  2
*ACTIVE
 70
     0
 10
0.0
 20
0.0
 11
1.0
 21
1.0
 12
241.939687843114
 22
337.266418103942
 13
0.0
 23
0.0
 14
1.0
 24
1.0
 15
0.0
 25
0.0
 16
0.0
 26
0.0
 36
1.0
 17
0.0
 27
0.0
 37
0.0
 40
431.79952895111
 41
1.759407069555
 42
50.0
 43
0.0
 44
0.0
 50
0.0
 51
0.0
 71
    16
 72
   100
 73
     1
 74
     0
 75
     0
 76
     0
 77
     0
 78
     0
  0
ENDTAB
  0
TABLE
  2
LTYPE
  5
5
330
0
100
AcDbSymbolTable
 70
     6
  0
LTYPE
  5
14
330
5
100
AcDbSymbolTableRecord
100
AcDbLinetypeTableRecord
  2
BYBLOCK
 70
     0
  3

 72
    65
 73
     0
 40
0.0
  0
LTYPE
  5
15
330
5
100
AcDbSymbolTableRecord
100
AcDbLinetypeTableRecord
  2
BYLAYER
 70
     0
  3

 72
    65
 73
     0
 40
0.0
  0
LTYPE
  5
16
330
5
100
AcDbSymbolTableRecord
100
AcDbLinetypeTableRecord
  2
CONTINUOUS
 70
     0
  3
Solid line
 72
    65
 73
     0
 40
0.0
  0
LTYPE
  5
1EC
330
5
100
AcDbSymbolTableRecord
100
AcDbLinetypeTableRecord
  2
CENTER
 70
     0
  3
____ _ ____ _ ____ _ ____ _ ____ _ ____ _ ____ 
 72
    65
 73
     4
 40
2.0
 49
1.25
 74
     0
 49
-0.25
 74
     0
 49
0.25
 74
     0
 49
-0.25
 74
     0
  0
LTYPE
  5
1ED
330
5
100
AcDbSymbolTableRecord
100
AcDbLinetypeTableRecord
  2
DASHED
 70
     0
  3
__ __ __ __ __ __ __ __ __ __ __ __ __ __ __ __
 72
    65
 73
     2
 40
0.75
 49
0.5
 74
     0
 49
-0.25
 74
     0
  0
LTYPE
  5
2B1F
330
5
100
AcDbSymbolTableRecord
100
AcDbLinetypeTableRecord
  2
DASHDOT
 70
     0
  3
一点鎖線
 72
    65
 73
     4
 40
25.6
 49
20.0
 74
     0
 49
-2.0
 74
     0
 49
1.6
 74
     0
 49
-2.0
 74
     0
  0
LTYPE
  5
31A1
330
5
100
AcDbSymbolTableRecord
100
AcDbLinetypeTableRecord
  2
CENTER2
 70
     0
  3
Center (.5x) ___ _ ___ _ ___ _ ___ _ ___ _ ___
 72
    65
 73
     4
 40
28.575
 49
19.05
 74
     0
 49
-3.175
 74
     0
 49
3.175
 74
     0
 49
-3.175
 74
     0
  0
LTYPE
  5
4002
330
5
100
AcDbSymbolTableRecord
100
AcDbLinetypeTableRecord
  2
DASHED2
 70
     0
  3
Dashed (.5x) _ _ _ _ _ _ _ _ _ _ _ _ _ _ _ _ _
 72
    65
 73
     2
 40
9.525
 49
6.35
 74
     0
 49
-3.175
 74
     0
  0
ENDTAB
  0
TABLE
  2
LAYER
  5
2
102
{ACAD_XDICTIONARY
360
29EA
102
}
330
0
100
AcDbSymbolTable
 70
    12
  0
LAYER
  5
F
330
2
100
AcDbSymbolTableRecord
100
AcDbLayerTableRecord
  2
0
 70
     0
 62
     7
  6
CONTINUOUS
  0
LAYER
  5
61
330
2
100
AcDbSymbolTableRecord
100
AcDbLayerTableRecord
  2
図枠太線
 70
     0
 62
   251
  6
CONTINUOUS
  0
LAYER
  5
62
330
2
100
AcDbSymbolTableRecord
100
AcDbLayerTableRecord
  2
図枠細線
 70
     0
 62
   252
  6
CONTINUOUS
  0
LAYER
  5
63
330
2
100
AcDbSymbolTableRecord
100
AcDbLayerTableRecord
  2
図枠ロゴマーク
 70
     0
 62
   253
  6
CONTINUOUS
  0
LAYER
  5
1EF
330
2
100
AcDbSymbolTableRecord
100
AcDbLayerTableRecord
  2
外形線
 70
     0
 62
     7
  6
CONTINUOUS
  0
LAYER
  5
1F0
330
2
100
AcDbSymbolTableRecord
100
AcDbLayerTableRecord
  2
寸法線
 70
     0
 62
     1
  6
CONTINUOUS
  0
LAYER
  5
1F1
330
2
100
AcDbSymbolTableRecord
100
AcDbLayerTableRecord
  2
中心線
 70
     0
 62
     4
  6
CENTER
  0
LAYER
  5
1F4
330
2
100
AcDbSymbolTableRecord
100
AcDbLayerTableRecord
  2
DEFPOINTS
 70
     0
 62
     7
  6
CONTINUOUS
  0
LAYER
  5
2AA2
330
2
100
AcDbSymbolTableRecord
100
AcDbLayerTableRecord
  2
下書線
 70
     0
 62
     2
  6
CONTINUOUS
  0
LAYER
  5
2AA3
330
2
100
AcDbSymbolTableRecord
100
AcDbLayerTableRecord
  2
隠れ線
 70
     0
 62
     3
  6
DASHED
  0
LAYER
  5
2AA4
330
2
100
AcDbSymbolTableRecord
100
AcDbLayerTableRecord
  2
細線
 70
     0
 62
     6
  6
CONTINUOUS
  0
LAYER
  5
2AA5
330
2
100
AcDbSymbolTableRecord
100
AcDbLayerTableRecord
  2
太線
 70
     0
 62
   190
  6
CONTINUOUS
  0
ENDTAB
  0
TABLE
  2
STYLE
  5
3
330
0
100
AcDbSymbolTable
 70
     2
  0
STYLE
  5
10
330
3
100
AcDbSymbolTableRecord
100
AcDbTextStyleTableRecord
  2
STANDARD
 70
     0
 40
0.0
 41
1.0
 50
0.0
 71
     0
 42
4.0
  3
ISOCP
  4
bigfont.shx
  0
STYLE
  5
64
330
3
100
AcDbSymbolTableRecord
100
AcDbTextStyleTableRecord
  2
EXCADSTD
 70
     0
 40
0.0
 41
1.0
 50
0.0
 71
     0
 42
0.2
  3
monotxt
  4
bigfont
  0
ENDTAB
  0
TABLE
  2
VIEW
  5
6
330
0
100
AcDbSymbolTable
 70
     0
  0
ENDTAB
  0
TABLE
  2
UCS
  5
7
330
0
100
AcDbSymbolTable
 70
     0
  0
ENDTAB
  0
TABLE
  2
APPID
  5
9
330
0
100
AcDbSymbolTable
 70
     6
  0
APPID
  5
11
330
9
100
AcDbSymbolTableRecord
100
AcDbRegAppTableRecord
  2
ACAD
 70
     0
  0
APPID
  5
3507
330
9
100
AcDbSymbolTableRecord
100
AcDbRegAppTableRecord
  2
ACAD_DIMASSOC_CALC_DIMLFAC
 70
     0
  0
APPID
  5
3508
330
9
100
AcDbSymbolTableRecord
100
AcDbRegAppTableRecord
  2
ACAD_DIMASSOC_DIMLFAC
 70
     0
  0
APPID
  5
3509
330
9
100
AcDbSymbolTableRecord
100
AcDbRegAppTableRecord
  2
ACAD_DIMASSOC_OVERRIDDEN_D
 70
     0
  0
APPID
  5
513E
330
9
100
AcDbSymbolTableRecord
100
AcDbRegAppTableRecord
  2
ACADANNOTATIVE
 70
     0
  0
APPID
  5
5220
330
9
100
AcDbSymbolTableRecord
100
AcDbRegAppTableRecord
  2
ACAD_MLEADERVER
 70
     0
  0
ENDTAB
  0
TABLE
  2
DIMSTYLE
  5
A
330
0
100
AcDbSymbolTable
 70
     2
  0
DIMSTYLE
105
1D
330
A
100
AcDbSymbolTableRecord
100
AcDbDimStyleTableRecord
  2
STANDARD
 70
     0
  3

  4

  5

  6

  7

 40
1.0
 41
0.18
 42
0.0625
 43
0.38
 44
0.18
 45
0.0
 46
0.0
 47
0.0
 48
0.0
140
0.18
141
0.09
142
0.0
143
25.4
144
1.0
145
0.0
146
1.0
147
0.09
 71
     0
 72
     0
 73
     1
 74
     1
 75
     0
 76
     0
 77
     0
 78
     0
170
     0
171
     2
172
     0
173
     0
174
     0
175
     0
176
     0
177
     0
178
     0
270
     2
271
     4
272
     4
273
     2
274
     2
340
10
275
     0
280
     0
281
     0
282
     0
283
     1
284
     0
285
     0
286
     0
287
     3
288
     0
  0
DIMSTYLE
105
24
102
{ACAD_REACTORS
330
46DD
330
46EA
330
471B
330
473A
330
4759
330
478D
330
47B8
330
47EC
330
483E
330
484B
330
4A7D
330
4AC8
330
4F36
330
4F45
330
51AD
102
}
330
A
100
AcDbSymbolTableRecord
100
AcDbDimStyleTableRecord
  2
ISO-25
 70
     0
  3

  4

  5

  6

  7

 40
1.0
 41
2.5
 42
0.625
 43
3.75
 44
1.25
 45
0.0
 46
0.0
 47
0.0
 48
0.0
140
2.5
141
2.5
142
0.0
143
0.0394
144
1.0
145
1.0
146
1.0
147
0.625
 71
     0
 72
     0
 73
     1
 74
     0
 75
     0
 76
     0
 77
     1
 78
     8
170
     0
171
     2
172
     1
173
     0
174
     0
175
     0
176
     0
177
     0
178
     0
270
     2
271
     4
272
     4
273
     2
274
     2
340
10
275
     0
280
     0
281
     0
282
     0
283
     1
284
     0
285
     0
286
     0
287
     3
288
     0
  0
ENDTAB
  0
TABLE
  2
BLOCK_RECORD
  5
1
330
0
100
AcDbSymbolTable
 70
    51
  0
BLOCK_RECORD
  5
1A
330
1
100
AcDbSymbolTableRecord
100
AcDbBlockTableRecord
  2
*MODEL_SPACE
  0
BLOCK_RECORD
  5
28FB
330
1
100
AcDbSymbolTableRecord
100
AcDbBlockTableRecord
  2
*PAPER_SPACE
  0
BLOCK_RECORD
  5
65
330
1
100
AcDbSymbolTableRecord
100
AcDbBlockTableRecord
  2
A$C3392
  0
BLOCK_RECORD
  5
29BF
330
1
100
AcDbSymbolTableRecord
100
AcDbBlockTableRecord
  2
A4横用_タイトル
1001
ACAD
1000
DesignCenter Data
1002
{
1070
     1
1070
     4
1002
}
  0
BLOCK_RECORD
  5
29F4
330
1
100
AcDbSymbolTableRecord
100
AcDbBlockTableRecord
  2
A4縦用_タイトル
1001
ACAD
1000
DesignCenter Data
1002
{
1070
     1
1070
     4
1002
}
  0
BLOCK_RECORD
  5
2A32
330
1
100
AcDbSymbolTableRecord
100
AcDbBlockTableRecord
  2
A3横用_タイトル
1001
ACAD
1000
DesignCenter Data
1002
{
1070
     1
1070
     4
1002
}
  0
BLOCK_RECORD
  5
2A6C
330
1
100
AcDbSymbolTableRecord
100
AcDbBlockTableRecord
  2
A3縦用_タイトル
1001
ACAD
1000
DesignCenter Data
1002
{
1070
     1
1070
     4
1002
}
  0
BLOCK_RECORD
  5
2AF4
330
1
100
AcDbSymbolTableRecord
100
AcDbBlockTableRecord
  2
_OPEN30
  0
BLOCK_RECORD
  5
46DE
330
1
100
AcDbSymbolTableRecord
100
AcDbBlockTableRecord
  2
*D6
  0
BLOCK_RECORD
  5
46EB
330
1
100
AcDbSymbolTableRecord
100
AcDbBlockTableRecord
  2
*D7
  0
BLOCK_RECORD
  5
471C
330
1
100
AcDbSymbolTableRecord
100
AcDbBlockTableRecord
  2
*D8
  0
BLOCK_RECORD
  5
473B
330
1
100
AcDbSymbolTableRecord
100
AcDbBlockTableRecord
  2
*D9
  0
BLOCK_RECORD
  5
475A
330
1
100
AcDbSymbolTableRecord
100
AcDbBlockTableRecord
  2
*D10
  0
BLOCK_RECORD
  5
478E
330
1
100
AcDbSymbolTableRecord
100
AcDbBlockTableRecord
  2
*D11
  0
BLOCK_RECORD
  5
47B9
330
1
100
AcDbSymbolTableRecord
100
AcDbBlockTableRecord
  2
*D12
  0
BLOCK_RECORD
  5
47ED
330
1
100
AcDbSymbolTableRecord
100
AcDbBlockTableRecord
  2
*D13
  0
BLOCK_RECORD
  5
483F
330
1
100
AcDbSymbolTableRecord
100
AcDbBlockTableRecord
  2
*D14
  0
BLOCK_RECORD
  5
484C
330
1
100
AcDbSymbolTableRecord
100
AcDbBlockTableRecord
  2
*D15
  0
BLOCK_RECORD
  5
4A7E
330
1
100
AcDbSymbolTableRecord
100
AcDbBlockTableRecord
  2
*D16
  0
BLOCK_RECORD
  5
4AC9
330
1
100
AcDbSymbolTableRecord
100
AcDbBlockTableRecord
  2
*D18
  0
BLOCK_RECORD
  5
4B06
330
1
100
AcDbSymbolTableRecord
100
AcDbBlockTableRecord
  2
静電容量センサ
  0
BLOCK_RECORD
  5
4FB7
330
1
100
AcDbSymbolTableRecord
100
AcDbBlockTableRecord
  2
*D46
  0
BLOCK_RECORD
  5
4FCF
330
1
100
AcDbSymbolTableRecord
100
AcDbBlockTableRecord
  2
*D48
  0
BLOCK_RECORD
  5
51AE
330
1
100
AcDbSymbolTableRecord
100
AcDbBlockTableRecord
  2
*D50
  0
ENDTAB
  0
ENDSEC
  0
SECTION
  2
BLOCKS
  0
BLOCK
  5
1B
330
1A
100
AcDbEntity
  8
0
100
AcDbBlockBegin
  2
*MODEL_SPACE
 70
     0
 10
0.0
 20
0.0
 30
0.0
  3
*MODEL_SPACE
  1

  0
ENDBLK
  5
1C
330
1A
100
AcDbEntity
  8
0
100
AcDbBlockEnd
  0
BLOCK
  5
28FD
330
28FB
100
AcDbEntity
 67
     1
  8
0
 48
10.0
100
AcDbBlockBegin
  2
*PAPER_SPACE
 70
     0
 10
0.0
 20
0.0
 30
0.0
  3
*PAPER_SPACE
  1

  0
ENDBLK
  5
28FE
330
28FB
100
AcDbEntity
 67
     1
  8
0
 48
10.0
100
AcDbBlockEnd
  0
BLOCK
  5
93
330
65
100
AcDbEntity
  8
0
100
AcDbBlockBegin
  2
A$C3392
 70
     0
 10
0.0
 20
0.0
 30
0.0
  3
A$C3392
  1

  0
LINE
  5
66
330
65
100
AcDbEntity
  8
図枠太線
  6
CONTINUOUS
100
AcDbLine
 10
211.858584505185
 20
30.927375675439
 30
0.0
 11
211.858584505185
 21
0.927375675439
 31
0.0
  0
LINE
  5
67
330
65
100
AcDbEntity
  8
図枠細線
  6
CONTINUOUS
100
AcDbLine
 10
231.858592505185
 20
15.927377675439
 30
0.0
 11
287.858592505185
 21
15.927375675439
 31
0.0
  0
LINE
  5
68
330
65
100
AcDbEntity
  8
図枠細線
  6
CONTINUOUS
100
AcDbLine
 10
211.858592505185
 20
15.927377675439
 30
0.0
 11
231.858592505185
 21
15.927377675439
 31
0.0
  0
LINE
  5
69
330
65
100
AcDbEntity
  8
図枠太線
  6
CONTINUOUS
 62
   251
100
AcDbLine
 10
1.858584505185
 20
0.927375675439
 30
0.0
 11
1.858584505185
 21
275.927375675439
 31
0.0
  0
TEXT
  5
6A
330
65
100
AcDbEntity
  8
図枠細線
  6
CONTINUOUS
 62
   252
100
AcDbText
 10
351.358592505185
 20
28.427377675439
 30
0.0
 40
2.0
  1
ＴＩＴＬＥ
 41
0.903614457831
  7
EXCADSTD
 72
     5
 11
361.358592505185
 21
28.427377675439
 31
0.0
100
AcDbText
  0
TEXT
  5
6B
330
65
100
AcDbEntity
  8
図枠細線
  6
CONTINUOUS
 62
   252
100
AcDbText
 10
345.358592505185
 20
28.427377675439
 30
0.0
 40
2.0
  1
名称
 41
1.171875
  7
EXCADSTD
 72
     5
 11
350.358592505185
 21
28.427377675439
 31
0.0
100
AcDbText
  0
TEXT
  5
6C
330
65
100
AcDbEntity
  8
図枠細線
  6
CONTINUOUS
 62
   252
100
AcDbText
 10
274.358592505185
 20
25.927377675439
 30
0.0
 40
2.0
  1
ＤＲＡＷＮ
 41
0.882352941176
  7
EXCADSTD
 72
     5
 11
284.358592505185
 21
25.927377675439
 31
0.0
100
AcDbText
  0
TEXT
  5
6D
330
65
100
AcDbEntity
  8
図枠細線
  6
CONTINUOUS
 62
   252
100
AcDbText
 10
260.358592505185
 20
25.927377675439
 30
0.0
 40
2.0
  1
ＤＥＳＩＧＮＥＤ
 41
0.713043472041
  7
EXCADSTD
 72
     5
 11
273.478592390744
 21
25.927377675439
 31
0.0
100
AcDbText
  0
TEXT
  5
6E
330
65
100
AcDbEntity
  8
図枠細線
  6
CONTINUOUS
 62
   252
100
AcDbText
 10
246.358592505185
 20
25.927377675439
 30
0.0
 40
2.0
  1
ＣＨＥＣＫＥＤ
 41
0.831249989569
  7
EXCADSTD
 72
     5
 11
259.658592338292
 21
25.927377675439
 31
0.0
100
AcDbText
  0
TEXT
  5
6F
330
65
100
AcDbEntity
  8
図枠細線
  6
CONTINUOUS
 62
   252
100
AcDbText
 10
274.358592505185
 20
28.427377675439
 30
0.0
 40
2.0
  1
製図
 41
1.209677419355
  7
EXCADSTD
 72
     5
 11
279.358592505185
 21
28.427377675439
 31
0.0
100
AcDbText
  0
TEXT
  5
70
330
65
100
AcDbEntity
  8
図枠細線
  6
CONTINUOUS
 62
   252
100
AcDbText
 10
260.358592505185
 20
28.427377675439
 30
0.0
 40
2.0
  1
設計
 41
1.171875
  7
EXCADSTD
 72
     5
 11
265.358592505185
 21
28.427377675439
 31
0.0
100
AcDbText
  0
TEXT
  5
71
330
65
100
AcDbEntity
  8
図枠細線
  6
CONTINUOUS
 62
   252
100
AcDbText
 10
246.358592505185
 20
28.427377675439
 30
0.0
 40
2.0
  1
検図
 41
1.209677419355
  7
EXCADSTD
 72
     5
 11
251.358592505185
 21
28.427377675439
 31
0.0
100
AcDbText
  0
TEXT
  5
72
330
65
100
AcDbEntity
  8
図枠細線
  6
CONTINUOUS
 62
   252
100
AcDbText
 10
232.358592505185
 20
25.927377675439
 30
0.0
 40
2.0
  1
ＡＰＰＲＯＶＥＤ
 41
0.695652184279
  7
EXCADSTD
 72
     5
 11
245.15859269592
 21
25.927377675439
 31
0.0
100
AcDbText
  0
TEXT
  5
73
330
65
100
AcDbEntity
  8
図枠細線
  6
CONTINUOUS
 62
   252
100
AcDbText
 10
232.358592505185
 20
28.427377675439
 30
0.0
 40
2.0
  1
承認
 41
1.171875
  7
EXCADSTD
 72
     5
 11
237.358592505185
 21
28.427377675439
 31
0.0
100
AcDbText
  0
TEXT
  5
74
330
65
100
AcDbEntity
  8
図枠細線
  6
CONTINUOUS
 62
   252
100
AcDbText
 10
290.069888505185
 20
2.574868675439
 30
0.0
 40
3.5
  1
ＴＯＷＡ　ＳＥＩＤＥＮ　ＩＮＤＵＳＴＲＩＡＬ　ＣＯ．，ＬＴＤ．
 41
0.414568012377
  7
EXCADSTD
 72
     5
 11
342.692388209546
 21
2.574868675439
 31
0.0
100
AcDbText
  0
TEXT
  5
75
330
65
100
AcDbEntity
  8
図枠ロゴマーク
  6
CONTINUOUS
 62
   253
100
AcDbText
 10
290.107348505185
 20
7.519769675439
 30
0.0
 40
7.0
  1
東和制電工業株式会社
 41
0.639204545455
  7
EXCADSTD
 72
     5
 11
342.607348505185
 21
7.519769675439
 31
0.0
100
AcDbText
  0
TEXT
  5
76
330
65
100
AcDbEntity
  8
図枠細線
  6
CONTINUOUS
 62
   252
100
AcDbText
 10
232.499705505185
 20
5.759088675439
 30
0.0
 40
2.0
  1
ＰＲＯＪＥＣＴＩＯＮ
 41
0.754285710199
  7
EXCADSTD
 72
     5
 11
250.099705409817
 21
5.759088675439
 31
0.0
100
AcDbText
  0
TEXT
  5
77
330
65
100
AcDbEntity
  8
図枠細線
  6
CONTINUOUS
 62
   252
100
AcDbText
 10
232.574629505185
 20
8.681077675439
 30
0.0
 40
2.0
  1
ＴＨＩＲＤ　ＡＮＧＬＥ
 41
0.691099486738
  7
EXCADSTD
 72
     5
 11
250.174629767445
 21
8.681077675439
 31
0.0
100
AcDbText
  0
TEXT
  5
78
330
65
100
AcDbEntity
  8
図枠細線
  6
CONTINUOUS
 62
   252
100
AcDbText
 10
256.823999505185
 20
13.427377675439
 30
0.0
 40
2.0
  1
ＳＣＡＬＥ
 41
0.903614457831
  7
EXCADSTD
 72
     5
 11
266.823999505185
 21
13.427377675439
 31
0.0
100
AcDbText
  0
TEXT
  5
79
330
65
100
AcDbEntity
  8
図枠細線
  6
CONTINUOUS
 62
   252
100
AcDbText
 10
274.858592505185
 20
13.427377675439
 30
0.0
 40
2.0
  1
ＤＡＴＥ
 41
0.923076923077
  7
EXCADSTD
 72
     5
 11
282.858592505185
 21
13.427377675439
 31
0.0
100
AcDbText
  0
TEXT
  5
7A
330
65
100
AcDbEntity
  8
図枠細線
  6
CONTINUOUS
 62
   252
100
AcDbText
 10
356.358592505185
 20
13.427377675439
 30
0.0
 40
2.0
  1
ＤＲＧ．ＮＯ．
 41
0.9375
  7
EXCADSTD
 72
     5
 11
370.358592505185
 21
13.427377675439
 31
0.0
100
AcDbText
  0
TEXT
  5
7B
330
65
100
AcDbEntity
  8
図枠細線
  6
CONTINUOUS
 62
   252
100
AcDbText
 10
345.358592505185
 20
13.427377675439
 30
0.0
 40
2.0
  1
図面番号
 41
1.102941176471
  7
EXCADSTD
 72
     5
 11
355.358592505185
 21
13.427377675439
 31
0.0
100
AcDbText
  0
TEXT
  5
7C
330
65
100
AcDbEntity
  8
図枠細線
  6
CONTINUOUS
 62
   252
100
AcDbText
 10
269.358592505185
 20
13.427377675439
 30
0.0
 40
2.0
  1
日付
 41
1.171875
  7
EXCADSTD
 72
     5
 11
274.358592505185
 21
13.427377675439
 31
0.0
100
AcDbText
  0
TEXT
  5
7D
330
65
100
AcDbEntity
  8
図枠細線
  6
CONTINUOUS
 62
   252
100
AcDbText
 10
251.451512505185
 20
13.427377675439
 30
0.0
 40
2.0
  1
尺度
 41
1.171875
  7
EXCADSTD
 72
     5
 11
256.451512505185
 21
13.427377675439
 31
0.0
100
AcDbText
  0
TEXT
  5
7E
330
65
100
AcDbEntity
  8
図枠細線
  6
CONTINUOUS
 62
   252
100
AcDbText
 10
232.358592505185
 20
13.427377675439
 30
0.0
 40
2.0
  1
第三角法
 41
1.102941176471
  7
EXCADSTD
 72
     5
 11
242.358592505185
 21
13.427377675439
 31
0.0
100
AcDbText
  0
TEXT
  5
7F
330
65
100
AcDbEntity
  8
図枠細線
  6
CONTINUOUS
 62
   252
100
AcDbText
 10
212.358592505185
 20
28.427377675439
 30
0.0
 40
2.0
  1
ＮＯＴＥ
 41
0.923076923077
  7
EXCADSTD
 72
     5
 11
220.358592505185
 21
28.427377675439
 31
0.0
100
AcDbText
  0
LINE
  5
80
330
65
100
AcDbEntity
  8
図枠細線
  6
CONTINUOUS
 62
   252
100
AcDbLine
 10
287.858592505185
 20
23.427375675439
 30
0.0
 11
344.858592505185
 21
23.427375675439
 31
0.0
  0
LINE
  5
81
330
65
100
AcDbEntity
  8
図枠太線
  6
CONTINUOUS
 62
   251
100
AcDbLine
 10
287.858584505185
 20
15.927375675439
 30
0.0
 11
344.858592505185
 21
15.927375675439
 31
0.0
  0
LINE
  5
82
330
65
100
AcDbEntity
  8
図枠細線
  6
CONTINUOUS
 62
   252
100
AcDbLine
 10
344.858592505185
 20
15.927375675439
 30
0.0
 11
401.858584505185
 21
15.927375675439
 31
0.0
  0
LINE
  5
83
330
65
100
AcDbEntity
  8
図枠太線
  6
CONTINUOUS
 62
   251
100
AcDbLine
 10
344.858592505185
 20
0.927377675439
 30
0.0
 11
344.858592505185
 21
30.927375675439
 31
0.0
  0
LINE
  5
84
330
65
100
AcDbEntity
  8
図枠太線
  6
CONTINUOUS
 62
   251
100
AcDbLine
 10
287.858592505185
 20
0.927377675439
 30
0.0
 11
287.858592505185
 21
30.927375675439
 31
0.0
  0
LINE
  5
85
330
65
100
AcDbEntity
  8
図枠細線
  6
CONTINUOUS
 62
   252
100
AcDbLine
 10
268.858592505185
 20
0.927377675439
 30
0.0
 11
268.858592505185
 21
15.927375675439
 31
0.0
  0
LINE
  5
86
330
65
100
AcDbEntity
  8
図枠細線
  6
CONTINUOUS
 62
   252
100
AcDbLine
 10
250.858592505185
 20
0.927377675439
 30
0.0
 11
250.858592505185
 21
15.927375675439
 31
0.0
  0
LINE
  5
87
330
65
100
AcDbEntity
  8
図枠細線
  6
CONTINUOUS
 62
   252
100
AcDbLine
 10
273.858592505185
 20
30.927375675439
 30
0.0
 11
273.858592505185
 21
15.927375675439
 31
0.0
  0
LINE
  5
88
330
65
100
AcDbEntity
  8
図枠細線
  6
CONTINUOUS
 62
   252
100
AcDbLine
 10
259.858592505185
 20
30.927375675439
 30
0.0
 11
259.858592505185
 21
15.927375675439
 31
0.0
  0
LINE
  5
89
330
65
100
AcDbEntity
  8
図枠細線
  6
CONTINUOUS
 62
   252
100
AcDbLine
 10
245.858592505185
 20
30.927375675439
 30
0.0
 11
245.858592505185
 21
15.927375675439
 31
0.0
  0
LINE
  5
8A
330
65
100
AcDbEntity
  8
図枠太線
  6
CONTINUOUS
 62
   251
100
AcDbLine
 10
231.858592505185
 20
0.927377675439
 30
0.0
 11
231.858592505185
 21
30.927375675439
 31
0.0
  0
LINE
  5
8B
330
65
100
AcDbEntity
  8
図枠細線
  6
CONTINUOUS
 62
   252
100
AcDbLine
 10
211.858592505185
 20
25.927375675439
 30
0.0
 11
231.858592505185
 21
25.927375675439
 31
0.0
  0
LINE
  5
8C
330
65
100
AcDbEntity
  8
図枠細線
  6
CONTINUOUS
 62
   252
100
AcDbLine
 10
211.858592505185
 20
20.927375675439
 30
0.0
 11
231.858592505185
 21
20.927375675439
 31
0.0
  0
LINE
  5
8D
330
65
100
AcDbEntity
  8
図枠細線
  6
CONTINUOUS
 62
   252
100
AcDbLine
 10
211.858592505185
 20
10.927375675439
 30
0.0
 11
231.858592505185
 21
10.927375675439
 31
0.0
  0
LINE
  5
8E
330
65
100
AcDbEntity
  8
図枠細線
  6
CONTINUOUS
 62
   252
100
AcDbLine
 10
211.858592505185
 20
5.927377675439
 30
0.0
 11
231.858592505185
 21
5.927377675439
 31
0.0
  0
LINE
  5
8F
330
65
100
AcDbEntity
  8
図枠太線
  6
CONTINUOUS
 62
   251
100
AcDbLine
 10
211.858592505185
 20
30.927375675439
 30
0.0
 11
401.858584505185
 21
30.927375675439
 31
0.0
  0
LINE
  5
90
330
65
100
AcDbEntity
  8
図枠太線
  6
CONTINUOUS
 62
   251
100
AcDbLine
 10
1.858584505185
 20
275.927375675439
 30
0.0
 11
401.858584505185
 21
275.927375675439
 31
0.0
  0
LINE
  5
91
330
65
100
AcDbEntity
  8
図枠太線
  6
CONTINUOUS
 62
   251
100
AcDbLine
 10
401.858584505185
 20
0.927375675439
 30
0.0
 11
401.858584505185
 21
275.927375675439
 31
0.0
  0
LINE
  5
92
330
65
100
AcDbEntity
  8
図枠太線
  6
CONTINUOUS
 62
   251
100
AcDbLine
 10
1.858584505185
 20
0.927375675439
 30
0.0
 11
401.858584505185
 21
0.927375675439
 31
0.0
  0
ENDBLK
  5
94
330
65
100
AcDbEntity
  8
0
100
AcDbBlockEnd
  0
BLOCK
  5
29C0
330
29BF
100
AcDbEntity
  8
0
100
AcDbBlockBegin
  2
A4横用_タイトル
 70
     0
 10
0.0
 20
0.0
 30
0.0
  3
A4横用_タイトル
  1

  0
LINE
  5
29C1
330
29BF
100
AcDbEntity
  8
図枠細線
  6
CONTINUOUS
100
AcDbLine
 10
75.061011071051
 20
16.806607253358
 30
0.0
 11
144.061011071051
 21
16.806604789072
 31
0.0
  0
LINE
  5
29C2
330
29BF
100
AcDbEntity
  8
図枠細線
  6
CONTINUOUS
 62
   252
100
AcDbLine
 10
4.061011071051
 20
11.806606253358
 30
0.0
 11
75.061011071051
 21
11.806606253358
 31
0.0
  0
LINE
  5
29C3
330
29BF
100
AcDbEntity
  8
図枠細線
  6
CONTINUOUS
 62
   252
100
AcDbLine
 10
4.061011071051
 20
21.806606253358
 30
0.0
 11
75.061011071051
 21
21.806606253358
 31
0.0
  0
LINE
  5
29C4
330
29BF
100
AcDbEntity
  8
図枠細線
  6
CONTINUOUS
 62
   252
100
AcDbLine
 10
4.061011071051
 20
26.806606253358
 30
0.0
 11
75.061011071051
 21
26.806606253358
 31
0.0
  0
LINE
  5
29C5
330
29BF
100
AcDbEntity
  8
図枠細線
  6
CONTINUOUS
100
AcDbLine
 10
4.061011071051
 20
16.806608253358
 30
0.0
 11
75.061011071051
 21
16.806608253358
 31
0.0
  0
TEXT
  5
29C6
330
29BF
100
AcDbEntity
  8
図枠細線
  6
CONTINUOUS
 62
   252
100
AcDbText
 10
76.405475827713
 20
9.560308253358
 30
0.0
 40
2.0
  1
ＴＨＩＲＤ　ＡＮＧＬＥ
 41
0.691099486738
  7
EXCADSTD
 72
     5
 11
94.005476089973
 21
9.560308253358
 31
0.0
100
AcDbText
  0
TEXT
  5
29C7
330
29BF
100
AcDbEntity
  8
図枠細線
  6
CONTINUOUS
 62
   252
100
AcDbText
 10
76.705775880921
 20
14.306608253358
 30
0.0
 40
2.0
  1
第三角法
 41
1.102941176471
  7
EXCADSTD
 72
     5
 11
86.705775880921
 21
14.306608253358
 31
0.0
100
AcDbText
  0
TEXT
  5
29C8
330
29BF
100
AcDbEntity
  8
図枠細線
  6
CONTINUOUS
 62
   252
100
AcDbText
 10
76.705775880921
 20
26.806608253358
 30
0.0
 40
2.0
  1
ＡＰＰＲＯＶＥＤ
 41
0.695652184279
  7
EXCADSTD
 72
     5
 11
89.505776071656
 21
26.806608253358
 31
0.0
100
AcDbText
  0
TEXT
  5
29C9
330
29BF
100
AcDbEntity
  8
図枠細線
  6
CONTINUOUS
 62
   252
100
AcDbText
 10
76.705775880921
 20
29.306608253358
 30
0.0
 40
2.0
  1
承認
 41
1.171875
  7
EXCADSTD
 72
     5
 11
81.705775880921
 21
29.306608253358
 31
0.0
100
AcDbText
  0
LINE
  5
29CA
330
29BF
100
AcDbEntity
  8
図枠細線
  6
CONTINUOUS
 62
   252
100
AcDbLine
 10
98.061011071051
 20
31.806606253358
 30
0.0
 11
98.061011071051
 21
16.806606253358
 31
0.0
  0
TEXT
  5
29CB
330
29BF
100
AcDbEntity
  8
図枠細線
  6
CONTINUOUS
 62
   252
100
AcDbText
 10
104.216531119804
 20
14.306608253358
 30
0.0
 40
2.0
  1
ＳＣＡＬＥ
 41
0.903614457831
  7
EXCADSTD
 72
     5
 11
114.216531119804
 21
14.306608253358
 31
0.0
100
AcDbText
  0
TEXT
  5
29CC
330
29BF
100
AcDbEntity
  8
図枠細線
  6
CONTINUOUS
 62
   252
100
AcDbText
 10
98.844044119804
 20
14.306608253358
 30
0.0
 40
2.0
  1
尺度
 41
1.171875
  7
EXCADSTD
 72
     5
 11
103.844044119804
 21
14.306608253358
 31
0.0
100
AcDbText
  0
TEXT
  5
29CD
330
29BF
100
AcDbEntity
  8
図枠細線
  6
CONTINUOUS
 62
   252
100
AcDbText
 10
98.968727707497
 20
26.806608253358
 30
0.0
 40
2.0
  1
ＣＨＥＣＫＥＤ
 41
0.831249989569
  7
EXCADSTD
 72
     5
 11
112.268727540604
 21
26.806608253358
 31
0.0
100
AcDbText
  0
TEXT
  5
29CE
330
29BF
100
AcDbEntity
  8
図枠細線
  6
CONTINUOUS
 62
   252
100
AcDbText
 10
98.968727707497
 20
29.306608253358
 30
0.0
 40
2.0
  1
検図
 41
1.209677419355
  7
EXCADSTD
 72
     5
 11
103.968727707497
 21
29.306608253358
 31
0.0
100
AcDbText
  0
LINE
  5
29CF
330
29BF
100
AcDbEntity
  8
図枠細線
  6
CONTINUOUS
 62
   252
100
AcDbLine
 10
121.061011071051
 20
31.806606253358
 30
0.0
 11
121.061011071051
 21
16.806606253358
 31
0.0
  0
TEXT
  5
29D0
330
29BF
100
AcDbEntity
  8
図枠細線
  6
CONTINUOUS
 62
   252
100
AcDbText
 10
128.001465247253
 20
14.306608253358
 30
0.0
 40
2.0
  1
ＤＡＴＥ
 41
0.923076923077
  7
EXCADSTD
 72
     5
 11
136.001465247253
 21
14.306608253358
 31
0.0
100
AcDbText
  0
TEXT
  5
29D1
330
29BF
100
AcDbEntity
  8
図枠細線
  6
CONTINUOUS
 62
   252
100
AcDbText
 10
122.066415498841
 20
14.306608253358
 30
0.0
 40
2.0
  1
日付
 41
1.171875
  7
EXCADSTD
 72
     5
 11
127.066415498841
 21
14.306608253358
 31
0.0
100
AcDbText
  0
TEXT
  5
29D2
330
29BF
100
AcDbEntity
  8
図枠細線
  6
CONTINUOUS
 62
   252
100
AcDbText
 10
121.59429406571
 20
29.306608253358
 30
0.0
 40
2.0
  1
製図
 41
1.209677419355
  7
EXCADSTD
 72
     5
 11
126.59429406571
 21
29.306608253358
 31
0.0
100
AcDbText
  0
TEXT
  5
29D3
330
29BF
100
AcDbEntity
  8
図枠細線
  6
CONTINUOUS
 62
   252
100
AcDbText
 10
121.59429406571
 20
26.806608253358
 30
0.0
 40
2.0
  1
ＤＲＡＷＮ
 41
0.882352941176
  7
EXCADSTD
 72
     5
 11
131.59429406571
 21
26.806608253358
 31
0.0
100
AcDbText
  0
TEXT
  5
29D4
330
29BF
100
AcDbEntity
  8
図枠細線
  6
CONTINUOUS
 62
   252
100
AcDbText
 10
226.591229661348
 20
14.306608253358
 30
0.0
 40
2.0
  1
ＤＲＧ．ＮＯ．
 41
0.9375
  7
EXCADSTD
 72
     5
 11
240.591229661348
 21
14.306608253358
 31
0.0
100
AcDbText
  0
LINE
  5
29D5
330
29BF
100
AcDbEntity
  8
図枠太線
  6
CONTINUOUS
 62
   251
100
AcDbLine
 10
144.061003071051
 20
16.806606253358
 30
0.0
 11
214.061011071051
 21
16.806606253358
 31
0.0
  0
LINE
  5
29D6
330
29BF
100
AcDbEntity
  8
図枠細線
  6
CONTINUOUS
 62
   252
100
AcDbLine
 10
144.061011071051
 20
24.306606253358
 30
0.0
 11
214.061011071051
 21
24.306606253358
 31
0.0
  0
TEXT
  5
29D7
330
29BF
100
AcDbEntity
  8
図枠ロゴマーク
  6
CONTINUOUS
 62
   253
100
AcDbText
 10
146.433776781596
 20
8.399000253358
 30
0.0
 40
7.0
  1
東和制電工業株式会社
 41
0.80361088462
  7
EXCADSTD
 72
     5
 11
212.437017438349
 21
8.399000253358
 31
0.0
100
AcDbText
  0
TEXT
  5
29D8
330
29BF
100
AcDbEntity
  8
図枠細線
  6
CONTINUOUS
 62
   252
100
AcDbText
 10
215.156179912936
 20
14.306608253358
 30
0.0
 40
2.0
  1
図面番号
 41
1.102941176471
  7
EXCADSTD
 72
     5
 11
225.156179912936
 21
14.306608253358
 31
0.0
100
AcDbText
  0
TEXT
  5
29D9
330
29BF
100
AcDbEntity
  8
図枠細線
  6
CONTINUOUS
 62
   252
100
AcDbText
 10
221.591229661348
 20
29.306608253358
 30
0.0
 40
2.0
  1
ＴＩＴＬＥ
 41
0.903614457831
  7
EXCADSTD
 72
     5
 11
231.591229661348
 21
29.306608253358
 31
0.0
100
AcDbText
  0
TEXT
  5
29DA
330
29BF
100
AcDbEntity
  8
図枠細線
  6
CONTINUOUS
 62
   252
100
AcDbText
 10
215.156179912936
 20
29.306608253358
 30
0.0
 40
2.0
  1
名称
 41
1.171875
  7
EXCADSTD
 72
     5
 11
220.156179912936
 21
29.306608253358
 31
0.0
100
AcDbText
  0
LINE
  5
29DB
330
29BF
100
AcDbEntity
  8
図枠太線
  6
CONTINUOUS
 62
   251
100
AcDbLine
 10
4.061011071051
 20
1.806608253358
 30
0.0
 11
284.061011071051
 21
1.806608253358
 31
0.0
  0
LINE
  5
29DC
330
29BF
100
AcDbEntity
  8
図枠細線
  6
CONTINUOUS
 62
   252
100
AcDbLine
 10
4.061011071051
 20
6.806608253358
 30
0.0
 11
75.061011071051
 21
6.806608253358
 31
0.0
  0
LINE
  5
29DD
330
29BF
100
AcDbEntity
  8
図枠太線
  6
CONTINUOUS
 62
   251
100
AcDbLine
 10
75.061011071051
 20
1.806608253358
 30
0.0
 11
75.061011071051
 21
31.806606253358
 31
0.0
  0
TEXT
  5
29DE
330
29BF
100
AcDbEntity
  8
図枠細線
  6
CONTINUOUS
 62
   252
100
AcDbText
 10
76.330551827713
 20
6.638319253358
 30
0.0
 40
2.0
  1
ＰＲＯＪＥＣＴＩＯＮ
 41
0.754285710199
  7
EXCADSTD
 72
     5
 11
93.930551732346
 21
6.638319253358
 31
0.0
100
AcDbText
  0
LINE
  5
29DF
330
29BF
100
AcDbEntity
  8
図枠細線
  6
CONTINUOUS
 62
   252
100
AcDbLine
 10
98.061011071051
 20
1.806606931929
 30
0.0
 11
98.061011071051
 21
16.806604931929
 31
0.0
  0
LINE
  5
29E0
330
29BF
100
AcDbEntity
  8
図枠細線
  6
CONTINUOUS
 62
   252
100
AcDbLine
 10
121.061011071051
 20
1.806607574787
 30
0.0
 11
121.061011071051
 21
16.806605574787
 31
0.0
  0
LINE
  5
29E1
330
29BF
100
AcDbEntity
  8
図枠太線
  6
CONTINUOUS
 62
   251
100
AcDbLine
 10
284.061011071051
 20
1.806608253358
 30
0.0
 11
284.061011071051
 21
31.806606253358
 31
0.0
  0
LINE
  5
29E2
330
29BF
100
AcDbEntity
  8
図枠細線
  6
CONTINUOUS
 62
   252
100
AcDbLine
 10
214.061011071051
 20
16.806606253358
 30
0.0
 11
284.061011071051
 21
16.806606253358
 31
0.0
  0
TEXT
  5
29E3
330
29BF
100
AcDbEntity
  8
図枠細線
  6
CONTINUOUS
 62
   252
100
AcDbText
 10
146.199593676182
 20
3.454099253358
 30
0.0
 40
3.5
  1
ＴＯＷＡ　ＳＥＩＤＥＮ　ＩＮＤＵＳＴＲＩＡＬ　ＣＯ．，ＬＴＤ．
 41
0.528937826907
  7
EXCADSTD
 72
     5
 11
213.339435171588
 21
3.454099253358
 31
0.0
100
AcDbText
  0
LINE
  5
29E4
330
29BF
100
AcDbEntity
  8
図枠太線
  6
CONTINUOUS
 62
   251
100
AcDbLine
 10
144.061011071051
 20
1.806608253358
 30
0.0
 11
144.061011071051
 21
31.806606253358
 31
0.0
  0
LINE
  5
29E5
330
29BF
100
AcDbEntity
  8
図枠太線
  6
CONTINUOUS
 62
   251
100
AcDbLine
 10
214.061011071051
 20
1.806608253358
 30
0.0
 11
214.061011071051
 21
31.806606253358
 31
0.0
  0
MTEXT
  5
29E6
330
29BF
100
AcDbEntity
  8
図枠太線
100
AcDbMText
 10
5.064337346478
 20
31.010982137407
 30
0.0
 40
2.5
 41
8.67856098472
 71
     1
 72
     5
  1
{\Fmonotxt.shx,bigfont.shx|c128;図暦}
  0
LINE
  5
29E7
330
29BF
100
AcDbEntity
  8
図枠太線
  6
CONTINUOUS
 62
   251
100
AcDbLine
 10
4.061011071051
 20
1.806608253358
 30
0.0
 11
4.061011071051
 21
31.806606253358
 31
0.0
  0
TEXT
  5
29E8
330
29BF
100
AcDbEntity
  8
図枠細線
 48
10.0
100
AcDbText
 10
12.260817420402
 20
28.625419626495
 30
0.0
 40
2.0
  1
CHANGE NOTICE
100
AcDbText
  0
ENDBLK
  5
29E9
330
29BF
100
AcDbEntity
  8
0
100
AcDbBlockEnd
  0
BLOCK
  5
29F5
330
29F4
100
AcDbEntity
  8
0
100
AcDbBlockBegin
  2
A4縦用_タイトル
 70
     0
 10
0.0
 20
0.0
 30
0.0
  3
A4縦用_タイトル
  1

  0
LINE
  5
29F6
330
29F4
100
AcDbEntity
  8
図枠太線
  6
CONTINUOUS
 62
   251
100
AcDbLine
 10
2.368253864267
 20
4.525433224584
 30
0.0
 11
192.368245864267
 21
4.525433224584
 31
0.0
  0
LINE
  5
29F7
330
29F4
100
AcDbEntity
  8
図枠太線
  6
CONTINUOUS
 62
   251
100
AcDbLine
 10
78.368245864267
 20
19.525431224584
 30
0.0
 11
135.368253864267
 21
19.525431224584
 31
0.0
  0
LINE
  5
29F8
330
29F4
100
AcDbEntity
  8
図枠細線
  6
CONTINUOUS
 62
   252
100
AcDbLine
 10
78.368253864267
 20
27.025431224584
 30
0.0
 11
135.368253864267
 21
27.025431224584
 31
0.0
  0
TEXT
  5
29F9
330
29F4
100
AcDbEntity
  8
図枠ロゴマーク
  6
CONTINUOUS
 62
   253
100
AcDbText
 10
80.617009864267
 20
11.117825224584
 30
0.0
 40
7.0
  1
東和制電工業株式会社
 41
0.639204545455
  7
EXCADSTD
 72
     5
 11
133.117009864267
 21
11.117825224584
 31
0.0
100
AcDbText
  0
TEXT
  5
29FA
330
29F4
100
AcDbEntity
  8
図枠細線
  6
CONTINUOUS
 62
   252
100
AcDbText
 10
80.579549864267
 20
6.172924224584
 30
0.0
 40
3.5
  1
ＴＯＷＡ　ＳＥＩＤＥＮ　ＩＮＤＵＳＴＲＩＡＬ　ＣＯ．，ＬＴＤ．
 41
0.414568012377
  7
EXCADSTD
 72
     5
 11
133.202049568628
 21
6.172924224584
 31
0.0
100
AcDbText
  0
LINE
  5
29FB
330
29F4
100
AcDbEntity
  8
図枠太線
  6
CONTINUOUS
 62
   251
100
AcDbLine
 10
2.368253864267
 20
4.525433224584
 30
0.0
 11
2.368253864267
 21
34.525431224584
 31
0.0
  0
TEXT
  5
29FC
330
29F4
100
AcDbEntity
  8
図枠細線
  6
CONTINUOUS
 62
   252
100
AcDbText
 10
22.504308136501
 20
12.279133224584
 30
0.0
 40
2.0
  1
ＴＨＩＲＤ　ＡＮＧＬＥ
 41
0.691099486738
  7
EXCADSTD
 72
     5
 11
40.104308398762
 21
12.279133224584
 31
0.0
100
AcDbText
  0
TEXT
  5
29FD
330
29F4
100
AcDbEntity
  8
図枠細線
  6
CONTINUOUS
 62
   252
100
AcDbText
 10
22.429384136501
 20
9.357144224584
 30
0.0
 40
2.0
  1
ＰＲＯＪＥＣＴＩＯＮ
 41
0.754285710199
  7
EXCADSTD
 72
     5
 11
40.029384041134
 21
9.357144224584
 31
0.0
100
AcDbText
  0
LINE
  5
29FE
330
29F4
100
AcDbEntity
  8
図枠細線
  6
CONTINUOUS
100
AcDbLine
 10
22.368253864267
 20
19.525433224584
 30
0.0
 11
78.368253864267
 21
19.525431224584
 31
0.0
  0
TEXT
  5
29FF
330
29F4
100
AcDbEntity
  8
図枠細線
  6
CONTINUOUS
 62
   252
100
AcDbText
 10
22.868253864267
 20
17.025433224584
 30
0.0
 40
2.0
  1
第三角法
 41
1.102941176471
  7
EXCADSTD
 72
     5
 11
32.868253864267
 21
17.025433224584
 31
0.0
100
AcDbText
  0
TEXT
  5
2A00
330
29F4
100
AcDbEntity
  8
図枠細線
  6
CONTINUOUS
 62
   252
100
AcDbText
 10
22.868253864267
 20
29.525433224584
 30
0.0
 40
2.0
  1
ＡＰＰＲＯＶＥＤ
 41
0.695652184279
  7
EXCADSTD
 72
     5
 11
35.668254055002
 21
29.525433224584
 31
0.0
100
AcDbText
  0
LINE
  5
2A01
330
29F4
100
AcDbEntity
  8
図枠細線
  6
CONTINUOUS
 62
   252
100
AcDbLine
 10
2.368253864267
 20
9.525433224584
 30
0.0
 11
22.368253864267
 21
9.525433224584
 31
0.0
  0
LINE
  5
2A02
330
29F4
100
AcDbEntity
  8
図枠細線
  6
CONTINUOUS
 62
   252
100
AcDbLine
 10
2.368253864267
 20
14.525431224584
 30
0.0
 11
22.368253864267
 21
14.525431224584
 31
0.0
  0
LINE
  5
2A03
330
29F4
100
AcDbEntity
  8
図枠細線
  6
CONTINUOUS
 62
   252
100
AcDbLine
 10
2.368253864267
 20
24.525431224584
 30
0.0
 11
22.368253864267
 21
24.525431224584
 31
0.0
  0
LINE
  5
2A04
330
29F4
100
AcDbEntity
  8
図枠細線
  6
CONTINUOUS
 62
   252
100
AcDbLine
 10
2.368253864267
 20
29.525431224584
 30
0.0
 11
22.368253864267
 21
29.525431224584
 31
0.0
  0
LINE
  5
2A05
330
29F4
100
AcDbEntity
  8
図枠細線
  6
CONTINUOUS
100
AcDbLine
 10
2.368253864267
 20
19.525433224584
 30
0.0
 11
22.368253864267
 21
19.525433224584
 31
0.0
  0
TEXT
  5
2A06
330
29F4
100
AcDbEntity
  8
図枠細線
  6
CONTINUOUS
 62
   252
100
AcDbText
 10
2.868253864267
 20
32.025433224584
 30
0.0
 40
2.0
  1
ＮＯＴＥ
 41
0.923076923077
  7
EXCADSTD
 72
     5
 11
10.868253864267
 21
32.025433224584
 31
0.0
100
AcDbText
  0
LINE
  5
2A07
330
29F4
100
AcDbEntity
  8
図枠太線
  6
CONTINUOUS
 62
   251
100
AcDbLine
 10
22.368253864267
 20
4.525433224584
 30
0.0
 11
22.368253864267
 21
34.525431224584
 31
0.0
  0
TEXT
  5
2A08
330
29F4
100
AcDbEntity
  8
図枠細線
  6
CONTINUOUS
 62
   252
100
AcDbText
 10
22.868253864267
 20
32.025433224584
 30
0.0
 40
2.0
  1
承認
 41
1.171875
  7
EXCADSTD
 72
     5
 11
27.868253864267
 21
32.025433224584
 31
0.0
100
AcDbText
  0
TEXT
  5
2A09
330
29F4
100
AcDbEntity
  8
図枠細線
  6
CONTINUOUS
 62
   252
100
AcDbText
 10
60.711709035982
 20
32.025433224584
 30
0.0
 40
2.0
  1
製図
 41
1.209677419355
  7
EXCADSTD
 72
     5
 11
65.711709035982
 21
32.025433224584
 31
0.0
100
AcDbText
  0
TEXT
  5
2A0A
330
29F4
100
AcDbEntity
  8
図枠細線
  6
CONTINUOUS
 62
   252
100
AcDbText
 10
60.711709035982
 20
29.525433224584
 30
0.0
 40
2.0
  1
ＤＲＡＷＮ
 41
0.882352941176
  7
EXCADSTD
 72
     5
 11
70.711709035982
 21
29.525433224584
 31
0.0
100
AcDbText
  0
TEXT
  5
2A0B
330
29F4
100
AcDbEntity
  8
図枠細線
  6
CONTINUOUS
 62
   252
100
AcDbText
 10
60.834891743877
 20
17.025433224584
 30
0.0
 40
2.0
  1
日付
 41
1.171875
  7
EXCADSTD
 72
     5
 11
65.834891743877
 21
17.025433224584
 31
0.0
100
AcDbText
  0
TEXT
  5
2A0C
330
29F4
100
AcDbEntity
  8
図枠細線
  6
CONTINUOUS
 62
   252
100
AcDbText
 10
47.333660864267
 20
17.025433224584
 30
0.0
 40
2.0
  1
ＳＣＡＬＥ
 41
0.903614457831
  7
EXCADSTD
 72
     5
 11
57.333660864267
 21
17.025433224584
 31
0.0
100
AcDbText
  0
TEXT
  5
2A0D
330
29F4
100
AcDbEntity
  8
図枠細線
  6
CONTINUOUS
 62
   252
100
AcDbText
 10
42.281425990082
 20
29.525433224584
 30
0.0
 40
2.0
  1
ＣＨＥＣＫＥＤ
 41
0.831249989569
  7
EXCADSTD
 72
     5
 11
55.581425823189
 21
29.525433224584
 31
0.0
100
AcDbText
  0
LINE
  5
2A0E
330
29F4
100
AcDbEntity
  8
図枠細線
  6
CONTINUOUS
 62
   252
100
AcDbLine
 10
40.968253864267
 20
34.525431224584
 30
0.0
 11
40.968253864267
 21
19.525431224584
 31
0.0
  0
LINE
  5
2A0F
330
29F4
100
AcDbEntity
  8
図枠細線
  6
CONTINUOUS
 62
   252
100
AcDbLine
 10
40.968253864267
 20
4.525433224584
 30
0.0
 11
40.968253864267
 21
19.525431224584
 31
0.0
  0
TEXT
  5
2A10
330
29F4
100
AcDbEntity
  8
図枠細線
  6
CONTINUOUS
 62
   252
100
AcDbText
 10
41.961173864267
 20
17.025433224584
 30
0.0
 40
2.0
  1
尺度
 41
1.171875
  7
EXCADSTD
 72
     5
 11
46.961173864267
 21
17.025433224584
 31
0.0
100
AcDbText
  0
TEXT
  5
2A11
330
29F4
100
AcDbEntity
  8
図枠細線
  6
CONTINUOUS
 62
   252
100
AcDbText
 10
42.281425990082
 20
32.025433224584
 30
0.0
 40
2.0
  1
検図
 41
1.209677419355
  7
EXCADSTD
 72
     5
 11
47.281425990082
 21
32.025433224584
 31
0.0
100
AcDbText
  0
LINE
  5
2A12
330
29F4
100
AcDbEntity
  8
図枠細線
  6
CONTINUOUS
 62
   252
100
AcDbLine
 10
59.768253864267
 20
34.525431224584
 30
0.0
 11
59.768253864267
 21
19.525431224584
 31
0.0
  0
LINE
  5
2A13
330
29F4
100
AcDbEntity
  8
図枠細線
  6
CONTINUOUS
 62
   252
100
AcDbLine
 10
59.768253864267
 20
4.525433224584
 30
0.0
 11
59.768253864267
 21
19.525431224584
 31
0.0
  0
LINE
  5
2A14
330
29F4
100
AcDbEntity
  8
図枠太線
  6
CONTINUOUS
 62
   251
100
AcDbLine
 10
78.368253864267
 20
4.525433224584
 30
0.0
 11
78.368253864267
 21
34.525431224584
 31
0.0
  0
TEXT
  5
2A15
330
29F4
100
AcDbEntity
  8
図枠細線
  6
CONTINUOUS
 62
   252
100
AcDbText
 10
66.334891743877
 20
17.025433224584
 30
0.0
 40
2.0
  1
ＤＡＴＥ
 41
0.923076923077
  7
EXCADSTD
 72
     5
 11
74.334891743877
 21
17.025433224584
 31
0.0
100
AcDbText
  0
LINE
  5
2A16
330
29F4
100
AcDbEntity
  8
図枠細線
  6
CONTINUOUS
 62
   252
100
AcDbLine
 10
135.368253864267
 20
19.525431224584
 30
0.0
 11
192.368245864267
 21
19.525431224584
 31
0.0
  0
TEXT
  5
2A17
330
29F4
100
AcDbEntity
  8
図枠細線
  6
CONTINUOUS
 62
   252
100
AcDbText
 10
141.868253864267
 20
32.025433224584
 30
0.0
 40
2.0
  1
ＴＩＴＬＥ
 41
0.903614457831
  7
EXCADSTD
 72
     5
 11
151.868253864267
 21
32.025433224584
 31
0.0
100
AcDbText
  0
LINE
  5
2A18
330
29F4
100
AcDbEntity
  8
図枠太線
  6
CONTINUOUS
 62
   251
100
AcDbLine
 10
135.368253864267
 20
4.525433224584
 30
0.0
 11
135.368253864267
 21
34.525431224584
 31
0.0
  0
TEXT
  5
2A19
330
29F4
100
AcDbEntity
  8
図枠細線
  6
CONTINUOUS
 62
   252
100
AcDbText
 10
135.868253864267
 20
17.025433224584
 30
0.0
 40
2.0
  1
図面番号
 41
1.102941176471
  7
EXCADSTD
 72
     5
 11
145.868253864267
 21
17.025433224584
 31
0.0
100
AcDbText
  0
TEXT
  5
2A1A
330
29F4
100
AcDbEntity
  8
図枠細線
  6
CONTINUOUS
 62
   252
100
AcDbText
 10
135.868253864267
 20
32.025433224584
 30
0.0
 40
2.0
  1
名称
 41
1.171875
  7
EXCADSTD
 72
     5
 11
140.868253864267
 21
32.025433224584
 31
0.0
100
AcDbText
  0
TEXT
  5
2A1B
330
29F4
100
AcDbEntity
  8
図枠細線
  6
CONTINUOUS
 62
   252
100
AcDbText
 10
146.868253864267
 20
17.025433224584
 30
0.0
 40
2.0
  1
ＤＲＧ．ＮＯ．
 41
0.9375
  7
EXCADSTD
 72
     5
 11
160.868253864267
 21
17.025433224584
 31
0.0
100
AcDbText
  0
LINE
  5
2A1C
330
29F4
100
AcDbEntity
  8
図枠太線
  6
CONTINUOUS
 62
   251
100
AcDbLine
 10
192.368245864267
 20
4.525433224584
 30
0.0
 11
192.368245864267
 21
34.525431224584
 31
0.0
  0
ENDBLK
  5
2A1D
330
29F4
100
AcDbEntity
  8
0
100
AcDbBlockEnd
  0
BLOCK
  5
2A33
330
2A32
100
AcDbEntity
  8
0
100
AcDbBlockBegin
  2
A3横用_タイトル
 70
     0
 10
0.0
 20
0.0
 30
0.0
  3
A3横用_タイトル
  1

  0
LINE
  5
2A34
330
2A32
100
AcDbEntity
  8
図枠細線
  6
CONTINUOUS
 62
   252
100
AcDbLine
 10
205.098414535793
 20
33.525959753527
 30
0.0
 11
305.098414535793
 21
33.525959753527
 31
0.0
  0
LINE
  5
2A35
330
2A32
100
AcDbEntity
  8
図枠太線
  6
CONTINUOUS
 62
   251
100
AcDbLine
 10
205.098414535793
 20
23.525959753527
 30
0.0
 11
305.098414535793
 21
23.525959753527
 31
0.0
  0
LINE
  5
2A36
330
2A32
100
AcDbEntity
  8
図枠細線
  6
CONTINUOUS
100
AcDbLine
 10
5.098414535793
 20
23.525959753527
 30
0.0
 11
105.098414535793
 21
23.525959753527
 31
0.0
  0
LINE
  5
2A37
330
2A32
100
AcDbEntity
  8
図枠細線
  6
CONTINUOUS
 62
   252
100
AcDbLine
 10
5.098414535793
 20
36.725957753527
 30
0.0
 11
105.098414535793
 21
36.725957753527
 31
0.0
  0
LINE
  5
2A38
330
2A32
100
AcDbEntity
  8
図枠細線
  6
CONTINUOUS
 62
   252
100
AcDbLine
 10
5.098414535793
 20
30.125957753527
 30
0.0
 11
105.098414535793
 21
30.125957753527
 31
0.0
  0
LINE
  5
2A39
330
2A32
100
AcDbEntity
  8
図枠細線
  6
CONTINUOUS
 62
   252
100
AcDbLine
 10
5.098414535793
 20
16.725959753527
 30
0.0
 11
105.098414535793
 21
16.725959753527
 31
0.0
  0
LINE
  5
2A3A
330
2A32
100
AcDbEntity
  8
図枠細線
  6
CONTINUOUS
 62
   252
100
AcDbLine
 10
5.098414535793
 20
10.125959753527
 30
0.0
 11
105.098414535793
 21
10.125959753527
 31
0.0
  0
LINE
  5
2A3B
330
2A32
100
AcDbEntity
  8
図枠細線
  6
CONTINUOUS
100
AcDbLine
 10
105.098414535793
 20
23.525961753527
 30
0.0
 11
205.098414535793
 21
23.525959753527
 31
0.0
  0
LINE
  5
2A3C
330
2A32
100
AcDbEntity
  8
図枠細線
  6
CONTINUOUS
 62
   252
100
AcDbLine
 10
138.398414535793
 20
43.525959753527
 30
0.0
 11
138.398414535793
 21
18.525957753527
 31
0.0
  0
LINE
  5
2A3D
330
2A32
100
AcDbEntity
  8
図枠細線
  6
CONTINUOUS
 62
   252
100
AcDbLine
 10
171.698414535793
 20
43.525959753527
 30
0.0
 11
171.698414535793
 21
18.525957753527
 31
0.0
  0
LINE
  5
2A3E
330
2A32
100
AcDbEntity
  8
図枠細線
  6
CONTINUOUS
 62
   252
100
AcDbLine
 10
305.098414535793
 20
23.525959753527
 30
0.0
 11
405.098414535793
 21
23.525959753527
 31
0.0
  0
TEXT
  5
2A3F
330
2A32
100
AcDbEntity
  8
図枠ロゴマーク
  6
CONTINUOUS
 62
   253
100
AcDbText
 10
206.102509212755
 20
13.294257570546
 30
0.0
 40
7.0
  1
東和制電工業株式会社
 50
0.016555220185
 41
1.186384129432
  7
EXCADSTD
 72
     5
 11
303.544188309143
 21
13.322412672217
 31
0.0
100
AcDbText
  0
MTEXT
  5
2A40
330
2A32
100
AcDbEntity
  8
図枠細線
100
AcDbMText
 10
6.356764112375
 20
41.976594175478
 30
0.0
 40
2.5
 41
49.938282706292
 71
     1
 72
     5
  1
{\Fmonotxt.shx,bigfont.shx|c128;図暦　CHANGE　NOTICE}
  0
MTEXT
  5
2A41
330
2A32
100
AcDbEntity
  8
図枠細線
 48
10.0
100
AcDbMText
 10
306.544114926828
 20
41.701835800934
 30
0.0
 40
2.5
 41
28.002809618823
 71
     1
 72
     5
  1
{\Fmonotxt.shx,bigfont.shx|c128;名称　TITLE}
  0
MTEXT
  5
2A42
330
2A32
100
AcDbEntity
  8
図枠細線
 48
10.0
100
AcDbMText
 10
307.329617114284
 20
21.606206797226
 30
0.0
 40
2.5
 41
24.385612216707
 71
     1
 72
     5
  1
{\Fmonotxt.shx,bigfont.shx|c128;図面番号\PDRG.　No.}
  0
MTEXT
  5
2A43
330
2A32
100
AcDbEntity
  8
図枠細線
 48
10.0
100
AcDbMText
 10
173.726349404609
 20
21.73680662198
 30
0.0
 40
2.5
 41
25.735090160813
 71
     1
 72
     5
  1
{\Fmonotxt.shx,bigfont.shx|c128;日付 DATE}
  0
MTEXT
  5
2A44
330
2A32
100
AcDbEntity
  8
図枠細線
 48
10.0
100
AcDbMText
 10
173.48708833982
 20
41.621592044998
 30
0.0
 40
2.5
 41
24.983741184205
 71
     1
 72
     5
  1
{\Fmonotxt.shx,bigfont.shx|c128;製図　DRAWN}
  0
MTEXT
  5
2A45
330
2A32
100
AcDbEntity
  8
図枠細線
 48
10.0
100
AcDbMText
 10
139.28009927741
 20
21.866713069868
 30
0.0
 40
2.5
 41
22.629632913243
 71
     1
 72
     5
  1
{\Fmonotxt.shx,bigfont.shx|c128;尺度　SCALE}
  0
MTEXT
  5
2A46
330
2A32
100
AcDbEntity
  8
図枠細線
 48
10.0
100
AcDbMText
 10
139.910091179835
 20
41.311840415554
 30
0.0
 40
2.5
 41
28.998753428368
 71
     1
 72
     5
  1
{\Fmonotxt.shx,bigfont.shx|c128;検図  CHECKED}
  0
MTEXT
  5
2A47
330
2A32
100
AcDbEntity
  8
図枠細線
 48
10.0
100
AcDbMText
 10
114.253294667728
 20
21.916124850174
 30
0.0
 40
3.0
 41
19.692400475383
 71
     1
 72
     5
  1
{\Fmonotxt.shx,bigfont.shx|c128;第三角法}
  0
MTEXT
  5
2A48
330
2A32
100
AcDbEntity
  8
図枠細線
 48
10.0
100
AcDbMText
 10
108.986959929915
 20
15.282880185837
 30
0.0
 40
2.5
 41
27.954882823547
 71
     1
 72
     5
  1
{\Fmonotxt.shx,bigfont.shx|c128;THIRD ANGLE\PPROJECTION}
  0
MTEXT
  5
2A49
330
2A32
100
AcDbEntity
  8
図枠細線
 48
10.0
100
AcDbMText
 10
106.319432640184
 20
41.511437145487
 30
0.0
 40
2.5
 41
28.233595265074
 71
     1
 72
     5
  1
{\Fmonotxt.shx,bigfont.shx|c128;承認 APPROVED}
  0
LINE
  5
2A4A
330
2A32
100
AcDbEntity
  8
図枠太線
  6
CONTINUOUS
 62
   251
100
AcDbLine
 10
5.098414535793
 20
3.525959753527
 30
0.0
 11
405.098414535793
 21
3.525959753527
 31
0.0
  0
LINE
  5
2A4B
330
2A32
100
AcDbEntity
  8
図枠太線
 48
10.0
100
AcDbLine
 10
5.098414535793
 20
3.525959753527
 30
0.0
 11
5.098414535793
 21
43.525959753527
 31
0.0
  0
LINE
  5
2A4C
330
2A32
100
AcDbEntity
  8
図枠太線
  6
CONTINUOUS
 62
   251
100
AcDbLine
 10
105.098414535793
 20
3.525959753527
 30
0.0
 11
105.098414535793
 21
43.525959753527
 31
0.0
  0
LINE
  5
2A4D
330
2A32
100
AcDbEntity
  8
図枠細線
  6
CONTINUOUS
 62
   252
100
AcDbLine
 10
138.398414535793
 20
3.525959753527
 30
0.0
 11
138.398414535793
 21
18.525957753527
 31
0.0
  0
LINE
  5
2A4E
330
2A32
100
AcDbEntity
  8
図枠細線
  6
CONTINUOUS
 62
   252
100
AcDbLine
 10
171.698414535793
 20
3.525959753527
 30
0.0
 11
171.698414535793
 21
18.525957753527
 31
0.0
  0
LINE
  5
2A4F
330
2A32
100
AcDbEntity
  8
図枠太線
  6
CONTINUOUS
 62
   251
100
AcDbLine
 10
205.098414535793
 20
3.525959753527
 30
0.0
 11
205.098414535793
 21
43.525959753527
 31
0.0
  0
LINE
  5
2A50
330
2A32
100
AcDbEntity
  8
図枠太線
 48
10.0
100
AcDbLine
 10
405.098414535793
 20
43.525959753527
 30
0.0
 11
405.098414535793
 21
3.525959753527
 31
0.0
  0
TEXT
  5
2A51
330
2A32
100
AcDbEntity
  8
図枠細線
  6
CONTINUOUS
 62
   252
100
AcDbText
 10
208.519754474572
 20
6.482358407285
 30
0.0
 40
3.5
  1
ＴＯＷＡ　ＳＥＩＤＥＮ　ＩＮＤＵＳＴＲＩＡＬ　ＣＯ．，ＬＴＤ．
 41
0.746656297509
  7
EXCADSTD
 72
     5
 11
303.295327171727
 21
6.482358407285
 31
0.0
100
AcDbText
  0
LINE
  5
2A52
330
2A32
100
AcDbEntity
  8
図枠太線
  6
CONTINUOUS
 62
   251
100
AcDbLine
 10
305.098414535793
 20
3.525959753527
 30
0.0
 11
305.098414535793
 21
43.525959753527
 31
0.0
  0
ENDBLK
  5
2A53
330
2A32
100
AcDbEntity
  8
0
100
AcDbBlockEnd
  0
BLOCK
  5
2A6D
330
2A6C
100
AcDbEntity
  8
0
100
AcDbBlockBegin
  2
A3縦用_タイトル
 70
     0
 10
0.0
 20
0.0
 30
0.0
  3
A3縦用_タイトル
  1

  0
MTEXT
  5
2A6E
330
2A6C
100
AcDbEntity
  8
図枠細線
100
AcDbMText
 10
5.040804501593
 20
31.626098649005
 30
0.0
 40
2.5
 41
49.938282706292
 71
     1
 72
     5
  1
{\Fmonotxt.shx,bigfont.shx|c128;図暦　CHANGE　NOTICE}
  0
LINE
  5
2A6F
330
2A6C
100
AcDbEntity
  8
図枠太線
  6
CONTINUOUS
 62
   251
100
AcDbLine
 10
283.577871882961
 20
2.820844689254
 30
0.0
 11
283.577871882961
 21
32.820842689254
 31
0.0
  0
MTEXT
  5
2A70
330
2A6C
100
AcDbEntity
  8
図枠細線
 48
10.0
100
AcDbMText
 10
214.912458947454
 20
31.621488632308
 30
0.0
 40
2.5
 41
28.002809618823
 71
     1
 72
     5
  1
{\Fmonotxt.shx,bigfont.shx|c128;名称　TITLE}
  0
MTEXT
  5
2A71
330
2A6C
100
AcDbEntity
  8
図枠細線
 48
10.0
100
AcDbMText
 10
214.740030458938
 20
16.310225796722
 30
0.0
 40
2.5
 41
24.385612216707
 71
     1
 72
     5
  1
{\Fmonotxt.shx,bigfont.shx|c128;図面番号\PDRG.　No.}
  0
LINE
  5
2A72
330
2A6C
100
AcDbEntity
  8
図枠太線
  6
CONTINUOUS
 62
   251
100
AcDbLine
 10
213.577871882961
 20
2.820844689254
 30
0.0
 11
213.577871882961
 21
32.820842689254
 31
0.0
  0
LINE
  5
2A73
330
2A6C
100
AcDbEntity
  8
図枠太線
  6
CONTINUOUS
 62
   251
100
AcDbLine
 10
143.577871882961
 20
2.820844689254
 30
0.0
 11
143.577871882961
 21
32.820842689254
 31
0.0
  0
TEXT
  5
2A74
330
2A6C
100
AcDbEntity
  8
図枠細線
  6
CONTINUOUS
 62
   252
100
AcDbText
 10
145.716454488093
 20
4.468335689254
 30
0.0
 40
3.5
  1
ＴＯＷＡ　ＳＥＩＤＥＮ　ＩＮＤＵＳＴＲＩＡＬ　ＣＯ．，ＬＴＤ．
 41
0.528937826907
  7
EXCADSTD
 72
     5
 11
212.856295983498
 21
4.468335689254
 31
0.0
100
AcDbText
  0
TEXT
  5
2A75
330
2A6C
100
AcDbEntity
  8
図枠ロゴマーク
  6
CONTINUOUS
 62
   253
100
AcDbText
 10
145.950637593507
 20
9.413236689254
 30
0.0
 40
7.0
  1
東和制電工業株式会社
 41
0.80361088462
  7
EXCADSTD
 72
     5
 11
211.953878250259
 21
9.413236689254
 31
0.0
100
AcDbText
  0
LINE
  5
2A76
330
2A6C
100
AcDbEntity
  8
図枠細線
  6
CONTINUOUS
 62
   252
100
AcDbLine
 10
143.577871882961
 20
25.320842689254
 30
0.0
 11
213.577871882961
 21
25.320842689254
 31
0.0
  0
LINE
  5
2A77
330
2A6C
100
AcDbEntity
  8
図枠太線
  6
CONTINUOUS
 62
   251
100
AcDbLine
 10
143.577863882961
 20
17.820842689254
 30
0.0
 11
213.577871882961
 21
17.820842689254
 31
0.0
  0
LINE
  5
2A78
330
2A6C
100
AcDbEntity
  8
図枠細線
  6
CONTINUOUS
 62
   252
100
AcDbLine
 10
213.577871882961
 20
17.820842689254
 30
0.0
 11
283.577871882961
 21
17.820842689254
 31
0.0
  0
LINE
  5
2A79
330
2A6C
100
AcDbEntity
  8
図枠細線
  6
CONTINUOUS
 62
   252
100
AcDbLine
 10
120.577871882961
 20
32.820842689254
 30
0.0
 11
120.577871882961
 21
17.820842689254
 31
0.0
  0
MTEXT
  5
2A7A
330
2A6C
100
AcDbEntity
  8
図枠細線
 48
10.0
100
AcDbMText
 10
121.100885670352
 20
16.33785922638
 30
0.0
 40
2.0
 41
17.705978285068
 71
     1
 72
     5
  1
{\Fmonotxt.shx,bigfont.shx|c128;日付 DATE}
  0
MTEXT
  5
2A7B
330
2A6C
100
AcDbEntity
  8
図枠細線
 48
10.0
100
AcDbMText
 10
121.254842273491
 20
31.208993514037
 30
0.0
 40
2.0
 41
18.363799568758
 71
     1
 72
     5
  1
{\Fmonotxt.shx,bigfont.shx|c128;製図　DRAWN}
  0
LINE
  5
2A7C
330
2A6C
100
AcDbEntity
  8
図枠細線
  6
CONTINUOUS
 62
   252
100
AcDbLine
 10
97.577871882961
 20
32.820842689254
 30
0.0
 11
97.577871882961
 21
17.820842689254
 31
0.0
  0
MTEXT
  5
2A7D
330
2A6C
100
AcDbEntity
  8
図枠細線
 48
10.0
100
AcDbMText
 10
98.239734796872
 20
16.467764839281
 30
0.0
 40
2.0
 41
17.757791689903
 71
     1
 72
     5
  1
{\Fmonotxt.shx,bigfont.shx|c128;尺度　SCALE}
  0
MTEXT
  5
2A7E
330
2A6C
100
AcDbEntity
  8
図枠細線
 48
10.0
100
AcDbMText
 10
97.864744625154
 20
31.298433377664
 30
0.0
 40
2.0
 41
23.162655920976
 71
     1
 72
     5
  1
{\Fmonotxt.shx,bigfont.shx|c128;検図  CHECKED}
  0
LINE
  5
2A7F
330
2A6C
100
AcDbEntity
  8
図枠細線
  6
CONTINUOUS
 62
   252
100
AcDbLine
 10
97.577871882961
 20
2.820843367826
 30
0.0
 11
97.577871882961
 21
17.820841367826
 31
0.0
  0
LINE
  5
2A80
330
2A6C
100
AcDbEntity
  8
図枠細線
  6
CONTINUOUS
 62
   252
100
AcDbLine
 10
120.577871882961
 20
2.820844010683
 30
0.0
 11
120.577871882961
 21
17.820842010683
 31
0.0
  0
MTEXT
  5
2A81
330
2A6C
100
AcDbEntity
  8
図枠細線
 48
10.0
100
AcDbMText
 10
81.402399084102
 20
16.316484117426
 30
0.0
 40
2.0
 41
12.920322819369
 71
     1
 72
     5
  1
{\Fmonotxt.shx,bigfont.shx|c128;第三角法}
  0
MTEXT
  5
2A82
330
2A6C
100
AcDbEntity
  8
図枠細線
 48
10.0
100
AcDbMText
 10
75.736576535096
 20
11.080410931319
 30
0.0
 40
2.0
 41
21.072870671471
 71
     1
 72
     5
  1
{\Fmonotxt.shx,bigfont.shx|c128;THIRD ANGLE\PPROJECTION}
  0
LINE
  5
2A83
330
2A6C
100
AcDbEntity
  8
図枠太線
  6
CONTINUOUS
 62
   251
100
AcDbLine
 10
74.577871882961
 20
2.820844689254
 30
0.0
 11
74.577871882961
 21
32.820842689254
 31
0.0
  0
MTEXT
  5
2A84
330
2A6C
100
AcDbEntity
  8
図枠細線
 48
10.0
100
AcDbMText
 10
75.060214781573
 20
31.298434778555
 30
0.0
 40
2.0
 41
22.240928805967
 71
     1
 72
     5
  1
{\Fmonotxt.shx,bigfont.shx|c128;承認 APPROVED}
  0
LINE
  5
2A85
330
2A6C
100
AcDbEntity
  8
図枠細線
  6
CONTINUOUS
100
AcDbLine
 10
3.577871882961
 20
17.820844689254
 30
0.0
 11
74.577871882961
 21
17.820844689254
 31
0.0
  0
LINE
  5
2A86
330
2A6C
100
AcDbEntity
  8
図枠細線
  6
CONTINUOUS
 62
   252
100
AcDbLine
 10
3.577871882961
 20
27.820842689254
 30
0.0
 11
74.577871882961
 21
27.820842689254
 31
0.0
  0
LINE
  5
2A87
330
2A6C
100
AcDbEntity
  8
図枠細線
  6
CONTINUOUS
 62
   252
100
AcDbLine
 10
3.577871882961
 20
22.820842689254
 30
0.0
 11
74.577871882961
 21
22.820842689254
 31
0.0
  0
LINE
  5
2A88
330
2A6C
100
AcDbEntity
  8
図枠細線
  6
CONTINUOUS
 62
   252
100
AcDbLine
 10
3.577871882961
 20
12.820842689254
 30
0.0
 11
74.577871882961
 21
12.820842689254
 31
0.0
  0
LINE
  5
2A89
330
2A6C
100
AcDbEntity
  8
図枠細線
  6
CONTINUOUS
 62
   252
100
AcDbLine
 10
3.577871882961
 20
7.820844689254
 30
0.0
 11
74.577871882961
 21
7.820844689254
 31
0.0
  0
LINE
  5
2A8A
330
2A6C
100
AcDbEntity
  8
図枠細線
  6
CONTINUOUS
100
AcDbLine
 10
74.577871882961
 20
17.820843689254
 30
0.0
 11
143.577871882961
 21
17.820841224969
 31
0.0
  0
LINE
  5
2A8B
330
2A6C
100
AcDbEntity
  8
図枠太線
  6
CONTINUOUS
 62
   251
100
AcDbLine
 10
3.577871882961
 20
2.820844689254
 30
0.0
 11
283.577871882961
 21
2.820844689254
 31
0.0
  0
LINE
  5
2A8C
330
2A6C
100
AcDbEntity
  8
図枠太線
  6
CONTINUOUS
 62
   251
100
AcDbLine
 10
3.577871882961
 20
2.820844689254
 30
0.0
 11
3.577871882961
 21
32.820842689254
 31
0.0
  0
ENDBLK
  5
2A8D
330
2A6C
100
AcDbEntity
  8
0
100
AcDbBlockEnd
  0
BLOCK
  5
2AF8
330
2AF4
100
AcDbEntity
  8
0
 48
10.0
100
AcDbBlockBegin
  2
_OPEN30
 70
     0
 10
0.0
 20
0.0
 30
0.0
  3
_OPEN30
  1

  0
LINE
  5
2AF5
330
2AF4
100
AcDbEntity
  8
0
  6
BYBLOCK
 62
     0
100
AcDbLine
 10
-1.0
 20
0.26794919
 30
0.0
 11
0.0
 21
0.0
 31
0.0
  0
LINE
  5
2AF6
330
2AF4
100
AcDbEntity
  8
0
  6
BYBLOCK
 62
     0
100
AcDbLine
 10
0.0
 20
0.0
 30
0.0
 11
-1.0
 21
-0.26794919
 31
0.0
  0
LINE
  5
2AF7
330
2AF4
100
AcDbEntity
  8
0
  6
BYBLOCK
 62
     0
100
AcDbLine
 10
0.0
 20
0.0
 30
0.0
 11
-1.0
 21
0.0
 31
0.0
  0
ENDBLK
  5
2AF9
330
2AF4
100
AcDbEntity
  8
0
 48
10.0
100
AcDbBlockEnd
  0
BLOCK
  5
46E8
330
46DE
100
AcDbEntity
  8
0
 48
10.0
100
AcDbBlockBegin
  2
*D6
 70
     1
 10
0.0
 20
0.0
 30
0.0
  3
*D6
  1

  0
LINE
  5
50CD
330
46DE
100
AcDbEntity
  8
寸法線
 62
     0
 48
10.0
100
AcDbLine
 10
242.466846674805
 20
405.713623815478
 30
0.0
 11
242.466846674805
 21
337.597698071445
 31
0.0
  0
LINE
  5
50CE
330
46DE
100
AcDbEntity
  8
寸法線
 62
     0
 48
10.0
100
AcDbLine
 10
257.466846674805
 20
403.413623815478
 30
0.0
 11
257.466846674805
 21
337.597698071445
 31
0.0
  0
LINE
  5
50CF
330
46DE
100
AcDbEntity
  8
寸法線
 62
     0
 48
10.0
100
AcDbLine
 10
248.466846674805
 20
338.847698071445
 30
0.0
 11
251.466846674805
 21
338.847698071445
 31
0.0
  0
INSERT
  5
50D0
330
46DE
100
AcDbEntity
  8
寸法線
 62
     0
 48
10.0
100
AcDbBlockReference
  2
_OPEN30
 10
242.466846674805
 20
338.847698071445
 30
0.0
 41
6.0
 42
6.0
 43
6.0
 50
180.0
  0
INSERT
  5
50D1
330
46DE
100
AcDbEntity
  8
寸法線
 62
     0
 48
10.0
100
AcDbBlockReference
  2
_OPEN30
 10
257.466846674805
 20
338.847698071445
 30
0.0
 41
6.0
 42
6.0
 43
6.0
  0
MTEXT
  5
50D2
330
46DE
100
AcDbEntity
  8
寸法線
 62
     0
 48
10.0
100
AcDbMText
 10
249.966846674805
 20
343.472698071445
 30
0.0
 40
8.0
 41
0.0
 71
     5
 72
     1
  1
\A1;15
  0
POINT
  5
50D3
330
46DE
100
AcDbEntity
  8
DEFPOINTS
 62
     0
 48
10.0
100
AcDbPoint
 10
242.466846674805
 20
406.338623815478
 30
0.0
  0
POINT
  5
50D4
330
46DE
100
AcDbEntity
  8
DEFPOINTS
 62
     0
 48
10.0
100
AcDbPoint
 10
257.466846674805
 20
404.038623815478
 30
0.0
  0
POINT
  5
50D5
330
46DE
100
AcDbEntity
  8
DEFPOINTS
 62
     0
 48
10.0
100
AcDbPoint
 10
257.466846674805
 20
338.847698071445
 30
0.0
  0
ENDBLK
  5
46E9
330
46DE
100
AcDbEntity
  8
0
 48
10.0
100
AcDbBlockEnd
  0
BLOCK
  5
46F5
330
46EB
100
AcDbEntity
  8
0
 48
10.0
100
AcDbBlockBegin
  2
*D7
 70
     1
 10
0.0
 20
0.0
 30
0.0
  3
*D7
  1

  0
LINE
  5
50D6
330
46EB
100
AcDbEntity
  8
寸法線
 62
     0
 48
10.0
100
AcDbLine
 10
192.466846674805
 20
405.713623815478
 30
0.0
 11
192.466846674805
 21
337.597698071445
 31
0.0
  0
LINE
  5
50D7
330
46EB
100
AcDbEntity
  8
寸法線
 62
     0
 48
10.0
100
AcDbLine
 10
242.466846674805
 20
405.713623815478
 30
0.0
 11
242.466846674805
 21
337.597698071445
 31
0.0
  0
LINE
  5
50D8
330
46EB
100
AcDbEntity
  8
寸法線
 62
     0
 48
10.0
100
AcDbLine
 10
198.466846674805
 20
338.847698071445
 30
0.0
 11
236.466846674805
 21
338.847698071445
 31
0.0
  0
INSERT
  5
50D9
330
46EB
100
AcDbEntity
  8
寸法線
 62
     0
 48
10.0
100
AcDbBlockReference
  2
_OPEN30
 10
192.466846674805
 20
338.847698071445
 30
0.0
 41
6.0
 42
6.0
 43
6.0
 50
180.0
  0
INSERT
  5
50DA
330
46EB
100
AcDbEntity
  8
寸法線
 62
     0
 48
10.0
100
AcDbBlockReference
  2
_OPEN30
 10
242.466846674805
 20
338.847698071445
 30
0.0
 41
6.0
 42
6.0
 43
6.0
  0
MTEXT
  5
50DB
330
46EB
100
AcDbEntity
  8
寸法線
 62
     0
 48
10.0
100
AcDbMText
 10
217.466846674805
 20
343.472698071445
 30
0.0
 40
8.0
 41
0.0
 71
     5
 72
     1
  1
\A1;50
  0
POINT
  5
50DC
330
46EB
100
AcDbEntity
  8
DEFPOINTS
 62
     0
 48
10.0
100
AcDbPoint
 10
192.466846674805
 20
406.338623815478
 30
0.0
  0
POINT
  5
50DD
330
46EB
100
AcDbEntity
  8
DEFPOINTS
 62
     0
 48
10.0
100
AcDbPoint
 10
242.466846674805
 20
406.338623815478
 30
0.0
  0
POINT
  5
50DE
330
46EB
100
AcDbEntity
  8
DEFPOINTS
 62
     0
 48
10.0
100
AcDbPoint
 10
242.466846674805
 20
338.847698071445
 30
0.0
  0
ENDBLK
  5
46F6
330
46EB
100
AcDbEntity
  8
0
 48
10.0
100
AcDbBlockEnd
  0
BLOCK
  5
4726
330
471C
100
AcDbEntity
  8
0
 48
10.0
100
AcDbBlockBegin
  2
*D8
 70
     1
 10
0.0
 20
0.0
 30
0.0
  3
*D8
  1

  0
LINE
  5
50DF
330
471C
100
AcDbEntity
  8
寸法線
 62
     0
 48
10.0
100
AcDbLine
 10
-74.625670236208
 20
406.413623815478
 30
0.0
 11
-74.625670236208
 21
337.597698071445
 31
0.0
  0
LINE
  5
50E0
330
471C
100
AcDbEntity
  8
寸法線
 62
     0
 48
10.0
100
AcDbLine
 10
25.374329763792
 20
404.913623815478
 30
0.0
 11
25.374329763792
 21
337.597698071445
 31
0.0
  0
LINE
  5
50E1
330
471C
100
AcDbEntity
  8
寸法線
 62
     0
 48
10.0
100
AcDbLine
 10
-68.625670236208
 20
338.847698071445
 30
0.0
 11
19.374329763792
 21
338.847698071445
 31
0.0
  0
INSERT
  5
50E2
330
471C
100
AcDbEntity
  8
寸法線
 62
     0
 48
10.0
100
AcDbBlockReference
  2
_OPEN30
 10
-74.625670236208
 20
338.847698071445
 30
0.0
 41
6.0
 42
6.0
 43
6.0
 50
180.0
  0
INSERT
  5
50E3
330
471C
100
AcDbEntity
  8
寸法線
 62
     0
 48
10.0
100
AcDbBlockReference
  2
_OPEN30
 10
25.374329763792
 20
338.847698071445
 30
0.0
 41
6.0
 42
6.0
 43
6.0
  0
MTEXT
  5
50E4
330
471C
100
AcDbEntity
  8
寸法線
 62
     0
 48
10.0
100
AcDbMText
 10
-24.625670236208
 20
343.47348547302
 30
0.0
 40
8.0
 41
0.0
 71
     5
 72
     1
  1
\A1;220
  0
POINT
  5
50E5
330
471C
100
AcDbEntity
  8
DEFPOINTS
 62
     0
 48
10.0
100
AcDbPoint
 10
-74.625670236208
 20
407.038623815478
 30
0.0
  0
POINT
  5
50E6
330
471C
100
AcDbEntity
  8
DEFPOINTS
 62
     0
 48
10.0
100
AcDbPoint
 10
25.374329763792
 20
405.538623815478
 30
0.0
  0
POINT
  5
50E7
330
471C
100
AcDbEntity
  8
DEFPOINTS
 62
     0
 48
10.0
100
AcDbPoint
 10
25.374329763792
 20
338.847698071445
 30
0.0
  0
ENDBLK
  5
4727
330
471C
100
AcDbEntity
  8
0
 48
10.0
100
AcDbBlockEnd
  0
BLOCK
  5
4745
330
473B
100
AcDbEntity
  8
0
 48
10.0
100
AcDbBlockBegin
  2
*D9
 70
     1
 10
0.0
 20
0.0
 30
0.0
  3
*D9
  1

  0
LINE
  5
50B2
330
473B
100
AcDbEntity
  8
寸法線
 62
     0
 48
10.0
100
AcDbLine
 10
-74.625670236208
 20
406.413623815478
 30
0.0
 11
-74.625670236208
 21
319.842964042187
 31
0.0
  0
LINE
  5
50B3
330
473B
100
AcDbEntity
  8
寸法線
 62
     0
 48
10.0
100
AcDbLine
 10
407.466846674805
 20
398.664123815478
 30
0.0
 11
407.466846674805
 21
319.842964042187
 31
0.0
  0
LINE
  5
50B4
330
473B
100
AcDbEntity
  8
寸法線
 62
     0
 48
10.0
100
AcDbLine
 10
-68.625670236208
 20
321.092964042187
 30
0.0
 11
401.466846674805
 21
321.092964042187
 31
0.0
  0
INSERT
  5
50B5
330
473B
100
AcDbEntity
  8
寸法線
 62
     0
100
AcDbBlockReference
  2
_OPEN30
 10
-74.625670236208
 20
321.092964042187
 30
0.0
 41
6.0
 42
6.0
 43
6.0
 50
180.0
  0
INSERT
  5
50B6
330
473B
100
AcDbEntity
  8
寸法線
 62
     0
100
AcDbBlockReference
  2
_OPEN30
 10
407.466846674805
 20
321.092964042187
 30
0.0
 41
6.0
 42
6.0
 43
6.0
  0
POINT
  5
50B7
330
473B
100
AcDbEntity
  8
DEFPOINTS
 62
     0
100
AcDbPoint
 10
-74.625670236208
 20
407.038623815478
 30
0.0
  0
POINT
  5
50B8
330
473B
100
AcDbEntity
  8
DEFPOINTS
 62
     0
100
AcDbPoint
 10
407.466846674805
 20
399.289123815478
 30
0.0
  0
POINT
  5
50B9
330
473B
100
AcDbEntity
  8
DEFPOINTS
 62
     0
100
AcDbPoint
 10
407.466846674805
 20
321.092964042187
 30
0.0
  0
ENDBLK
  5
4746
330
473B
100
AcDbEntity
  8
0
 48
10.0
100
AcDbBlockEnd
  0
BLOCK
  5
4764
330
475A
100
AcDbEntity
  8
0
 48
10.0
100
AcDbBlockBegin
  2
*D10
 70
     1
 10
0.0
 20
0.0
 30
0.0
  3
*D10
  1

  0
LINE
  5
50F1
330
475A
100
AcDbEntity
  8
寸法線
 62
     0
 48
10.0
100
AcDbLine
 10
386.906477638504
 20
408.038623815478
 30
0.0
 11
386.906477638504
 21
422.038623815478
 31
0.0
  0
LINE
  5
50F2
330
475A
100
AcDbEntity
  8
寸法線
 62
     0
 48
10.0
100
AcDbLine
 10
386.906477638504
 20
428.038623815478
 30
0.0
 11
386.906477638504
 21
453.685474209178
 31
0.0
  0
INSERT
  5
50F3
330
475A
100
AcDbEntity
  8
寸法線
 62
     0
 48
10.0
100
AcDbBlockReference
  2
_OPEN30
 10
386.906477638504
 20
402.038623815478
 30
0.0
 41
6.0
 42
6.0
 43
6.0
 50
270.0
  0
INSERT
  5
50F4
330
475A
100
AcDbEntity
  8
寸法線
 62
     0
 48
10.0
100
AcDbBlockReference
  2
_OPEN30
 10
386.906477638504
 20
428.038623815478
 30
0.0
 41
6.0
 42
6.0
 43
6.0
 50
90.0
  0
MTEXT
  5
50F5
330
475A
100
AcDbEntity
  8
寸法線
 62
     0
 48
10.0
100
AcDbMText
 10
382.280690236929
 20
443.862049012328
 30
0.0
 40
8.0
 41
0.0
 71
     5
 72
     1
  1
\A1;φ26
 11
6.123031769111886E-17
 21
1.0
 31
0.0
  0
POINT
  5
50F6
330
475A
100
AcDbEntity
  8
DEFPOINTS
 62
     0
 48
10.0
100
AcDbPoint
 10
407.466846674805
 20
428.038623815478
 30
0.0
  0
POINT
  5
50F7
330
475A
100
AcDbEntity
  8
DEFPOINTS
 62
     0
 48
10.0
100
AcDbPoint
 10
407.466846674805
 20
402.038623815478
 30
0.0
  0
POINT
  5
50F8
330
475A
100
AcDbEntity
  8
DEFPOINTS
 62
     0
 48
10.0
100
AcDbPoint
 10
386.906477638504
 20
402.038623815478
 30
0.0
  0
ENDBLK
  5
4765
330
475A
100
AcDbEntity
  8
0
 48
10.0
100
AcDbBlockEnd
  0
BLOCK
  5
4798
330
478E
100
AcDbEntity
  8
0
 48
10.0
100
AcDbBlockBegin
  2
*D11
 70
     1
 10
0.0
 20
0.0
 30
0.0
  3
*D11
  1

  0
LINE
  5
4941
330
478E
100
AcDbEntity
  8
寸法線
 62
     0
 48
10.0
100
AcDbLine
 10
298.12249945738
 20
408.538623815478
 30
0.0
 11
298.12249945738
 21
421.538623815478
 31
0.0
  0
LINE
  5
4942
330
478E
100
AcDbEntity
  8
寸法線
 62
     0
 48
10.0
100
AcDbLine
 10
298.12249945738
 20
427.538623815478
 30
0.0
 11
298.12249945738
 21
453.119994665376
 31
0.0
  0
INSERT
  5
4943
330
478E
100
AcDbEntity
  8
寸法線
 62
     0
 48
10.0
100
AcDbBlockReference
  2
_OPEN30
 10
298.12249945738
 20
402.538623815478
 30
0.0
 41
6.0
 42
6.0
 43
6.0
 50
270.0
  0
INSERT
  5
4944
330
478E
100
AcDbEntity
  8
寸法線
 62
     0
 48
10.0
100
AcDbBlockReference
  2
_OPEN30
 10
298.12249945738
 20
427.538623815478
 30
0.0
 41
6.0
 42
6.0
 43
6.0
 50
90.0
  0
MTEXT
  5
4945
330
478E
100
AcDbEntity
  8
寸法線
 62
     0
 48
10.0
100
AcDbMText
 10
293.496712055805
 20
443.329309240427
 30
0.0
 40
8.0
 41
0.0
 71
     5
 72
     1
  1
\A1;φ25
 11
6.123031769111886E-17
 21
1.0
 31
0.0
  0
POINT
  5
4946
330
478E
100
AcDbEntity
  8
DEFPOINTS
 62
     0
 48
10.0
100
AcDbPoint
 10
307.466846674805
 20
427.538623815478
 30
0.0
  0
POINT
  5
4947
330
478E
100
AcDbEntity
  8
DEFPOINTS
 62
     0
 48
10.0
100
AcDbPoint
 10
307.466846674805
 20
402.538623815478
 30
0.0
  0
POINT
  5
4948
330
478E
100
AcDbEntity
  8
DEFPOINTS
 62
     0
 48
10.0
100
AcDbPoint
 10
298.12249945738
 20
402.538623815478
 30
0.0
  0
ENDBLK
  5
4799
330
478E
100
AcDbEntity
  8
0
 48
10.0
100
AcDbBlockEnd
  0
BLOCK
  5
47C5
330
47B9
100
AcDbEntity
  8
0
 48
10.0
100
AcDbBlockBegin
  2
*D12
 70
     1
 10
0.0
 20
0.0
 30
0.0
  3
*D12
  1

  0
LINE
  5
4BA3
330
47B9
100
AcDbEntity
  8
寸法線
 62
     0
 48
10.0
100
AcDbLine
 10
72.029982546366
 20
406.538623815478
 30
0.0
 11
72.029982546366
 21
400.538623815478
 31
0.0
  0
LINE
  5
4BA4
330
47B9
100
AcDbEntity
  8
寸法線
 62
     0
 48
10.0
100
AcDbLine
 10
72.029982546366
 20
423.538623815478
 30
0.0
 11
72.029982546366
 21
443.519994665376
 31
0.0
  0
LINE
  5
4BA5
330
47B9
100
AcDbEntity
  8
寸法線
 62
     0
 48
10.0
100
AcDbLine
 10
72.029982546366
 20
412.538623815478
 30
0.0
 11
72.029982546366
 21
417.538623815478
 31
0.0
  0
INSERT
  5
4BA6
330
47B9
100
AcDbEntity
  8
寸法線
 62
     0
 48
10.0
100
AcDbBlockReference
  2
_OPEN30
 10
72.029982546366
 20
412.538623815478
 30
0.0
 41
6.0
 42
6.0
 43
6.0
 50
90.0
  0
INSERT
  5
4BA7
330
47B9
100
AcDbEntity
  8
寸法線
 62
     0
 48
10.0
100
AcDbBlockReference
  2
_OPEN30
 10
72.029982546366
 20
417.538623815478
 30
0.0
 41
6.0
 42
6.0
 43
6.0
 50
270.0
  0
MTEXT
  5
4BA8
330
47B9
100
AcDbEntity
  8
寸法線
 62
     0
 48
10.0
100
AcDbMText
 10
67.404982546366
 20
436.529309240427
 30
0.0
 40
8.0
 41
0.0
 71
     5
 72
     1
  1
\A1;φ5
 11
6.123031769111886E-17
 21
1.0
 31
0.0
  0
POINT
  5
4BA9
330
47B9
100
AcDbEntity
  8
DEFPOINTS
 62
     0
 48
10.0
100
AcDbPoint
 10
43.374329763792
 20
417.538623815478
 30
0.0
  0
POINT
  5
4BAA
330
47B9
100
AcDbEntity
  8
DEFPOINTS
 62
     0
 48
10.0
100
AcDbPoint
 10
43.374329763792
 20
412.538623815478
 30
0.0
  0
POINT
  5
4BAB
330
47B9
100
AcDbEntity
  8
DEFPOINTS
 62
     0
 48
10.0
100
AcDbPoint
 10
72.029982546366
 20
412.538623815478
 30
0.0
  0
ENDBLK
  5
47C6
330
47B9
100
AcDbEntity
  8
0
 48
10.0
100
AcDbBlockEnd
  0
BLOCK
  5
47F7
330
47ED
100
AcDbEntity
  8
0
 48
10.0
100
AcDbBlockBegin
  2
*D13
 70
     1
 10
0.0
 20
0.0
 30
0.0
  3
*D13
  1

  0
LINE
  5
4BAC
330
47ED
100
AcDbEntity
  8
寸法線
 62
     0
 48
10.0
100
AcDbLine
 10
12.029982546366
 20
411.038623815478
 30
0.0
 11
12.029982546366
 21
419.038623815478
 31
0.0
  0
LINE
  5
4BAD
330
47ED
100
AcDbEntity
  8
寸法線
 62
     0
 48
10.0
100
AcDbLine
 10
12.029982546366
 20
425.038623815478
 30
0.0
 11
12.029982546366
 21
450.294923028076
 31
0.0
  0
INSERT
  5
4BAE
330
47ED
100
AcDbEntity
  8
寸法線
 62
     0
 48
10.0
100
AcDbBlockReference
  2
_OPEN30
 10
12.029982546366
 20
405.038623815478
 30
0.0
 41
6.0
 42
6.0
 43
6.0
 50
270.0
  0
INSERT
  5
4BAF
330
47ED
100
AcDbEntity
  8
寸法線
 62
     0
 48
10.0
100
AcDbBlockReference
  2
_OPEN30
 10
12.029982546366
 20
425.038623815478
 30
0.0
 41
6.0
 42
6.0
 43
6.0
 50
90.0
  0
MTEXT
  5
4BB0
330
47ED
100
AcDbEntity
  8
寸法線
 62
     0
 48
10.0
100
AcDbMText
 10
7.404195144791
 20
440.666773421777
 30
0.0
 40
8.0
 41
0.0
 71
     5
 72
     1
  1
\A1;φ20
 11
6.123031769111886E-17
 21
1.0
 31
0.0
  0
POINT
  5
4BB1
330
47ED
100
AcDbEntity
  8
DEFPOINTS
 62
     0
 48
10.0
100
AcDbPoint
 10
24.874329763792
 20
425.038623815478
 30
0.0
  0
POINT
  5
4BB2
330
47ED
100
AcDbEntity
  8
DEFPOINTS
 62
     0
 48
10.0
100
AcDbPoint
 10
24.874329763792
 20
405.038623815478
 30
0.0
  0
POINT
  5
4BB3
330
47ED
100
AcDbEntity
  8
DEFPOINTS
 62
     0
 48
10.0
100
AcDbPoint
 10
12.029982546366
 20
405.038623815478
 30
0.0
  0
ENDBLK
  5
47F8
330
47ED
100
AcDbEntity
  8
0
 48
10.0
100
AcDbBlockEnd
  0
BLOCK
  5
4849
330
483F
100
AcDbEntity
  8
0
 48
10.0
100
AcDbBlockBegin
  2
*D14
 70
     1
 10
0.0
 20
0.0
 30
0.0
  3
*D14
  1

  0
LINE
  5
50C4
330
483F
100
AcDbEntity
  8
寸法線
 62
     0
 48
10.0
100
AcDbLine
 10
257.466846674805
 20
403.413623815478
 30
0.0
 11
257.466846674805
 21
337.597698071445
 31
0.0
  0
LINE
  5
50C5
330
483F
100
AcDbEntity
  8
寸法線
 62
     0
 48
10.0
100
AcDbLine
 10
307.466846674805
 20
401.913623815478
 30
0.0
 11
307.466846674805
 21
337.597698071445
 31
0.0
  0
LINE
  5
50C6
330
483F
100
AcDbEntity
  8
寸法線
 62
     0
 48
10.0
100
AcDbLine
 10
263.466846674805
 20
338.847698071445
 30
0.0
 11
301.466846674805
 21
338.847698071445
 31
0.0
  0
INSERT
  5
50C7
330
483F
100
AcDbEntity
  8
寸法線
 62
     0
 48
10.0
100
AcDbBlockReference
  2
_OPEN30
 10
257.466846674805
 20
338.847698071445
 30
0.0
 41
6.0
 42
6.0
 43
6.0
 50
180.0
  0
INSERT
  5
50C8
330
483F
100
AcDbEntity
  8
寸法線
 62
     0
 48
10.0
100
AcDbBlockReference
  2
_OPEN30
 10
307.466846674805
 20
338.847698071445
 30
0.0
 41
6.0
 42
6.0
 43
6.0
  0
MTEXT
  5
50C9
330
483F
100
AcDbEntity
  8
寸法線
 62
     0
 48
10.0
100
AcDbMText
 10
282.466846674805
 20
343.472698071445
 30
0.0
 40
8.0
 41
0.0
 71
     5
 72
     1
  1
\A1;50
  0
POINT
  5
50CA
330
483F
100
AcDbEntity
  8
DEFPOINTS
 62
     0
 48
10.0
100
AcDbPoint
 10
257.466846674805
 20
404.038623815478
 30
0.0
  0
POINT
  5
50CB
330
483F
100
AcDbEntity
  8
DEFPOINTS
 62
     0
 48
10.0
100
AcDbPoint
 10
307.466846674805
 20
402.538623815478
 30
0.0
  0
POINT
  5
50CC
330
483F
100
AcDbEntity
  8
DEFPOINTS
 62
     0
 48
10.0
100
AcDbPoint
 10
307.466846674805
 20
338.847698071445
 30
0.0
  0
ENDBLK
  5
484A
330
483F
100
AcDbEntity
  8
0
 48
10.0
100
AcDbBlockEnd
  0
BLOCK
  5
4856
330
484C
100
AcDbEntity
  8
0
 48
10.0
100
AcDbBlockBegin
  2
*D15
 70
     1
 10
0.0
 20
0.0
 30
0.0
  3
*D15
  1

  0
LINE
  5
507C
330
484C
100
AcDbEntity
  8
寸法線
 62
     0
 48
10.0
100
AcDbLine
 10
307.466846674805
 20
401.913623815478
 30
0.0
 11
307.466846674805
 21
337.597698071445
 31
0.0
  0
LINE
  5
507D
330
484C
100
AcDbEntity
  8
寸法線
 62
     0
 48
10.0
100
AcDbLine
 10
407.466846674805
 20
398.664123815477
 30
0.0
 11
407.466846674805
 21
337.597698071445
 31
0.0
  0
LINE
  5
507E
330
484C
100
AcDbEntity
  8
寸法線
 62
     0
 48
10.0
100
AcDbLine
 10
313.466846674805
 20
338.847698071445
 30
0.0
 11
401.466846674805
 21
338.847698071445
 31
0.0
  0
INSERT
  5
507F
330
484C
100
AcDbEntity
  8
寸法線
 62
     0
 48
10.0
100
AcDbBlockReference
  2
_OPEN30
 10
307.466846674805
 20
338.847698071445
 30
0.0
 41
6.0
 42
6.0
 43
6.0
 50
180.0
  0
INSERT
  5
5080
330
484C
100
AcDbEntity
  8
寸法線
 62
     0
 48
10.0
100
AcDbBlockReference
  2
_OPEN30
 10
407.466846674805
 20
338.847698071445
 30
0.0
 41
6.0
 42
6.0
 43
6.0
  0
MTEXT
  5
5081
330
484C
100
AcDbEntity
  8
寸法線
 62
     0
 48
10.0
100
AcDbMText
 10
357.466846674805
 20
343.472698071445
 30
0.0
 40
8.0
 41
0.0
 71
     5
 72
     1
  1
\A1;100
  0
POINT
  5
5082
330
484C
100
AcDbEntity
  8
DEFPOINTS
 62
     0
 48
10.0
100
AcDbPoint
 10
307.466846674805
 20
402.538623815478
 30
0.0
  0
POINT
  5
5083
330
484C
100
AcDbEntity
  8
DEFPOINTS
 62
     0
 48
10.0
100
AcDbPoint
 10
407.466846674805
 20
399.289123815477
 30
0.0
  0
POINT
  5
5084
330
484C
100
AcDbEntity
  8
DEFPOINTS
 62
     0
 48
10.0
100
AcDbPoint
 10
407.466846674805
 20
338.847698071445
 30
0.0
  0
ENDBLK
  5
4857
330
484C
100
AcDbEntity
  8
0
 48
10.0
100
AcDbBlockEnd
  0
BLOCK
  5
4A88
330
4A7E
100
AcDbEntity
  8
0
 48
10.0
100
AcDbBlockBegin
  2
*D16
 70
     1
 10
0.0
 20
0.0
 30
0.0
  3
*D16
  1

  0
LINE
  5
5073
330
4A7E
100
AcDbEntity
  8
寸法線
 62
     0
 48
10.0
100
AcDbLine
 10
407.466846674805
 20
398.664123815478
 30
0.0
 11
407.466846674805
 21
337.597698071445
 31
0.0
  0
LINE
  5
5074
330
4A7E
100
AcDbEntity
  8
寸法線
 62
     0
 48
10.0
100
AcDbLine
 10
432.466846674805
 20
395.413623818
 30
0.0
 11
432.466846674805
 21
337.597698071445
 31
0.0
  0
LINE
  5
5075
330
4A7E
100
AcDbEntity
  8
寸法線
 62
     0
 48
10.0
100
AcDbLine
 10
413.466846674805
 20
338.847698071445
 30
0.0
 11
426.466846674805
 21
338.847698071445
 31
0.0
  0
INSERT
  5
5076
330
4A7E
100
AcDbEntity
  8
寸法線
 62
     0
 48
10.0
100
AcDbBlockReference
  2
_OPEN30
 10
407.466846674805
 20
338.847698071445
 30
0.0
 41
6.0
 42
6.0
 43
6.0
 50
180.0
  0
INSERT
  5
5077
330
4A7E
100
AcDbEntity
  8
寸法線
 62
     0
 48
10.0
100
AcDbBlockReference
  2
_OPEN30
 10
432.466846674805
 20
338.847698071445
 30
0.0
 41
6.0
 42
6.0
 43
6.0
  0
MTEXT
  5
5078
330
4A7E
100
AcDbEntity
  8
寸法線
 62
     0
 48
10.0
100
AcDbMText
 10
419.966846674805
 20
343.47348547302
 30
0.0
 40
8.0
 41
0.0
 71
     5
 72
     1
  1
\A1;25
  0
POINT
  5
5079
330
4A7E
100
AcDbEntity
  8
DEFPOINTS
 62
     0
 48
10.0
100
AcDbPoint
 10
407.466846674805
 20
399.289123815478
 30
0.0
  0
POINT
  5
507A
330
4A7E
100
AcDbEntity
  8
DEFPOINTS
 62
     0
 48
10.0
100
AcDbPoint
 10
432.466846674805
 20
396.038623818
 30
0.0
  0
POINT
  5
507B
330
4A7E
100
AcDbEntity
  8
DEFPOINTS
 62
     0
 48
10.0
100
AcDbPoint
 10
432.466846674805
 20
338.847698071445
 30
0.0
  0
ENDBLK
  5
4A89
330
4A7E
100
AcDbEntity
  8
0
 48
10.0
100
AcDbBlockEnd
  0
BLOCK
  5
4AD3
330
4AC9
100
AcDbEntity
  8
0
 48
10.0
100
AcDbBlockBegin
  2
*D18
 70
     1
 10
0.0
 20
0.0
 30
0.0
  3
*D18
  1

  0
LINE
  5
5061
330
4AC9
100
AcDbEntity
  8
寸法線
 62
     0
 48
10.0
100
AcDbLine
 10
432.466846674805
 20
395.413623818
 30
0.0
 11
432.466846674805
 21
337.597698071445
 31
0.0
  0
LINE
  5
5062
330
4AC9
100
AcDbEntity
  8
寸法線
 62
     0
 48
10.0
100
AcDbLine
 10
452.466846674806
 20
395.413623817999
 30
0.0
 11
452.466846674806
 21
337.597698071445
 31
0.0
  0
LINE
  5
5063
330
4AC9
100
AcDbEntity
  8
寸法線
 62
     0
 48
10.0
100
AcDbLine
 10
438.466846674805
 20
338.847698071445
 30
0.0
 11
446.466846674806
 21
338.847698071445
 31
0.0
  0
INSERT
  5
5064
330
4AC9
100
AcDbEntity
  8
寸法線
 62
     0
 48
10.0
100
AcDbBlockReference
  2
_OPEN30
 10
432.466846674805
 20
338.847698071445
 30
0.0
 41
6.0
 42
6.0
 43
6.0
 50
180.0
  0
INSERT
  5
5065
330
4AC9
100
AcDbEntity
  8
寸法線
 62
     0
 48
10.0
100
AcDbBlockReference
  2
_OPEN30
 10
452.466846674806
 20
338.847698071445
 30
0.0
 41
6.0
 42
6.0
 43
6.0
  0
MTEXT
  5
5066
330
4AC9
100
AcDbEntity
  8
寸法線
 62
     0
 48
10.0
100
AcDbMText
 10
442.466846674805
 20
343.47348547302
 30
0.0
 40
8.0
 41
0.0
 71
     5
 72
     1
  1
\A1;20
  0
POINT
  5
5067
330
4AC9
100
AcDbEntity
  8
DEFPOINTS
 62
     0
 48
10.0
100
AcDbPoint
 10
432.466846674805
 20
396.038623818
 30
0.0
  0
POINT
  5
5068
330
4AC9
100
AcDbEntity
  8
DEFPOINTS
 62
     0
 48
10.0
100
AcDbPoint
 10
452.466846674806
 20
396.038623817999
 30
0.0
  0
POINT
  5
5069
330
4AC9
100
AcDbEntity
  8
DEFPOINTS
 62
     0
 48
10.0
100
AcDbPoint
 10
452.466846674806
 20
338.847698071445
 30
0.0
  0
ENDBLK
  5
4AD4
330
4AC9
100
AcDbEntity
  8
0
 48
10.0
100
AcDbBlockEnd
  0
BLOCK
  5
4B07
330
4B06
100
AcDbEntity
  8
0
 48
10.0
100
AcDbBlockBegin
  2
静電容量センサ
 70
     0
 10
0.0
 20
0.0
 30
0.0
  3
静電容量センサ
  1

  0
ARC
  5
4B08
330
4B06
100
AcDbEntity
  8
外形線
 48
10.0
100
AcDbCircle
 10
1021.898525663106
 20
1073.412780408912
 30
0.0
 40
1.0
100
AcDbArc
 50
180.0
 51
268.999999999998
  0
ARC
  5
4B09
330
4B06
100
AcDbEntity
  8
外形線
 48
10.0
100
AcDbCircle
 10
1021.898525663106
 20
1115.960781516243
 30
0.0
 40
1.0
100
AcDbArc
 50
91.000000000002
 51
180.0
  0
LINE
  5
4B0A
330
4B06
100
AcDbEntity
  8
外形線
 48
10.0
100
AcDbLine
 10
1020.898525663106
 20
1115.960781516243
 30
0.0
 11
1020.898525663106
 21
1073.412780408912
 31
0.0
  0
LINE
  5
4B0B
330
4B06
100
AcDbEntity
  8
外形線
 48
10.0
100
AcDbLine
 10
1035.026308504175
 20
1117.944859066978
 30
0.0
 11
1041.278741748243
 21
1143.02199911049
 31
0.0
  0
ARC
  5
4B0C
330
4B06
100
AcDbEntity
  8
外形線
 48
10.0
100
AcDbCircle
 10
1046.130220379623
 20
1141.812389632491
 30
0.0
 40
5.0
100
AcDbArc
 50
91.3
 51
166.000000000004
  0
ARC
  5
4B0D
330
4B06
100
AcDbEntity
  8
外形線
 48
10.0
100
AcDbCircle
 10
1034.056012777899
 20
1118.186780962578
 30
0.0
 40
1.0
100
AcDbArc
 50
270.0
 51
346.000000000004
  0
ARC
  5
4B0E
330
4B06
100
AcDbEntity
  8
外形線
 48
10.0
100
AcDbCircle
 10
1034.056012777899
 20
1118.186780962578
 30
0.0
 40
1.0
100
AcDbArc
 50
270.0
 51
346.000000000004
  0
LINE
  5
4B0F
330
4B06
100
AcDbEntity
  8
外形線
 48
10.0
100
AcDbLine
 10
1021.881073256669
 20
1116.960629211399
 30
0.0
 11
1034.056012777899
 21
1117.186780962578
 31
0.0
  0
ARC
  5
4B10
330
4B06
100
AcDbEntity
  8
外形線
 48
10.0
100
AcDbCircle
 10
1122.899564892808
 20
1151.93622955513
 30
0.0
 40
0.5
100
AcDbArc
 50
359.999254274584
 51
88.999999999998
  0
ARC
  5
4B11
330
4B06
100
AcDbEntity
  8
細線
 48
10.0
100
AcDbCircle
 10
1123.898525663106
 20
1107.819822714047
 30
0.0
 40
0.5
100
AcDbArc
 50
180.0
 51
264.089361084595
  0
ARC
  5
4B12
330
4B06
100
AcDbEntity
  8
外形線
 48
10.0
100
AcDbCircle
 10
1123.898525663106
 20
1100.44543233102
 30
0.0
 40
0.5
100
AcDbArc
 50
91.000000000002
 51
180.0
  0
ARC
  5
4B13
330
4B06
100
AcDbEntity
  8
細線
 48
10.0
100
AcDbCircle
 10
1123.898525663106
 20
1108.078641759149
 30
0.0
 40
0.5
100
AcDbArc
 50
180.0
 51
264.089361084595
  0
ARC
  5
4B14
330
4B06
100
AcDbEntity
  8
細線
 48
10.0
100
AcDbCircle
 10
1123.898525663106
 20
1129.71320712675
 30
0.0
 40
0.5
100
AcDbArc
 50
180.0
 51
254.206830951738
  0
ARC
  5
4B15
330
4B06
100
AcDbEntity
  8
細線
 48
10.0
100
AcDbCircle
 10
1123.898525663106
 20
1130.420313907937
 30
0.0
 40
0.5
100
AcDbArc
 50
180.0
 51
254.206830951738
  0
ARC
  5
4B16
330
4B06
100
AcDbEntity
  8
細線
 48
10.0
100
AcDbCircle
 10
1123.898525663106
 20
1142.359984147006
 30
0.0
 40
0.5
100
AcDbArc
 50
180.0
 51
248.874947125989
  0
ARC
  5
4B17
330
4B06
100
AcDbEntity
  8
細線
 48
10.0
100
AcDbCircle
 10
1123.898525663106
 20
1143.325909973296
 30
0.0
 40
0.5
100
AcDbArc
 50
180.0
 51
248.874947125989
  0
ARC
  5
4B18
330
4B06
100
AcDbEntity
  8
外形線
 48
10.0
100
AcDbCircle
 10
1123.898413585187
 20
1144.632076415673
 30
0.0
 40
0.5
100
AcDbArc
 50
180.019033969455
 51
248.025023881972
  0
LINE
  5
4B19
330
4B06
100
AcDbEntity
  8
外形線
 48
10.0
100
AcDbLine
 10
1123.398525663106
 20
1143.325909973296
 30
0.0
 11
1123.398525663106
 21
1144.294618045039
 31
0.0
  0
LINE
  5
4B1A
330
4B06
100
AcDbEntity
  8
外形線
 48
10.0
100
AcDbLine
 10
1123.398525663106
 20
1142.359984147006
 30
0.0
 11
1123.398525663106
 21
1142.98307227703
 31
0.0
  0
LINE
  5
4B1B
330
4B06
100
AcDbEntity
  8
外形線
 48
10.0
100
AcDbLine
 10
1123.398525663106
 20
1130.420313907937
 30
0.0
 11
1123.398525663106
 21
1142.017146450741
 31
0.0
  0
LINE
  5
4B1C
330
4B06
100
AcDbEntity
  8
外形線
 48
10.0
100
AcDbLine
 10
1123.398525663106
 20
1129.71320712675
 30
0.0
 11
1123.398525663106
 21
1130.042120021904
 31
0.0
  0
LINE
  5
4B1D
330
4B06
100
AcDbEntity
  8
外形線
 48
10.0
100
AcDbLine
 10
1123.398525663106
 20
1108.078641759149
 30
0.0
 11
1123.398525663106
 21
1130.420313907937
 31
0.0
  0
LINE
  5
4B1E
330
4B06
100
AcDbEntity
  8
外形線
 48
10.0
100
AcDbLine
 10
1123.398525663106
 20
1107.819822714047
 30
0.0
 11
1123.398525663106
 21
1108.700149198143
 31
0.0
  0
LINE
  5
4B1F
330
4B06
100
AcDbEntity
  8
外形線
 48
10.0
100
AcDbLine
 10
1123.398525663106
 20
1100.44543233102
 30
0.0
 11
1123.398525663106
 21
1108.078641759149
 31
0.0
  0
ARC
  5
4B20
330
4B06
100
AcDbEntity
  8
外形線
 48
10.0
100
AcDbCircle
 10
1123.898525663106
 20
1088.928129594135
 30
0.0
 40
0.5
100
AcDbArc
 50
180.0
 51
268.999999999998
  0
LINE
  5
4B21
330
4B06
100
AcDbEntity
  8
外形線
 48
10.0
100
AcDbLine
 10
1123.398525663106
 20
1088.928129594135
 30
0.0
 11
1123.398525663106
 21
1100.44543233102
 31
0.0
  0
ARC
  5
4B22
330
4B06
100
AcDbEntity
  8
外形線
 48
10.0
100
AcDbCircle
 10
1135.396646406818
 20
1087.727276821958
 30
0.0
 40
0.5
100
AcDbArc
 50
0.002863323129
 51
88.999999999998
  0
ARC
  5
4B23
330
4B06
100
AcDbEntity
  8
外形線
 48
10.0
100
AcDbCircle
 10
1135.396646406818
 20
1101.646285103198
 30
0.0
 40
0.5
100
AcDbArc
 50
271.000000000002
 51
359.997136676878
  0
ARC
  5
4B24
330
4B06
100
AcDbEntity
  8
細線
 48
10.0
100
AcDbCircle
 10
1135.398359871226
 20
1105.882746614783
 30
0.0
 40
0.5
100
AcDbArc
 50
359.978936747976
 51
84.089361084595
  0
ARC
  5
4B25
330
4B06
100
AcDbEntity
  8
細線
 48
10.0
100
AcDbCircle
 10
1135.396845195015
 20
1105.6240843805
 30
0.0
 40
0.5
100
AcDbArc
 50
359.997136676878
 51
84.089361084595
  0
ARC
  5
4B26
330
4B06
100
AcDbEntity
  8
細線
 48
10.0
100
AcDbCircle
 10
1135.398405428356
 20
1136.84472607817
 30
0.0
 40
0.5
100
AcDbArc
 50
359.997136676878
 51
68.874947125989
  0
ARC
  5
4B27
330
4B06
100
AcDbEntity
  8
細線
 48
10.0
100
AcDbCircle
 10
1135.398453699003
 20
1137.810633254114
 30
0.0
 40
0.5
100
AcDbArc
 50
359.997136676878
 51
68.874947125989
  0
ARC
  5
4B28
330
4B06
100
AcDbEntity
  8
外形線
 48
10.0
100
AcDbCircle
 10
1135.398508800797
 20
1138.913233296621
 30
0.0
 40
0.5
100
AcDbArc
 50
359.997136676878
 51
68.025023881972
  0
LINE
  5
4B29
330
4B06
100
AcDbEntity
  8
外形線
 48
10.0
100
AcDbLine
 10
1135.405372610037
 20
1101.146361255619
 30
0.0
 11
1123.889799459887
 21
1100.945356178598
 31
0.0
  0
LINE
  5
4B2A
330
4B06
100
AcDbEntity
  8
外形線
 48
10.0
100
AcDbLine
 10
1135.405372610037
 20
1088.227200669536
 30
0.0
 11
1123.889799459887
 21
1088.428205746557
 31
0.0
  0
LINE
  5
4B2B
330
4B06
100
AcDbEntity
  8
外形線
 48
10.0
100
AcDbLine
 10
1123.711312779708
 20
1144.168402728055
 30
0.0
 11
1135.585609606275
 21
1139.376906984239
 31
0.0
  0
LINE
  5
4B2C
330
4B06
100
AcDbEntity
  8
細線
 48
10.0
100
AcDbLine
 10
1135.448333812772
 20
1106.121426237015
 30
0.0
 11
1123.847037045349
 21
1107.322480857532
 31
0.0
  0
LINE
  5
4B2D
330
4B06
100
AcDbEntity
  8
細線
 48
10.0
100
AcDbLine
 10
1135.449848488983
 20
1106.380088471297
 30
0.0
 11
1123.847037045349
 21
1107.581299902634
 31
0.0
  0
LINE
  5
4B2E
330
4B06
100
AcDbEntity
  8
細線
 48
10.0
100
AcDbLine
 10
1135.533952658586
 20
1126.609702933466
 30
0.0
 11
1123.762442899618
 21
1129.939188683612
 31
0.0
  0
LINE
  5
4B2F
330
4B06
100
AcDbEntity
  8
細線
 48
10.0
100
AcDbLine
 10
1135.578607784566
 20
1137.311124095764
 30
0.0
 11
1123.718323306896
 21
1141.893586129411
 31
0.0
  0
LINE
  5
4B30
330
4B06
100
AcDbEntity
  8
細線
 48
10.0
100
AcDbLine
 10
1135.578656055213
 20
1138.277031271709
 30
0.0
 11
1123.718323306896
 21
1142.859511955701
 31
0.0
  0
LINE
  5
4B31
330
4B06
100
AcDbEntity
  8
外形線
 48
10.0
100
AcDbLine
 10
1108.899561566736
 20
1152.686780962578
 30
0.0
 11
1122.908291096026
 21
1152.436153402709
 31
0.0
  0
LINE
  5
4B32
330
4B06
100
AcDbEntity
  8
外形線
 48
10.0
100
AcDbLine
 10
1108.899561566736
 20
1152.686780962578
 30
0.0
 11
1108.399561566736
 21
1152.180676686204
 31
0.0
  0
LINE
  5
4B33
330
4B06
100
AcDbEntity
  8
外形線
 48
10.0
100
AcDbLine
 10
1108.399561566736
 20
1151.192885238951
 30
0.0
 11
1108.399561566736
 21
1150.692885238951
 31
0.0
  0
ARC
  5
4B34
330
4B06
100
AcDbEntity
  8
外形線
 48
10.0
100
AcDbCircle
 10
1098.998525663106
 20
1152.414559409545
 30
0.0
 40
4.4
100
AcDbArc
 50
271.3
 51
0.0
  0
LINE
  5
4B35
330
4B06
100
AcDbEntity
  8
外形線
 48
10.0
100
AcDbLine
 10
1046.016783711759
 20
1146.811102679105
 30
0.0
 11
1099.098349930826
 21
1148.015691928525
 31
0.0
  0
LINE
  5
4B36
330
4B06
100
AcDbEntity
  8
外形線
 48
10.0
100
AcDbLine
 10
1103.398525663105
 20
1152.686780962578
 30
0.0
 11
1103.398525663105
 21
1152.414559409545
 31
0.0
  0
LINE
  5
4B37
330
4B06
100
AcDbEntity
  8
外形線
 48
10.0
100
AcDbLine
 10
1106.398525663105
 20
1152.686780962578
 30
0.0
 11
1103.398525663105
 21
1152.686780962578
 31
0.0
  0
ARC
  5
4B38
330
4B06
100
AcDbEntity
  8
外形線
 48
10.0
100
AcDbCircle
 10
1107.898525663105
 20
1150.161780962577
 30
0.0
 40
1.500000000000156
100
AcDbArc
 50
70.528779365514
 51
179.999999999993
  0
LINE
  5
4B39
330
4B06
100
AcDbEntity
  8
細線
 48
10.0
100
AcDbLine
 10
1108.899561566736
 20
1152.686780962578
 30
0.0
 11
1108.899561566736
 21
1036.686780962578
 31
0.0
  0
LINE
  5
4B3A
330
4B06
100
AcDbEntity
  8
細線
 48
10.0
100
AcDbLine
 10
1108.899561566736
 20
1152.680676686204
 30
0.0
 11
1108.899561566736
 21
1036.692885238951
 31
0.0
  0
LINE
  5
4B3B
330
4B06
100
AcDbEntity
  8
外形線
 48
10.0
100
AcDbLine
 10
1123.398525663106
 20
1072.956444458874
 30
0.0
 11
1123.398525663106
 21
1059.660354798405
 31
0.0
  0
ARC
  5
4B3C
330
4B06
100
AcDbEntity
  8
細線
 48
10.0
100
AcDbCircle
 10
1123.898525663106
 20
1047.013577778149
 30
0.0
 40
0.5
100
AcDbArc
 50
111.125052874011
 51
180.0
  0
ARC
  5
4B3D
330
4B06
100
AcDbEntity
  8
細線
 48
10.0
100
AcDbCircle
 10
1123.898066965619
 20
1046.04747472476
 30
0.0
 40
0.5
100
AcDbArc
 50
111.125052874011
 51
179.923306313171
  0
ARC
  5
4B3E
330
4B06
100
AcDbEntity
  8
細線
 48
10.0
100
AcDbCircle
 10
1123.898525663106
 20
1059.660354798405
 30
0.0
 40
0.5
100
AcDbArc
 50
105.793169048262
 51
180.0
  0
ARC
  5
4B3F
330
4B06
100
AcDbEntity
  8
細線
 48
10.0
100
AcDbCircle
 10
1123.898525663106
 20
1058.953248017218
 30
0.0
 40
0.5
100
AcDbArc
 50
105.793169048262
 51
180.0
  0
ARC
  5
4B40
330
4B06
100
AcDbEntity
  8
細線
 48
10.0
100
AcDbCircle
 10
1123.898525663106
 20
1081.294920166006
 30
0.0
 40
0.5
100
AcDbArc
 50
95.910638915405
 51
180.0
  0
ARC
  5
4B41
330
4B06
100
AcDbEntity
  8
細線
 48
10.0
100
AcDbCircle
 10
1123.898525663106
 20
1081.553739211108
 30
0.0
 40
0.5
100
AcDbArc
 50
95.910638915405
 51
180.0
  0
LINE
  5
4B42
330
4B06
100
AcDbEntity
  8
外形線
 48
10.0
100
AcDbLine
 10
1123.398525663106
 20
1081.294920166006
 30
0.0
 11
1123.398525663106
 21
1088.928129594135
 31
0.0
  0
LINE
  5
4B43
330
4B06
100
AcDbEntity
  8
外形線
 48
10.0
100
AcDbLine
 10
1123.398525663106
 20
1081.745828707453
 30
0.0
 11
1123.398525663106
 21
1082.004647752555
 31
0.0
  0
LINE
  5
4B44
330
4B06
100
AcDbEntity
  8
外形線
 48
10.0
100
AcDbLine
 10
1123.398525663106
 20
1072.956444458874
 30
0.0
 11
1123.398525663106
 21
1081.294920166006
 31
0.0
  0
LINE
  5
4B45
330
4B06
100
AcDbEntity
  8
外形線
 48
10.0
100
AcDbLine
 10
1123.398525663106
 20
1058.953248017218
 30
0.0
 11
1123.398525663106
 21
1059.660354798405
 31
0.0
  0
LINE
  5
4B46
330
4B06
100
AcDbEntity
  8
外形線
 48
10.0
100
AcDbLine
 10
1123.398525663106
 20
1047.013577778149
 30
0.0
 11
1123.398525663106
 21
1058.953248017218
 31
0.0
  0
LINE
  5
4B47
330
4B06
100
AcDbEntity
  8
外形線
 48
10.0
100
AcDbLine
 10
1123.398067413553
 20
1046.048144003235
 30
0.0
 11
1123.398525663106
 21
1047.013577778149
 31
0.0
  0
LINE
  5
4B48
330
4B06
100
AcDbEntity
  8
外形線
 48
10.0
100
AcDbLine
 10
1123.396317242873
 20
1044.740639597053
 30
0.0
 11
1123.398067413553
 21
1046.048144003235
 31
0.0
  0
ARC
  5
4B49
330
4B06
100
AcDbEntity
  8
外形線
 48
10.0
100
AcDbCircle
 10
1123.896317242873
 20
1044.740639597053
 30
0.0
 40
0.5
100
AcDbArc
 50
111.974976118028
 51
180.0
  0
ARC
  5
4B4A
330
4B06
100
AcDbEntity
  8
細線
 48
10.0
100
AcDbCircle
 10
1135.398494161258
 20
1063.952267566336
 30
0.0
 40
0.5
100
AcDbArc
 50
285.793169048262
 51
0.004772330144
  0
ARC
  5
4B4B
330
4B06
100
AcDbEntity
  8
細線
 48
10.0
100
AcDbCircle
 10
1135.398525663106
 20
1063.245169695216
 30
0.0
 40
0.5
100
AcDbArc
 50
285.793169048262
 51
0.0
  0
ARC
  5
4B4C
330
4B06
100
AcDbEntity
  8
細線
 48
10.0
100
AcDbCircle
 10
1135.398525663106
 20
1052.528882302126
 30
0.0
 40
0.5
100
AcDbArc
 50
291.125052874011
 51
0.0
  0
ARC
  5
4B4D
330
4B06
100
AcDbEntity
  8
細線
 48
10.0
100
AcDbCircle
 10
1135.398525663106
 20
1051.562956475835
 30
0.0
 40
0.5
100
AcDbArc
 50
291.125052874011
 51
0.0
  0
ARC
  5
4B4E
330
4B06
100
AcDbEntity
  8
外形線
 48
10.0
100
AcDbCircle
 10
1135.398525663106
 20
1050.460335432784
 30
0.0
 40
0.5
100
AcDbArc
 50
291.974976118028
 51
0.0
  0
LINE
  5
4B4F
330
4B06
100
AcDbEntity
  8
外形線
 48
10.0
100
AcDbLine
 10
1135.898525663106
 20
1051.562956475835
 30
0.0
 11
1135.898525663106
 21
1050.460335432784
 31
0.0
  0
LINE
  5
4B50
330
4B06
100
AcDbEntity
  8
外形線
 48
10.0
100
AcDbLine
 10
1135.898525663106
 20
1052.528882302126
 30
0.0
 11
1135.898525663106
 21
1051.562956475835
 31
0.0
  0
LINE
  5
4B51
330
4B06
100
AcDbEntity
  8
外形線
 48
10.0
100
AcDbLine
 10
1135.898525663106
 20
1063.245169695216
 30
0.0
 11
1135.898525663106
 21
1052.528882302126
 31
0.0
  0
LINE
  5
4B52
330
4B06
100
AcDbEntity
  8
外形線
 48
10.0
100
AcDbLine
 10
1135.898494159523
 20
1063.952309212773
 30
0.0
 11
1135.898525663106
 21
1063.245169695216
 31
0.0
  0
LINE
  5
4B53
330
4B06
100
AcDbEntity
  8
外形線
 48
10.0
100
AcDbLine
 10
1135.896845194391
 20
1083.749502531863
 30
0.0
 11
1135.898494159523
 21
1063.952309212773
 31
0.0
  0
ARC
  5
4B54
330
4B06
100
AcDbEntity
  8
細線
 48
10.0
100
AcDbCircle
 10
1135.396794220963
 20
1083.49065322233
 30
0.0
 40
0.5
100
AcDbArc
 50
275.910638915405
 51
0.00199902817
  0
ARC
  5
4B55
330
4B06
100
AcDbEntity
  8
細線
 48
10.0
100
AcDbCircle
 10
1135.396845195015
 20
1083.749477544655
 30
0.0
 40
0.5
100
AcDbArc
 50
275.910638915405
 51
0.002863323129
  0
ARC
  5
4B56
330
4B06
100
AcDbEntity
  8
外形線
 48
10.0
100
AcDbCircle
 10
1122.897486448612
 20
1037.437296090646
 30
0.0
 40
0.5
100
AcDbArc
 50
271.000000000002
 51
359.984453673186
  0
LINE
  5
4B57
330
4B06
100
AcDbEntity
  8
外形線
 48
10.0
100
AcDbLine
 10
1135.896646406194
 20
1087.727301809166
 30
0.0
 11
1135.896794220659
 21
1083.490670667142
 31
0.0
  0
LINE
  5
4B58
330
4B06
100
AcDbEntity
  8
外形線
 48
10.0
100
AcDbLine
 10
1123.709216437395
 20
1045.204313284671
 30
0.0
 11
1135.585626468584
 21
1049.996661745166
 31
0.0
  0
LINE
  5
4B59
330
4B06
100
AcDbEntity
  8
細線
 48
10.0
100
AcDbLine
 10
1135.578728019316
 20
1052.062484284531
 30
0.0
 11
1123.718323306896
 21
1047.479975795744
 31
0.0
  0
LINE
  5
4B5A
330
4B06
100
AcDbEntity
  8
細線
 48
10.0
100
AcDbLine
 10
1135.578728019316
 20
1051.09655845824
 30
0.0
 11
1123.717864609409
 21
1046.513872742355
 31
0.0
  0
LINE
  5
4B5B
330
4B06
100
AcDbEntity
  8
細線
 48
10.0
100
AcDbLine
 10
1135.534608426593
 20
1062.764044470891
 30
0.0
 11
1123.762442899618
 21
1059.434373241543
 31
0.0
  0
LINE
  5
4B5C
330
4B06
100
AcDbEntity
  8
細線
 48
10.0
100
AcDbLine
 10
1135.534576924746
 20
1063.471142342011
 30
0.0
 11
1123.762442899618
 21
1060.141480022729
 31
0.0
  0
LINE
  5
4B5D
330
4B06
100
AcDbEntity
  8
細線
 48
10.0
100
AcDbLine
 10
1135.44828283872
 20
1082.993311365815
 30
0.0
 11
1123.847037045349
 21
1081.792262022521
 31
0.0
  0
LINE
  5
4B5E
330
4B06
100
AcDbEntity
  8
細線
 48
10.0
100
AcDbLine
 10
1135.448333812772
 20
1083.25213568814
 30
0.0
 11
1123.847037045349
 21
1082.051081067623
 31
0.0
  0
LINE
  5
4B5F
330
4B06
100
AcDbEntity
  8
外形線
 48
10.0
100
AcDbLine
 10
1123.399470041665
 20
1044.747733739171
 30
0.0
 11
1123.397486430207
 21
1037.437160423353
 31
0.0
  0
LINE
  5
4B60
330
4B06
100
AcDbEntity
  8
外形線
 48
10.0
100
AcDbLine
 10
1123.399564892765
 20
1151.936223047449
 30
0.0
 11
1123.397486430207
 21
1037.437160423353
 31
0.0
  0
LINE
  5
4B61
330
4B06
100
AcDbEntity
  8
外形線
 48
10.0
100
AcDbLine
 10
1108.399561566736
 20
1152.180676686204
 30
0.0
 11
1108.399561566736
 21
1037.192885238951
 31
0.0
  0
LINE
  5
4B62
330
4B06
100
AcDbEntity
  8
外形線
 48
10.0
100
AcDbLine
 10
1108.899561566736
 20
1036.686780962578
 30
0.0
 11
1122.906212651831
 21
1036.937372243068
 31
0.0
  0
LINE
  5
4B63
330
4B06
100
AcDbEntity
  8
外形線
 48
10.0
100
AcDbLine
 10
1108.899561566736
 20
1036.686780962578
 30
0.0
 11
1108.399561566736
 21
1037.192885238951
 31
0.0
  0
LINE
  5
4B64
330
4B06
100
AcDbEntity
  8
外形線
 48
10.0
100
AcDbLine
 10
1108.399561566736
 20
1038.192885238951
 30
0.0
 11
1108.399561566736
 21
1038.692885238951
 31
0.0
  0
LINE
  5
4B65
330
4B06
100
AcDbEntity
  8
外形線
 48
10.0
100
AcDbLine
 10
1035.022931603883
 20
1071.442246865485
 30
0.0
 11
1041.278741748243
 21
1046.351562814666
 31
0.0
  0
ARC
  5
4B66
330
4B06
100
AcDbEntity
  8
外形線
 48
10.0
100
AcDbCircle
 10
1046.130220379623
 20
1047.561172292664
 30
0.0
 40
5.0
100
AcDbArc
 50
193.999999999996
 51
268.7
  0
ARC
  5
4B67
330
4B06
100
AcDbEntity
  8
外形線
 48
10.0
100
AcDbCircle
 10
1034.052635877606
 20
1071.200324969886
 30
0.0
 40
1.0
100
AcDbArc
 50
13.999999999996
 51
89.000000000011
  0
ARC
  5
4B68
330
4B06
100
AcDbEntity
  8
外形線
 48
10.0
100
AcDbCircle
 10
1069.398525663106
 20
1041.031595836918
 30
0.0
 40
1.0
100
AcDbArc
 50
0.0
 51
88.7
  0
ARC
  5
4B69
330
4B06
100
AcDbEntity
  8
外形線
 48
10.0
100
AcDbCircle
 10
1071.398525663106
 20
1031.186780962577
 30
0.0
 40
1.0
100
AcDbArc
 50
180.0
 51
270.0
  0
ARC
  5
4B6A
330
4B06
100
AcDbEntity
  8
外形線
 48
10.0
100
AcDbCircle
 10
1105.398525663105
 20
1031.186780962577
 30
0.0
 40
1.0
100
AcDbArc
 50
270.0
 51
0.0
  0
LINE
  5
4B6B
330
4B06
100
AcDbEntity
  8
外形線
 48
10.0
100
AcDbLine
 10
1070.398525663106
 20
1031.186780962577
 30
0.0
 11
1070.398525663106
 21
1041.031595836918
 31
0.0
  0
LINE
  5
4B6C
330
4B06
100
AcDbEntity
  8
外形線
 48
10.0
100
AcDbLine
 10
1046.016783711759
 20
1042.56245924605
 30
0.0
 11
1099.098349930826
 21
1041.35786999663
 31
0.0
  0
LINE
  5
4B6D
330
4B06
100
AcDbEntity
  8
外形線
 48
10.0
100
AcDbLine
 10
1021.881073256668
 20
1072.412932713756
 30
0.0
 11
1034.070088284044
 21
1072.200172665042
 31
0.0
  0
LINE
  5
4B6E
330
4B06
100
AcDbEntity
  8
外形線
 48
10.0
100
AcDbLine
 10
1106.398525663105
 20
1040.711780962577
 30
0.0
 11
1106.398525663105
 21
1031.186780962577
 31
0.0
  0
LINE
  5
4B6F
330
4B06
100
AcDbEntity
  8
外形線
 48
10.0
100
AcDbLine
 10
1106.398525663105
 20
1040.711780962577
 30
0.0
 11
1106.398525663105
 21
1152.686780962578
 31
0.0
  0
LINE
  5
4B70
330
4B06
100
AcDbEntity
  8
外形線
 48
10.0
100
AcDbLine
 10
1105.398525663105
 20
1030.186780962577
 30
0.0
 11
1071.398525663106
 21
1030.186780962577
 31
0.0
  0
LINE
  5
4B71
330
4B06
100
AcDbEntity
  8
外形線
 48
10.0
100
AcDbLine
 10
1103.398525663106
 20
1036.95900251561
 30
0.0
 11
1103.398525663105
 21
1036.692885238951
 31
0.0
  0
LINE
  5
4B72
330
4B06
100
AcDbEntity
  8
外形線
 48
10.0
100
AcDbLine
 10
1106.398525663105
 20
1036.692885238951
 30
0.0
 11
1103.398525663105
 21
1036.692885238951
 31
0.0
  0
ARC
  5
4B73
330
4B06
100
AcDbEntity
  8
外形線
 48
10.0
100
AcDbCircle
 10
1107.898525663105
 20
1039.211780962577
 30
0.0
 40
1.499999999999659
100
AcDbArc
 50
179.99999999998
 51
289.471220634515
  0
ARC
  5
4B74
330
4B06
100
AcDbEntity
  8
外形線
 48
10.0
100
AcDbCircle
 10
1098.998525663106
 20
1036.95900251561
 30
0.0
 40
4.4
100
AcDbArc
 50
0.0
 51
88.7
  0
LINE
  5
4B75
330
4B06
100
AcDbEntity
  8
細線
 48
10.0
100
AcDbLine
 10
1103.398525663105
 20
1152.686780962578
 30
0.0
 11
1103.398525663106
 21
1036.95900251561
 31
0.0
  0
LINE
  5
4B76
330
4B06
100
AcDbEntity
  8
細線
 48
10.0
100
AcDbLine
 10
1034.837298404406
 20
1072.186780962578
 30
0.0
 11
1034.840933619068
 21
1117.201361012233
 31
0.0
  0
LINE
  5
4B77
330
4B06
100
AcDbEntity
  8
細線
 48
10.0
100
AcDbLine
 10
1042.201886517784
 20
1144.905639229587
 30
0.0
 11
1042.201886517784
 21
1044.467922695569
 31
0.0
  0
LINE
  5
4B78
330
4B06
100
AcDbEntity
  8
外形線
 48
10.0
100
AcDbLine
 10
1135.898508800172
 20
1138.913208309413
 30
0.0
 11
1135.896646406194
 21
1101.646260115989
 31
0.0
  0
ARC
  5
4B79
330
4B06
100
AcDbEntity
  8
細線
 48
10.0
100
AcDbCircle
 10
1135.397834558349
 20
1125.421480922695
 30
0.0
 40
0.5
100
AcDbArc
 50
359.997136676878
 51
74.206830951738
  0
ARC
  5
4B7A
330
4B06
100
AcDbEntity
  8
細線
 48
10.0
100
AcDbCircle
 10
1135.397869895098
 20
1126.128577709141
 30
0.0
 40
0.5
100
AcDbArc
 50
359.997136676878
 51
74.206830951738
  0
LINE
  5
4B7B
330
4B06
100
AcDbEntity
  8
細線
 48
10.0
100
AcDbLine
 10
1135.533917321837
 20
1125.90260614702
 30
0.0
 11
1123.762442899618
 21
1129.232081902426
 31
0.0
  0
LINE
  5
4B7C
330
4B06
100
AcDbEntity
  8
中心線
 48
10.0
100
AcDbLine
 10
1088.398525663106
 20
1052.03299312045
 30
0.0
 11
1088.398525663106
 21
1013.722487401784
 31
0.0
  0
ENDBLK
  5
4B7D
330
4B06
100
AcDbEntity
  8
0
 48
10.0
100
AcDbBlockEnd
  0
BLOCK
  5
4FC1
330
4FB7
100
AcDbEntity
  8
0
 48
10.0
100
AcDbBlockBegin
  2
*D46
 70
     1
 10
0.0
 20
0.0
 30
0.0
  3
*D46
  1

  0
LINE
  5
5046
330
4FB7
100
AcDbEntity
  8
寸法線
 62
     0
 48
10.0
100
AcDbLine
 10
508.214885384937
 20
454.038660929676
 30
0.0
 11
571.078378418532
 21
454.038660929676
 31
0.0
  0
LINE
  5
5047
330
4FB7
100
AcDbEntity
  8
寸法線
 62
     0
 48
10.0
100
AcDbLine
 10
528.733846674805
 20
369.038623818
 30
0.0
 11
571.078378418532
 21
369.038623818
 31
0.0
  0
LINE
  5
5048
330
4FB7
100
AcDbEntity
  8
寸法線
 62
     0
 48
10.0
100
AcDbLine
 10
569.828378418532
 20
448.038660929676
 30
0.0
 11
569.828378418532
 21
375.038623818
 31
0.0
  0
INSERT
  5
5049
330
4FB7
100
AcDbEntity
  8
寸法線
 62
     0
 48
10.0
100
AcDbBlockReference
  2
_OPEN30
 10
569.828378418532
 20
454.038660929676
 30
0.0
 41
6.0
 42
6.0
 43
6.0
 50
90.0
  0
INSERT
  5
504A
330
4FB7
100
AcDbEntity
  8
寸法線
 62
     0
 48
10.0
100
AcDbBlockReference
  2
_OPEN30
 10
569.828378418532
 20
369.038623818
 30
0.0
 41
6.0
 42
6.0
 43
6.0
 50
270.0
  0
MTEXT
  5
504B
330
4FB7
100
AcDbEntity
  8
寸法線
 62
     0
 48
10.0
100
AcDbMText
 10
565.203378418532
 20
411.538642373838
 30
0.0
 40
8.0
 41
0.0
 71
     5
 72
     1
  1
\A1;85
 11
6.123031769111886E-17
 21
1.0
 31
0.0
  0
POINT
  5
504C
330
4FB7
100
AcDbEntity
  8
DEFPOINTS
 62
     0
 48
10.0
100
AcDbPoint
 10
507.589885384937
 20
454.038660929676
 30
0.0
  0
POINT
  5
504D
330
4FB7
100
AcDbEntity
  8
DEFPOINTS
 62
     0
 48
10.0
100
AcDbPoint
 10
528.108846674805
 20
369.038623818
 30
0.0
  0
POINT
  5
504E
330
4FB7
100
AcDbEntity
  8
DEFPOINTS
 62
     0
 48
10.0
100
AcDbPoint
 10
569.828378418532
 20
369.038623818
 30
0.0
  0
ENDBLK
  5
4FC2
330
4FB7
100
AcDbEntity
  8
0
 48
10.0
100
AcDbBlockEnd
  0
BLOCK
  5
4FD9
330
4FCF
100
AcDbEntity
  8
0
 48
10.0
100
AcDbBlockBegin
  2
*D48
 70
     1
 10
0.0
 20
0.0
 30
0.0
  3
*D48
  1

  0
LINE
  5
50A0
330
4FCF
100
AcDbEntity
  8
寸法線
 62
     0
 48
10.0
100
AcDbLine
 10
407.466846674805
 20
338.222698071445
 30
0.0
 11
407.466846674805
 21
319.842964042187
 31
0.0
  0
LINE
  5
50A1
330
4FCF
100
AcDbEntity
  8
寸法線
 62
     0
 48
10.0
100
AcDbLine
 10
542.46688224848
 20
387.409955115443
 30
0.0
 11
542.46688224848
 21
319.842964042187
 31
0.0
  0
LINE
  5
50A2
330
4FCF
100
AcDbEntity
  8
寸法線
 62
     0
 48
10.0
100
AcDbLine
 10
413.466846674805
 20
321.092964042187
 30
0.0
 11
536.46688224848
 21
321.092964042187
 31
0.0
  0
INSERT
  5
50A3
330
4FCF
100
AcDbEntity
  8
寸法線
 62
     0
100
AcDbBlockReference
  2
_OPEN30
 10
407.466846674805
 20
321.092964042187
 30
0.0
 41
6.0
 42
6.0
 43
6.0
 50
180.0
  0
INSERT
  5
50A4
330
4FCF
100
AcDbEntity
  8
寸法線
 62
     0
100
AcDbBlockReference
  2
_OPEN30
 10
542.46688224848
 20
321.092964042187
 30
0.0
 41
6.0
 42
6.0
 43
6.0
  0
MTEXT
  5
50A5
330
4FCF
100
AcDbEntity
  8
寸法線
 62
     0
 48
10.0
100
AcDbMText
 10
478.741128337083
 20
325.722130708853
 30
0.0
 40
8.0
 41
0.0
 71
     5
 72
     1
  1
\A1;135
  0
POINT
  5
50A6
330
4FCF
100
AcDbEntity
  8
DEFPOINTS
 62
     0
100
AcDbPoint
 10
407.466846674805
 20
338.847698071445
 30
0.0
  0
POINT
  5
50A7
330
4FCF
100
AcDbEntity
  8
DEFPOINTS
 62
     0
100
AcDbPoint
 10
542.46688224848
 20
388.034955115443
 30
0.0
  0
POINT
  5
50A8
330
4FCF
100
AcDbEntity
  8
DEFPOINTS
 62
     0
100
AcDbPoint
 10
542.46688224848
 20
321.092964042187
 30
0.0
  0
ENDBLK
  5
4FDA
330
4FCF
100
AcDbEntity
  8
0
 48
10.0
100
AcDbBlockEnd
  0
BLOCK
  5
51AF
330
51AE
100
AcDbEntity
  8
0
100
AcDbBlockBegin
  2
*D50
 70
     1
 10
0.0
 20
0.0
 30
0.0
  3
*D50
  1

  0
LINE
  5
51B1
330
51AE
100
AcDbEntity
  8
寸法線
 62
     0
 48
10.0
100
AcDbLine
 10
452.466846674805
 20
395.413623818
 30
0.0
 11
452.466846674805
 21
337.597698071445
 31
0.0
  0
LINE
  5
51B2
330
51AE
100
AcDbEntity
  8
寸法線
 62
     0
 48
10.0
100
AcDbLine
 10
542.46688224848
 20
368.413623818
 30
0.0
 11
542.46688224848
 21
337.597698071445
 31
0.0
  0
LINE
  5
51B3
330
51AE
100
AcDbEntity
  8
寸法線
 62
     0
 48
10.0
100
AcDbLine
 10
458.466846674805
 20
338.847698071445
 30
0.0
 11
536.46688224848
 21
338.847698071445
 31
0.0
  0
INSERT
  5
51B4
330
51AE
100
AcDbEntity
  8
寸法線
 62
     0
100
AcDbBlockReference
  2
_OPEN30
 10
452.466846674805
 20
338.847698071445
 30
0.0
 41
6.0
 42
6.0
 43
6.0
 50
180.0
  0
INSERT
  5
51B5
330
51AE
100
AcDbEntity
  8
寸法線
 62
     0
100
AcDbBlockReference
  2
_OPEN30
 10
542.46688224848
 20
338.847698071445
 30
0.0
 41
6.0
 42
6.0
 43
6.0
  0
MTEXT
  5
51B6
330
51AE
100
AcDbEntity
  8
寸法線
 62
     0
 48
10.0
100
AcDbMText
 10
497.466864461643
 20
343.472698071445
 30
0.0
 40
8.0
 41
0.0
 71
     5
 72
     1
  1
\A1;90
  0
POINT
  5
51B7
330
51AE
100
AcDbEntity
  8
DEFPOINTS
 62
     0
100
AcDbPoint
 10
452.466846674805
 20
396.038623818
 30
0.0
  0
POINT
  5
51B8
330
51AE
100
AcDbEntity
  8
DEFPOINTS
 62
     0
100
AcDbPoint
 10
542.46688224848
 20
369.038623818
 30
0.0
  0
POINT
  5
51B9
330
51AE
100
AcDbEntity
  8
DEFPOINTS
 62
     0
100
AcDbPoint
 10
542.46688224848
 20
338.847698071445
 30
0.0
  0
ENDBLK
  5
51B0
330
51AE
100
AcDbEntity
  8
0
100
AcDbBlockEnd
  0
ENDSEC
  0
SECTION
  2
ENTITIES
  0
LINE
  5
3E98
330
1A
100
AcDbEntity
  8
下書線
100
AcDbLine
 10
570.438232382377
 20
499.538623667948
 30
0.0
 11
-126.961767617623
 21
499.538623667948
 31
0.0
  0
LWPOLYLINE
  5
4533
102
{ACAD_REACTORS
330
456F
102
}
330
1A
100
AcDbEntity
  8
外形線
100
AcDbPolyline
 90
        6
 70
     0
 43
0.0
 10
-20.625670236208
 20
405.038623815478
 10
24.874329763792
 20
405.038623815478
 10
25.374329763792
 20
405.538623815478
 10
25.374329763792
 20
424.538623815478
 10
24.874329763792
 20
425.038623815478
 10
-20.625670236208
 20
425.038623815478
  0
ARC
  5
4534
102
{ACAD_REACTORS
330
456F
102
}
330
1A
100
AcDbEntity
  8
細線
100
AcDbCircle
 10
-33.875670236208
 20
420.038623815478
 30
0.0
 40
7.25
100
AcDbArc
 50
316.397181027297
 51
43.602818972703
  0
ARC
  5
4535
102
{ACAD_REACTORS
330
456F
102
}
330
1A
100
AcDbEntity
  8
細線
100
AcDbCircle
 10
-23.375670236208
 20
420.038623815478
 30
0.0
 40
7.25
100
AcDbArc
 50
136.397181027297
 51
223.602818972703
  0
ARC
  5
4536
102
{ACAD_REACTORS
330
456F
102
}
330
1A
100
AcDbEntity
  8
細線
100
AcDbCircle
 10
-33.875670236208
 20
410.038623815478
 30
0.0
 40
7.25
100
AcDbArc
 50
316.397181027297
 51
43.602818972703
  0
ARC
  5
4537
102
{ACAD_REACTORS
330
456F
102
}
330
1A
100
AcDbEntity
  8
細線
100
AcDbCircle
 10
-15.375670236208
 20
410.038623815478
 30
0.0
 40
7.25
100
AcDbArc
 50
136.397181027297
 51
223.602818972703
  0
ARC
  5
4538
102
{ACAD_REACTORS
330
456F
102
}
330
1A
100
AcDbEntity
  8
細線
100
AcDbCircle
 10
-25.875670236208
 20
410.038623815477
 30
0.0
 40
7.25
100
AcDbArc
 50
316.397181027297
 51
43.602818972703
  0
ARC
  5
4539
102
{ACAD_REACTORS
330
456F
102
}
330
1A
100
AcDbEntity
  8
細線
100
AcDbCircle
 10
-15.375670236208
 20
420.038623815477
 30
0.0
 40
7.25
100
AcDbArc
 50
136.397181027297
 51
223.602818972703
  0
LWPOLYLINE
  5
453A
102
{ACAD_REACTORS
330
456F
102
}
330
1A
100
AcDbEntity
  8
外形線
100
AcDbPolyline
 90
        6
 70
     0
 43
0.0
 10
-28.625670236208
 20
425.038623815478
 10
-72.625670236208
 20
425.038623815478
 10
-74.625670236208
 20
423.038623815478
 10
-74.625670236208
 20
407.038623815478
 10
-72.625670236208
 20
405.038623815478
 10
-28.625670236208
 20
405.038623815478
  0
LINE
  5
453B
102
{ACAD_REACTORS
330
456F
102
}
330
1A
100
AcDbEntity
  8
細線
100
AcDbLine
 10
-72.625670236208
 20
425.038623815478
 30
0.0
 11
-72.625670236208
 21
405.038623815478
 31
0.0
  0
LINE
  5
453C
102
{ACAD_REACTORS
330
4833
102
}
330
1A
100
AcDbEntity
  8
外形線
100
AcDbLine
 10
25.374329763792
 20
421.538623815478
 30
0.0
 11
25.374329763792
 21
408.538623815478
 31
0.0
  0
LINE
  5
453D
330
1A
100
AcDbEntity
  8
外形線
100
AcDbLine
 10
174.466846674805
 20
417.538623815478
 30
0.0
 11
174.466846674805
 21
412.538623815478
 31
0.0
  0
LINE
  5
453E
330
1A
100
AcDbEntity
  8
外形線
100
AcDbLine
 10
43.374329763792
 20
417.538623815478
 30
0.0
 11
43.374329763792
 21
412.538623815478
 31
0.0
  0
LINE
  5
453F
330
1A
100
AcDbEntity
  8
外形線
100
AcDbLine
 10
119.362629140702
 20
412.538623815478
 30
0.0
 11
174.466846674805
 21
412.538623815478
 31
0.0
  0
LINE
  5
4540
330
1A
100
AcDbEntity
  8
外形線
100
AcDbLine
 10
119.362629140702
 20
417.538623815478
 30
0.0
 11
174.466846674805
 21
417.538623815478
 31
0.0
  0
ARC
  5
4541
330
1A
100
AcDbEntity
  8
細線
100
AcDbCircle
 10
119.643879140702
 20
413.788623815478
 30
0.0
 40
1.28125
100
AcDbArc
 50
102.680383491818
 51
257.319616508182
  0
ARC
  5
4542
330
1A
100
AcDbEntity
  8
細線
100
AcDbCircle
 10
119.081379140702
 20
413.788623815478
 30
0.0
 40
1.28125
100
AcDbArc
 50
282.680383491818
 51
77.319616508182
  0
ARC
  5
4543
330
1A
100
AcDbEntity
  8
細線
100
AcDbCircle
 10
119.643879140702
 20
416.288623815478
 30
0.0
 40
1.28125
100
AcDbArc
 50
102.680383491818
 51
257.319616508182
  0
ARC
  5
4544
330
1A
100
AcDbEntity
  8
細線
100
AcDbCircle
 10
114.643879140702
 20
416.288623815478
 30
0.0
 40
1.28125
100
AcDbArc
 50
102.680383491818
 51
257.319616508182
  0
ARC
  5
4545
330
1A
100
AcDbEntity
  8
細線
100
AcDbCircle
 10
114.081379140702
 20
416.288623815478
 30
0.0
 40
1.28125
100
AcDbArc
 50
282.680383491818
 51
77.319616508182
  0
ARC
  5
4546
330
1A
100
AcDbEntity
  8
細線
100
AcDbCircle
 10
114.081379140702
 20
413.788623815478
 30
0.0
 40
1.28125
100
AcDbArc
 50
282.680383491818
 51
77.319616508182
  0
LINE
  5
4547
330
1A
100
AcDbEntity
  8
外形線
100
AcDbLine
 10
43.374329763792
 20
412.538623815478
 30
0.0
 11
114.362629140702
 21
412.538623815478
 31
0.0
  0
LINE
  5
4548
330
1A
100
AcDbEntity
  8
外形線
100
AcDbLine
 10
43.374329763792
 20
417.538623815478
 30
0.0
 11
114.362629140702
 21
417.538623815478
 31
0.0
  0
ARC
  5
4549
102
{ACAD_REACTORS
330
4833
102
}
330
1A
100
AcDbEntity
  8
細線
100
AcDbCircle
 10
31.113079763792
 20
424.738623815478
 30
0.0
 40
12.26124999999995
100
AcDbArc
 50
336.699401124926
 51
355.499148004291
  0
ARC
  5
454A
102
{ACAD_REACTORS
330
4833
102
}
330
1A
100
AcDbEntity
  8
細線
100
AcDbCircle
 10
31.113079763792
 20
415.038623815478
 30
0.0
 40
12.26124999999995
100
AcDbArc
 50
336.699401124926
 51
23.300598875074
  0
ARC
  5
454B
102
{ACAD_REACTORS
330
4833
102
}
330
1A
100
AcDbEntity
  8
細線
100
AcDbCircle
 10
31.113079763792
 20
405.338623815478
 30
0.0
 40
12.26124999999995
100
AcDbArc
 50
4.500851995706
 51
23.300598875074
  0
LINE
  5
454C
102
{ACAD_REACTORS
330
4833
102
}
330
1A
100
AcDbEntity
  8
細線
100
AcDbLine
 10
42.374329763792
 20
410.188623815478
 30
0.0
 11
28.374329763792
 21
410.188623815478
 31
0.0
  0
LINE
  5
454D
102
{ACAD_REACTORS
330
4833
102
}
330
1A
100
AcDbEntity
  8
細線
100
AcDbLine
 10
42.374329763792
 20
419.888623815478
 30
0.0
 11
28.374329763792
 21
419.888623815478
 31
0.0
  0
LWPOLYLINE
  5
454E
102
{ACAD_REACTORS
330
4833
102
}
330
1A
100
AcDbEntity
  8
外形線
100
AcDbPolyline
 90
        6
 70
     1
 43
0.0
 10
42.374329763792
 20
405.338623815478
 10
28.374329763792
 20
405.338623815478
 10
28.374329763792
 20
424.738623815478
 10
42.374329763792
 20
424.738623815478
 10
43.374329763792
 20
423.738623815478
 10
43.374329763792
 20
406.338623815478
  0
LINE
  5
454F
102
{ACAD_REACTORS
330
4833
102
}
330
1A
100
AcDbEntity
  8
外形線
100
AcDbLine
 10
28.374329763792
 20
421.538623815478
 30
0.0
 11
25.374329763792
 21
421.538623815478
 31
0.0
  0
LINE
  5
4550
102
{ACAD_REACTORS
330
4833
102
}
330
1A
100
AcDbEntity
  8
外形線
100
AcDbLine
 10
28.374329763792
 20
408.538623815478
 30
0.0
 11
25.374329763792
 21
408.538623815478
 31
0.0
  0
LINE
  5
4551
102
{ACAD_REACTORS
330
4832
102
}
330
1A
100
AcDbEntity
  8
外形線
100
AcDbLine
 10
192.466846674805
 20
421.538623815478
 30
0.0
 11
192.466846674805
 21
408.538623815478
 31
0.0
  0
LINE
  5
4552
102
{ACAD_REACTORS
330
4830
102
}
330
1A
100
AcDbEntity
  8
細線
100
AcDbLine
 10
243.466846674805
 20
419.888623815478
 30
0.0
 11
257.466846674805
 21
419.888623815478
 31
0.0
  0
LINE
  5
4553
102
{ACAD_REACTORS
330
4830
102
}
330
1A
100
AcDbEntity
  8
細線
100
AcDbLine
 10
243.466846674805
 20
410.188623815478
 30
0.0
 11
257.466846674805
 21
410.188623815478
 31
0.0
  0
ARC
  5
4554
102
{ACAD_REACTORS
330
4830
102
}
330
1A
100
AcDbEntity
  8
細線
100
AcDbCircle
 10
254.728096674805
 20
405.338623815478
 30
0.0
 40
12.26124999999995
100
AcDbArc
 50
156.699401124926
 51
175.499148004294
  0
ARC
  5
4555
102
{ACAD_REACTORS
330
4830
102
}
330
1A
100
AcDbEntity
  8
細線
100
AcDbCircle
 10
254.728096674805
 20
415.038623815478
 30
0.0
 40
12.26124999999995
100
AcDbArc
 50
156.699401124926
 51
203.300598875074
  0
ARC
  5
4556
102
{ACAD_REACTORS
330
4830
102
}
330
1A
100
AcDbEntity
  8
細線
100
AcDbCircle
 10
254.728096674805
 20
424.738623815478
 30
0.0
 40
12.26124999999995
100
AcDbArc
 50
184.500851995709
 51
203.300598875074
  0
LWPOLYLINE
  5
4557
102
{ACAD_REACTORS
330
4830
102
}
330
1A
100
AcDbEntity
  8
外形線
100
AcDbPolyline
 90
        6
 70
     1
 43
0.0
 10
243.466846674805
 20
405.338623815478
 10
257.466846674805
 20
405.338623815478
 10
257.466846674805
 20
424.738623815478
 10
243.466846674805
 20
424.738623815478
 10
242.466846674805
 20
423.738623815478
 10
242.466846674805
 20
406.338623815478
  0
ARC
  5
4558
102
{ACAD_REACTORS
330
4831
102
}
330
1A
100
AcDbEntity
  8
細線
100
AcDbCircle
 10
230.205596674805
 20
424.738623815477
 30
0.0
 40
12.26125000000018
100
AcDbArc
 50
336.699401124926
 51
355.499148004294
  0
ARC
  5
4559
102
{ACAD_REACTORS
330
4831
102
}
330
1A
100
AcDbEntity
  8
細線
100
AcDbCircle
 10
230.205596674805
 20
415.038623815478
 30
0.0
 40
12.26125000000018
100
AcDbArc
 50
336.699401124926
 51
23.300598875074
  0
ARC
  5
455A
102
{ACAD_REACTORS
330
4831
102
}
330
1A
100
AcDbEntity
  8
細線
100
AcDbCircle
 10
230.205596674805
 20
405.338623815478
 30
0.0
 40
12.26125000000018
100
AcDbArc
 50
4.500851995709
 51
23.300598875074
  0
ARC
  5
455B
102
{ACAD_REACTORS
330
4831
102
}
330
1A
100
AcDbEntity
  8
細線
100
AcDbCircle
 10
204.728096674806
 20
405.338623815478
 30
0.0
 40
12.26125000000014
100
AcDbArc
 50
156.699401124926
 51
175.499148004294
  0
ARC
  5
455C
102
{ACAD_REACTORS
330
4831
102
}
330
1A
100
AcDbEntity
  8
細線
100
AcDbCircle
 10
204.728096674806
 20
415.038623815478
 30
0.0
 40
12.26125000000014
100
AcDbArc
 50
156.699401124926
 51
203.300598875074
  0
ARC
  5
455D
102
{ACAD_REACTORS
330
4831
102
}
330
1A
100
AcDbEntity
  8
細線
100
AcDbCircle
 10
204.728096674806
 20
424.738623815478
 30
0.0
 40
12.26125000000014
100
AcDbArc
 50
184.500851995709
 51
203.300598875074
  0
LINE
  5
455E
102
{ACAD_REACTORS
330
4831
102
}
330
1A
100
AcDbEntity
  8
細線
100
AcDbLine
 10
193.466846674805
 20
419.888623815478
 30
0.0
 11
241.466846674805
 21
419.888623815478
 31
0.0
  0
LINE
  5
455F
102
{ACAD_REACTORS
330
4831
102
}
330
1A
100
AcDbEntity
  8
細線
100
AcDbLine
 10
193.466846674805
 20
410.188623815478
 30
0.0
 11
241.466846674805
 21
410.188623815478
 31
0.0
  0
LWPOLYLINE
  5
4560
102
{ACAD_REACTORS
330
4831
102
}
330
1A
100
AcDbEntity
  8
外形線
100
AcDbPolyline
 90
        8
 70
     1
 43
0.0
 10
193.466846674805
 20
405.338623815478
 10
241.466846674805
 20
405.338623815478
 10
242.466846674805
 20
406.338623815478
 10
242.466846674805
 20
423.738623815478
 10
241.466846674805
 20
424.738623815478
 10
193.466846674805
 20
424.738623815478
 10
192.466846674805
 20
423.738623815478
 10
192.466846674805
 20
406.338623815478
  0
LINE
  5
4561
102
{ACAD_REACTORS
330
4832
102
}
330
1A
100
AcDbEntity
  8
外形線
100
AcDbLine
 10
189.466846674805
 20
408.538623815478
 30
0.0
 11
192.466846674805
 21
408.538623815478
 31
0.0
  0
LINE
  5
4562
102
{ACAD_REACTORS
330
4832
102
}
330
1A
100
AcDbEntity
  8
外形線
100
AcDbLine
 10
189.466846674805
 20
421.538623815478
 30
0.0
 11
192.466846674805
 21
421.538623815478
 31
0.0
  0
LINE
  5
4563
102
{ACAD_REACTORS
330
4832
102
}
330
1A
100
AcDbEntity
  8
細線
100
AcDbLine
 10
175.466846674805
 20
419.888623815478
 30
0.0
 11
189.466846674805
 21
419.888623815478
 31
0.0
  0
LINE
  5
4564
102
{ACAD_REACTORS
330
4832
102
}
330
1A
100
AcDbEntity
  8
細線
100
AcDbLine
 10
175.466846674805
 20
410.188623815478
 30
0.0
 11
189.466846674805
 21
410.188623815478
 31
0.0
  0
ARC
  5
4565
102
{ACAD_REACTORS
330
4832
102
}
330
1A
100
AcDbEntity
  8
細線
100
AcDbCircle
 10
186.728096674805
 20
405.338623815478
 30
0.0
 40
12.26124999999995
100
AcDbArc
 50
156.699401124926
 51
175.499148004294
  0
ARC
  5
4566
102
{ACAD_REACTORS
330
4832
102
}
330
1A
100
AcDbEntity
  8
細線
100
AcDbCircle
 10
186.728096674805
 20
415.038623815478
 30
0.0
 40
12.26124999999995
100
AcDbArc
 50
156.699401124926
 51
203.300598875074
  0
ARC
  5
4567
102
{ACAD_REACTORS
330
4832
102
}
330
1A
100
AcDbEntity
  8
細線
100
AcDbCircle
 10
186.728096674805
 20
424.738623815478
 30
0.0
 40
12.26124999999995
100
AcDbArc
 50
184.500851995709
 51
203.300598875074
  0
LWPOLYLINE
  5
4568
102
{ACAD_REACTORS
330
4832
102
}
330
1A
100
AcDbEntity
  8
外形線
100
AcDbPolyline
 90
        6
 70
     1
 43
0.0
 10
175.466846674805
 20
405.338623815478
 10
189.466846674805
 20
405.338623815478
 10
189.466846674805
 20
424.738623815478
 10
175.466846674805
 20
424.738623815478
 10
174.466846674805
 20
423.738623815478
 10
174.466846674805
 20
406.338623815478
  0
LWPOLYLINE
  5
4569
330
1A
100
AcDbEntity
  8
外形線
100
AcDbPolyline
 90
        6
 70
     1
 43
0.0
 10
258.966846674805
 20
402.538623815478
 10
307.466846674805
 20
402.538623815478
 10
307.466846674805
 20
427.538623815478
 10
258.966846674805
 20
427.538623815478
 10
257.466846674805
 20
426.038623815478
 10
257.466846674805
 20
404.038623815478
  0
LWPOLYLINE
  5
456A
330
1A
100
AcDbEntity
  8
外形線
100
AcDbPolyline
 90
        6
 70
     1
 43
0.0
 10
307.966846674805
 20
402.038623815478
 10
407.466846674805
 20
402.038623815478
 10
407.466846674805
 20
428.038623815478
 10
307.966846674805
 20
428.038623815478
 10
307.466846674805
 20
427.538623815478
 10
307.466846674805
 20
402.538623815478
  0
LINE
  5
46C2
330
1A
100
AcDbEntity
  8
中心線
 48
10.0
100
AcDbLine
 10
-95.743007257769
 20
415.038623815478
 30
0.0
 11
545.656162000006
 21
415.038623815478
 31
0.0
  0
DIMENSION
  5
46DD
330
1A
100
AcDbEntity
  8
寸法線
 48
10.0
100
AcDbDimension
  2
*D6
 10
257.466846674805
 20
338.847698071445
 30
0.0
 11
249.966846674805
 21
343.472698071445
 31
0.0
 70
    32
  3
ISO-25
100
AcDbAlignedDimension
 13
242.466846674805
 23
406.338623815478
 33
0.0
 14
257.466846674805
 24
404.038623815478
 34
0.0
100
AcDbRotatedDimension
1001
ACAD
1000
DSTYLE
1002
{
1070
     5
1000
OPEN30
1070
    41
1040
6.0
1070
    47
1040
0.1
1070
    48
1040
0.1
1070
    73
1070
     0
1070
   140
1040
8.0
1070
   271
1070
     1
1070
   272
1070
     1
1070
   341
1005
2AF4
1002
}
  0
DIMENSION
  5
46EA
330
1A
100
AcDbEntity
  8
寸法線
 48
10.0
100
AcDbDimension
  2
*D7
 10
242.466846674805
 20
338.847698071445
 30
0.0
 11
217.466846674805
 21
343.472698071445
 31
0.0
 70
    32
  3
ISO-25
100
AcDbAlignedDimension
 13
192.466846674805
 23
406.338623815478
 33
0.0
 14
242.466846674805
 24
406.338623815478
 34
0.0
100
AcDbRotatedDimension
1001
ACAD
1000
DSTYLE
1002
{
1070
     5
1000
OPEN30
1070
    41
1040
6.0
1070
    47
1040
0.1
1070
    48
1040
0.1
1070
    73
1070
     0
1070
   140
1040
8.0
1070
   271
1070
     1
1070
   272
1070
     1
1070
   341
1005
2AF4
1002
}
  0
DIMENSION
  5
471B
330
1A
100
AcDbEntity
  8
寸法線
 48
10.0
100
AcDbDimension
  2
*D8
 10
25.374329763792
 20
338.847698071445
 30
0.0
 11
-24.625670236208
 21
343.47348547302
 31
0.0
 70
    32
  1
220
  3
ISO-25
100
AcDbAlignedDimension
 13
-74.625670236208
 23
407.038623815478
 33
0.0
 14
25.374329763792
 24
405.538623815478
 34
0.0
100
AcDbRotatedDimension
1001
ACAD
1000
DSTYLE
1002
{
1070
     5
1000
OPEN30
1070
    41
1040
6.0
1070
    47
1040
0.1
1070
    48
1040
0.1
1070
    73
1070
     0
1070
   140
1040
8.0
1070
   271
1070
     1
1070
   272
1070
     1
1070
   341
1005
2AF4
1002
}
  0
DIMENSION
  5
473A
330
1A
100
AcDbEntity
  8
寸法線
 48
10.0
100
AcDbDimension
  2
*D9
 10
407.466846674805
 20
321.092964042187
 30
0.0
 11
166.420588219299
 21
325.718751443762
 31
0.0
 70
    32
  1
 
  3
ISO-25
100
AcDbAlignedDimension
 13
-74.625670236208
 23
407.038623815478
 33
0.0
 14
407.466846674805
 24
399.289123815478
 34
0.0
100
AcDbRotatedDimension
1001
ACAD
1000
DSTYLE
1002
{
1070
     5
1000
OPEN30
1070
    41
1040
6.0
1070
    47
1040
0.1
1070
    48
1040
0.1
1070
    73
1070
     0
1070
   140
1040
8.0
1070
   271
1070
     1
1070
   272
1070
     1
1070
   341
1005
2AF4
1002
}
  0
DIMENSION
  5
4759
330
1A
100
AcDbEntity
  8
寸法線
 48
10.0
100
AcDbDimension
  2
*D10
 10
386.906477638504
 20
402.038623815478
 30
0.0
 11
386.906477638503
 21
443.862049012328
 31
0.0
 70
   160
  1
φ<>
  3
ISO-25
100
AcDbAlignedDimension
 13
407.466846674805
 23
428.038623815478
 33
0.0
 14
407.466846674805
 24
402.038623815478
 34
0.0
 50
90.0
100
AcDbRotatedDimension
1001
ACAD
1000
DSTYLE
1002
{
1070
     5
1000
OPEN30
1070
    76
1070
     1
1070
    75
1070
     1
1070
    41
1040
6.0
1070
    47
1040
0.1
1070
    48
1040
0.1
1070
    73
1070
     0
1070
   140
1040
8.0
1070
   271
1070
     1
1070
   272
1070
     1
1070
   341
1005
2AF4
1002
}
  0
DIMENSION
  5
478D
330
1A
100
AcDbEntity
  8
寸法線
 48
10.0
100
AcDbDimension
  2
*D11
 10
298.12249945738
 20
402.538623815478
 30
0.0
 11
298.12249945738
 21
443.329309240427
 31
0.0
 70
   160
  1
φ<>
  3
ISO-25
100
AcDbAlignedDimension
 13
307.466846674805
 23
427.538623815478
 33
0.0
 14
307.466846674805
 24
402.538623815478
 34
0.0
 50
90.0
100
AcDbRotatedDimension
1001
ACAD
1000
DSTYLE
1002
{
1070
     5
1000
OPEN30
1070
    76
1070
     1
1070
    75
1070
     1
1070
    41
1040
6.0
1070
    47
1040
0.1
1070
    48
1040
0.1
1070
    73
1070
     0
1070
   140
1040
8.0
1070
   271
1070
     1
1070
   272
1070
     1
1070
   341
1005
2AF4
1002
}
  0
DIMENSION
  5
47B8
330
1A
100
AcDbEntity
  8
寸法線
 48
10.0
100
AcDbDimension
  2
*D12
 10
72.029982546366
 20
412.538623815478
 30
0.0
 11
72.029982546366
 21
436.529309240427
 31
0.0
 70
   160
  1
φ<>
  3
ISO-25
100
AcDbAlignedDimension
 13
43.374329763792
 23
417.538623815478
 33
0.0
 14
43.374329763792
 24
412.538623815478
 34
0.0
 50
90.0
100
AcDbRotatedDimension
1001
ACAD
1000
DSTYLE
1002
{
1070
     5
1000
OPEN30
1070
    76
1070
     1
1070
    75
1070
     1
1070
    41
1040
6.0
1070
    47
1040
0.1
1070
    48
1040
0.1
1070
    73
1070
     0
1070
   140
1040
8.0
1070
   271
1070
     1
1070
   272
1070
     1
1070
   341
1005
2AF4
1002
}
  0
DIMENSION
  5
47EC
330
1A
100
AcDbEntity
  8
寸法線
 48
10.0
100
AcDbDimension
  2
*D13
 10
12.029982546366
 20
405.038623815478
 30
0.0
 11
12.029982546366
 21
440.666773421777
 31
0.0
 70
   160
  1
φ<>
  3
ISO-25
100
AcDbAlignedDimension
 13
24.874329763792
 23
425.038623815478
 33
0.0
 14
24.874329763792
 24
405.038623815478
 34
0.0
 50
90.0
100
AcDbRotatedDimension
1001
ACAD
1000
DSTYLE
1002
{
1070
     5
1000
OPEN30
1070
    76
1070
     1
1070
    75
1070
     1
1070
    41
1040
6.0
1070
    47
1040
0.1
1070
    48
1040
0.1
1070
    73
1070
     0
1070
   140
1040
8.0
1070
   271
1070
     1
1070
   272
1070
     1
1070
   341
1005
2AF4
1002
}
  0
DIMENSION
  5
483E
330
1A
100
AcDbEntity
  8
寸法線
 48
10.0
100
AcDbDimension
  2
*D14
 10
307.466846674805
 20
338.847698071445
 30
0.0
 11
282.466846674805
 21
343.472698071445
 31
0.0
 70
    32
  3
ISO-25
100
AcDbAlignedDimension
 13
257.466846674805
 23
404.038623815478
 33
0.0
 14
307.466846674805
 24
402.538623815478
 34
0.0
100
AcDbRotatedDimension
1001
ACAD
1000
DSTYLE
1002
{
1070
     5
1000
OPEN30
1070
    41
1040
6.0
1070
    47
1040
0.1
1070
    48
1040
0.1
1070
    73
1070
     0
1070
   140
1040
8.0
1070
   271
1070
     1
1070
   272
1070
     1
1070
   341
1005
2AF4
1002
}
  0
DIMENSION
  5
484B
330
1A
100
AcDbEntity
  8
寸法線
 48
10.0
100
AcDbDimension
  2
*D15
 10
407.466846674805
 20
338.847698071445
 30
0.0
 11
357.466846674805
 21
343.472698071445
 31
0.0
 70
    32
  3
ISO-25
100
AcDbAlignedDimension
 13
307.466846674805
 23
402.538623815478
 33
0.0
 14
407.466846674805
 24
399.289123815477
 34
0.0
100
AcDbRotatedDimension
1001
ACAD
1000
DSTYLE
1002
{
1070
     5
1000
OPEN30
1070
    41
1040
6.0
1070
    47
1040
0.1
1070
    48
1040
0.1
1070
    73
1070
     0
1070
   140
1040
8.0
1070
   271
1070
     1
1070
   272
1070
     1
1070
   341
1005
2AF4
1002
}
  0
DIMENSION
  5
4A7D
330
1A
100
AcDbEntity
  8
寸法線
 48
10.0
100
AcDbDimension
  2
*D16
 10
432.466846674805
 20
338.847698071445
 30
0.0
 11
419.966846674805
 21
343.47348547302
 31
0.0
 70
    32
  3
ISO-25
100
AcDbAlignedDimension
 13
407.466846674805
 23
399.289123815478
 33
0.0
 14
432.466846674805
 24
396.038623818
 34
0.0
100
AcDbRotatedDimension
1001
ACAD
1000
DSTYLE
1002
{
1070
     5
1000
OPEN30
1070
    41
1040
6.0
1070
    47
1040
0.1
1070
    48
1040
0.1
1070
    73
1070
     0
1070
   140
1040
8.0
1070
   271
1070
     1
1070
   272
1070
     1
1070
   341
1005
2AF4
1002
}
  0
DIMENSION
  5
4AC8
330
1A
100
AcDbEntity
  8
寸法線
 48
10.0
100
AcDbDimension
  2
*D18
 10
452.466846674806
 20
338.847698071445
 30
0.0
 11
442.466846674805
 21
343.47348547302
 31
0.0
 70
    32
  3
ISO-25
100
AcDbAlignedDimension
 13
432.466846674805
 23
396.038623818
 33
0.0
 14
452.466846674806
 24
396.038623817999
 34
0.0
100
AcDbRotatedDimension
1001
ACAD
1000
DSTYLE
1002
{
1070
     5
1000
OPEN30
1070
    41
1040
6.0
1070
    47
1040
0.1
1070
    48
1040
0.1
1070
    73
1070
     0
1070
   140
1040
8.0
1070
   271
1070
     1
1070
   272
1070
     1
1070
   341
1005
2AF4
1002
}
  0
LINE
  5
4D9D
102
{ACAD_REACTORS
330
4DB2
102
}
330
1A
100
AcDbEntity
  8
外形線
100
AcDbLine
 10
434.163858226869
 20
436.977934047206
 30
0.0
 11
450.769835122742
 21
436.977934047206
 31
0.0
  0
LINE
  5
4D9E
102
{ACAD_REACTORS
330
4DB2
102
}
330
1A
100
AcDbEntity
  8
外形線
100
AcDbLine
 10
432.466846674806
 20
434.038623818
 30
0.0
 11
432.466846674805
 21
396.038623818
 31
0.0
  0
LINE
  5
4D9F
102
{ACAD_REACTORS
330
4DB2
102
}
330
1A
100
AcDbEntity
  8
外形線
100
AcDbLine
 10
432.466846674806
 20
434.038623818
 30
0.0
 11
434.163858226869
 21
436.977934047206
 31
0.0
  0
LINE
  5
4DA0
102
{ACAD_REACTORS
330
4DB2
102
}
330
1A
100
AcDbEntity
  8
外形線
100
AcDbLine
 10
434.163858226869
 20
393.099313588795
 30
0.0
 11
450.769835122742
 21
393.099313588795
 31
0.0
  0
LINE
  5
4DA1
102
{ACAD_REACTORS
330
4DB2
102
}
330
1A
100
AcDbEntity
  8
外形線
100
AcDbLine
 10
432.466846674805
 20
396.038623818
 30
0.0
 11
434.163858226869
 21
393.099313588795
 31
0.0
  0
LINE
  5
4DA2
102
{ACAD_REACTORS
330
4DB2
102
}
330
1A
100
AcDbEntity
  8
外形線
100
AcDbLine
 10
450.769835122742
 20
393.099313588795
 30
0.0
 11
452.466846674805
 21
396.038623818
 31
0.0
  0
LINE
  5
4DA3
102
{ACAD_REACTORS
330
4DB2
102
}
330
1A
100
AcDbEntity
  8
外形線
100
AcDbLine
 10
452.466846674806
 20
434.038623818
 30
0.0
 11
452.466846674805
 21
396.038623818
 31
0.0
  0
LINE
  5
4DA4
102
{ACAD_REACTORS
330
4DB2
102
}
330
1A
100
AcDbEntity
  8
細線
100
AcDbLine
 10
434.163858226869
 20
426.008278932603
 30
0.0
 11
450.769835122742
 21
426.008278932603
 31
0.0
  0
LINE
  5
4DA5
102
{ACAD_REACTORS
330
4DB2
102
}
330
1A
100
AcDbEntity
  8
細線
100
AcDbLine
 10
434.163858226869
 20
404.068968703397
 30
0.0
 11
450.769835122742
 21
404.068968703397
 31
0.0
  0
ARC
  5
4DA6
102
{ACAD_REACTORS
330
4DB2
102
}
330
1A
100
AcDbEntity
  8
細線
100
AcDbCircle
 10
468.769835122741
 20
415.038623818
 30
0.0
 40
36.30298844793568
100
AcDbArc
 50
162.412046226005
 51
197.587953773995
  0
ARC
  5
4DA7
102
{ACAD_REACTORS
330
4DB2
102
}
330
1A
100
AcDbEntity
  8
細線
100
AcDbCircle
 10
416.163858226868
 20
415.038623818
 30
0.0
 40
36.30298844793743
100
AcDbArc
 50
342.412046226005
 51
17.587953773995
  0
ARC
  5
4DA8
102
{ACAD_REACTORS
330
4DB2
102
}
330
1A
100
AcDbEntity
  8
細線
100
AcDbCircle
 10
468.606241152574
 20
437.481293680225
 30
0.0
 40
36.303
100
AcDbArc
 50
185.441624729913
 51
198.423300686138
  0
ARC
  5
4DA9
102
{ACAD_REACTORS
330
4DB2
102
}
330
1A
100
AcDbEntity
  8
細線
100
AcDbCircle
 10
416.327452197038
 20
437.481293680225
 30
0.0
 40
36.303
100
AcDbArc
 50
341.576699313862
 51
354.558375270087
  0
ARC
  5
4DAA
102
{ACAD_REACTORS
330
4DB2
102
}
330
1A
100
AcDbEntity
  8
細線
100
AcDbCircle
 10
468.606241152573
 20
392.595953955775
 30
0.0
 40
36.303
100
AcDbArc
 50
161.576699313862
 51
174.558375270087
  0
ARC
  5
4DAB
102
{ACAD_REACTORS
330
4DB2
102
}
330
1A
100
AcDbEntity
  8
細線
100
AcDbCircle
 10
416.327452197037
 20
392.595953955775
 30
0.0
 40
36.303
100
AcDbArc
 50
5.44162472991
 51
18.423300686138
  0
LINE
  5
4DAC
102
{ACAD_REACTORS
330
4DB2
102
}
330
1A
100
AcDbEntity
  8
外形線
100
AcDbLine
 10
407.466846674805
 20
431.338436318
 30
0.0
 11
432.466846674806
 21
432.119686318
 31
0.0
  0
LINE
  5
4DAD
102
{ACAD_REACTORS
330
4DB2
102
}
330
1A
100
AcDbEntity
  8
外形線
100
AcDbLine
 10
407.466846674805
 20
398.738811318
 30
0.0
 11
407.466846674805
 21
431.338436318
 31
0.0
  0
LINE
  5
4DAE
102
{ACAD_REACTORS
330
4DB2
102
}
330
1A
100
AcDbEntity
  8
外形線
100
AcDbLine
 10
407.466846674805
 20
398.738811318
 30
0.0
 11
432.466846674805
 21
397.957561318
 31
0.0
  0
LINE
  5
4DAF
102
{ACAD_REACTORS
330
4DB2
102
}
330
1A
100
AcDbEntity
  8
細線
100
AcDbLine
 10
407.466846674805
 20
429.859436318
 30
0.0
 11
432.466846674806
 21
430.640686318
 31
0.0
  0
LINE
  5
4DB0
102
{ACAD_REACTORS
330
4DB2
102
}
330
1A
100
AcDbEntity
  8
細線
100
AcDbLine
 10
407.466846674805
 20
400.217811318
 30
0.0
 11
432.466846674805
 21
399.436561318
 31
0.0
  0
LINE
  5
4DB1
102
{ACAD_REACTORS
330
4DB2
102
}
330
1A
100
AcDbEntity
  8
外形線
100
AcDbLine
 10
450.769835122742
 20
436.977934047206
 30
0.0
 11
452.466846674806
 21
434.038623818
 31
0.0
  0
LWPOLYLINE
  5
4EF0
330
1A
100
AcDbEntity
  8
外形線
100
AcDbPolyline
 90
        4
 70
     1
 43
0.0
 10
452.466846674805
 20
396.038623818
 10
455.466846674805
 20
396.038623818
 10
455.466846674805
 20
434.038623818
 10
452.466846674805
 20
434.038623818
  0
LINE
  5
4F12
330
1A
100
AcDbEntity
  8
外形線
100
AcDbLine
 10
455.466846674805
 20
431.038623818
 30
0.0
 11
455.466846674805
 21
399.038623818
 31
0.0
  0
ARC
  5
4F13
330
1A
100
AcDbEntity
  8
外形線
100
AcDbCircle
 10
456.966846674805
 20
431.038623818
 30
0.0
 40
1.5
100
AcDbArc
 50
90.0
 51
180.0
  0
ARC
  5
4F14
330
1A
100
AcDbEntity
  8
外形線
100
AcDbCircle
 10
456.966846674805
 20
399.038623818
 30
0.0
 40
1.5
100
AcDbArc
 50
180.0
 51
270.0
  0
LINE
  5
4F15
330
1A
100
AcDbEntity
  8
外形線
100
AcDbLine
 10
478.608846674805
 20
436.038623818
 30
0.0
 11
478.608846674805
 21
394.038623818
 31
0.0
  0
ARC
  5
4F16
330
1A
100
AcDbEntity
  8
外形線
100
AcDbCircle
 10
477.108846674805
 20
396.038623818
 30
0.0
 40
1.5
100
AcDbArc
 50
0.0
 51
90.0
  0
ARC
  5
4F17
330
1A
100
AcDbEntity
  8
外形線
100
AcDbCircle
 10
477.108846674805
 20
434.038623818
 30
0.0
 40
1.5
100
AcDbArc
 50
270.0
 51
0.0
  0
LINE
  5
4F18
330
1A
100
AcDbEntity
  8
外形線
100
AcDbLine
 10
529.55967996632
 20
385.134392125068
 30
0.0
 11
531.46790289903
 21
386.085796983383
 31
0.0
  0
LINE
  5
4F19
330
1A
100
AcDbEntity
  8
外形線
100
AcDbLine
 10
499.740280116192
 20
444.942855510932
 30
0.0
 11
501.648503048901
 21
445.894260369247
 31
0.0
  0
LINE
  5
4F1A
330
1A
100
AcDbEntity
  8
外形線
100
AcDbLine
 10
501.648503048901
 20
445.894260369247
 30
0.0
 11
531.46790289903
 21
386.085796983383
 31
0.0
  0
LINE
  5
4F1B
330
1A
100
AcDbEntity
  8
外形線
100
AcDbLine
 10
529.55967996632
 20
385.134392125068
 30
0.0
 11
499.740280116192
 21
444.942855510932
 31
0.0
  0
ARC
  5
4F1C
330
1A
100
AcDbEntity
  8
細線
100
AcDbCircle
 10
513.106047083408
 20
356.02742545241
 30
0.0
 40
34.01119848081266
100
AcDbArc
 50
63.825050098629
 51
116.164440091243
  0
LINE
  5
4F1D
330
1A
100
AcDbEntity
  8
外形線
100
AcDbLine
 10
528.108846674805
 20
369.038623818
 30
0.0
 11
529.108846674805
 21
370.038623818
 31
0.0
  0
LINE
  5
4F1E
330
1A
100
AcDbEntity
  8
外形線
100
AcDbLine
 10
498.108846674805
 20
369.038623818
 30
0.0
 11
528.108846674805
 21
369.038623818
 31
0.0
  0
LINE
  5
4F1F
330
1A
100
AcDbEntity
  8
外形線
100
AcDbLine
 10
497.108846674805
 20
370.038623818
 30
0.0
 11
498.108846674805
 21
369.038623818
 31
0.0
  0
LINE
  5
4F20
330
1A
100
AcDbEntity
  8
外形線
100
AcDbLine
 10
497.108846674805
 20
370.038623818
 30
0.0
 11
497.108846674805
 21
385.038623818
 31
0.0
  0
ARC
  5
4F21
330
1A
100
AcDbEntity
  8
外形線
100
AcDbCircle
 10
496.108846674805
 20
385.038623818
 30
0.0
 40
1.0
100
AcDbArc
 50
0.0
 51
90.0
  0
ARC
  5
4F22
330
1A
100
AcDbEntity
  8
外形線
100
AcDbCircle
 10
486.608846674805
 20
436.038623818
 30
0.0
 40
8.0
100
AcDbArc
 50
90.0
 51
180.0
  0
ARC
  5
4F23
330
1A
100
AcDbEntity
  8
外形線
100
AcDbCircle
 10
486.608846674805
 20
394.038623818
 30
0.0
 40
8.0
100
AcDbArc
 50
180.0
 51
270.0
  0
ARC
  5
4F24
330
1A
100
AcDbEntity
  8
外形線
100
AcDbCircle
 10
507.115527071822
 20
451.076400949394
 30
0.0
 40
3.0
100
AcDbArc
 50
45.30448303075
 51
116.499999999995
  0
ARC
  5
4F25
330
1A
100
AcDbEntity
  8
外形線
100
AcDbCircle
 10
539.493901207733
 20
387.633229174838
 30
0.0
 40
3.0
100
AcDbArc
 50
296.499999999995
 51
7.695516969253
  0
LINE
  5
4F26
330
1A
100
AcDbEntity
  8
外形線
100
AcDbLine
 10
533.786495164983
 20
381.435420337913
 30
0.0
 11
540.832494647062
 21
384.948426090032
 31
0.0
  0
LINE
  5
4F27
330
1A
100
AcDbEntity
  8
外形線
100
AcDbLine
 10
544.161233120782
 20
419.196617932253
 30
0.0
 11
534.929272346856
 21
414.593732084103
 31
0.0
  0
LINE
  5
4F28
330
1A
100
AcDbEntity
  8
外形線
100
AcDbLine
 10
532.757801532658
 20
419.656778789966
 30
0.0
 11
541.707145148678
 21
424.118756921064
 31
0.0
  0
LINE
  5
4F29
330
1A
100
AcDbEntity
  8
外形線
100
AcDbLine
 10
529.188219027779
 20
426.816253682782
 30
0.0
 11
538.137562643799
 21
431.27823181388
 31
0.0
  0
LINE
  5
4F2A
330
1A
100
AcDbEntity
  8
外形線
100
AcDbLine
 10
535.683474671695
 20
436.200370802691
 30
0.0
 11
526.451513897769
 21
431.597484954541
 31
0.0
  0
LINE
  5
4F2B
330
1A
100
AcDbEntity
  8
外形線
100
AcDbLine
 10
538.137562643799
 20
431.27823181388
 30
0.0
 11
535.683474671695
 21
436.200370802691
 31
0.0
  0
LINE
  5
4F2C
330
1A
100
AcDbEntity
  8
外形線
100
AcDbLine
 10
541.707145148678
 20
424.118756921064
 30
0.0
 11
544.161233120782
 21
419.196617932253
 31
0.0
  0
LINE
  5
4F2D
330
1A
100
AcDbEntity
  8
外形線
100
AcDbLine
 10
529.108846674805
 20
370.038623818
 30
0.0
 11
529.108846674805
 21
386.038623818
 31
0.0
  0
LINE
  5
4F2E
330
1A
100
AcDbEntity
  8
中心線
 48
10.0
100
AcDbLine
 10
513.108846674805
 20
395.038623818
 30
0.0
 11
513.108846674805
 21
356.02742545241
 31
0.0
  0
LINE
  5
4F2F
330
1A
100
AcDbEntity
  8
外形線
 48
10.0
100
AcDbLine
 10
499.329910782949
 20
450.546837014717
 30
0.0
 11
505.776933632493
 21
453.7612040342
 31
0.0
  0
ARC
  5
4F30
330
1A
100
AcDbEntity
  8
外形線
 48
10.0
100
AcDbCircle
 10
426.846170765763
 20
370.295122195025
 30
0.0
 40
116.880564807258
100
AcDbArc
 50
8.420101953746
 51
45.185262866733
  0
LINE
  5
4F31
330
1A
100
AcDbEntity
  8
外形線
 48
10.0
100
AcDbLine
 10
499.329910782949
 20
450.546837014717
 30
0.0
 11
533.786495164983
 21
381.435420337913
 31
0.0
  0
LINE
  5
4F32
330
1A
100
AcDbEntity
  8
外形線
 48
10.0
100
AcDbLine
 10
486.608846674805
 20
444.038623818
 30
0.0
 11
500.149980041256
 21
444.038623818
 31
0.0
  0
LINE
  5
4F33
330
1A
100
AcDbEntity
  8
外形線
 48
10.0
100
AcDbLine
 10
456.966846674805
 20
432.538623818
 30
0.0
 11
477.108846674805
 21
432.538623818
 31
0.0
  0
LINE
  5
4F34
330
1A
100
AcDbEntity
  8
外形線
 48
10.0
100
AcDbLine
 10
456.966846674805
 20
397.538623818
 30
0.0
 11
477.108846674805
 21
397.538623818
 31
0.0
  0
LINE
  5
4F35
330
1A
100
AcDbEntity
  8
外形線
 48
10.0
100
AcDbLine
 10
486.608846674805
 20
386.038623818
 30
0.0
 11
496.108846674805
 21
386.038623818
 31
0.0
  0
DIMENSION
  5
4F36
330
1A
100
AcDbEntity
  8
寸法線
 48
10.0
100
AcDbDimension
  2
*D46
 10
569.828378418532
 20
369.038623818
 30
0.0
 11
565.203378418532
 21
411.538642373838
 31
0.0
 70
    32
  3
ISO-25
100
AcDbAlignedDimension
 13
507.589885384937
 23
454.038660929676
 33
0.0
 14
528.108846674805
 24
369.038623818
 34
0.0
 50
90.0
100
AcDbRotatedDimension
1001
ACAD
1000
DSTYLE
1002
{
1070
     5
1000
OPEN30
1070
    41
1040
6.0
1070
    47
1040
0.1
1070
    48
1040
0.1
1070
    73
1070
     0
1070
   140
1040
8.0
1070
   271
1070
     1
1070
   272
1070
     1
1070
   341
1005
2AF4
1002
}
  0
DIMENSION
  5
4F45
330
1A
100
AcDbEntity
  8
寸法線
 48
10.0
100
AcDbDimension
  2
*D48
 10
542.46688224848
 20
321.092964042187
 30
0.0
 11
478.741128337083
 21
321.092964042187
 31
0.0
 70
   160
  3
ISO-25
100
AcDbAlignedDimension
 13
407.466846674805
 23
338.847698071445
 33
0.0
 14
542.46688224848
 24
388.034955115443
 34
0.0
100
AcDbRotatedDimension
1001
ACAD
1000
DSTYLE
1002
{
1070
     5
1000
OPEN30
1070
    41
1040
6.0
1070
    47
1040
0.1
1070
    48
1040
0.1
1070
    73
1070
     0
1070
   140
1040
8.0
1070
   271
1070
     1
1070
   272
1070
     1
1070
   341
1005
2AF4
1002
}
  0
LINE
  5
518E
330
1A
100
AcDbEntity
  8
寸法線
100
AcDbLine
 10
283.720079200228
 20
186.435592420301
 30
0.0
 11
567.779999329494
 21
186.435592420301
 31
0.0
  0
LINE
  5
518F
330
1A
100
AcDbEntity
  8
寸法線
100
AcDbLine
 10
315.720049200228
 20
146.271567020292
 30
0.0
 11
315.720049200228
 21
291.873975173339
 31
0.0
  0
LINE
  5
5190
330
1A
100
AcDbEntity
  8
寸法線
100
AcDbLine
 10
283.720079200228
 20
277.803975173339
 30
0.0
 11
567.779999329494
 21
277.803975173339
 31
0.0
  0
LINE
  5
5191
330
1A
100
AcDbEntity
  8
寸法線
100
AcDbLine
 10
283.720079200228
 20
291.873975173339
 30
0.0
 11
567.779999329494
 21
291.873975173339
 31
0.0
  0
LINE
  5
5192
330
1A
100
AcDbEntity
  8
寸法線
100
AcDbLine
 10
283.720079200228
 20
146.271567020292
 30
0.0
 11
283.720079200228
 21
291.873975173339
 31
0.0
  0
LINE
  5
5193
330
1A
100
AcDbEntity
  8
寸法線
100
AcDbLine
 10
536.023680765205
 20
146.271567020292
 30
0.0
 11
536.023680765205
 21
291.873975173339
 31
0.0
  0
LINE
  5
5194
330
1A
100
AcDbEntity
  8
寸法線
100
AcDbLine
 10
283.720079200228
 20
251.698722958186
 30
0.0
 11
567.779999329494
 21
251.698722958186
 31
0.0
  0
LINE
  5
5195
330
1A
100
AcDbEntity
  8
寸法線
100
AcDbLine
 10
283.720079200228
 20
238.646096850609
 30
0.0
 11
567.779999329494
 21
238.646096850609
 31
0.0
  0
LINE
  5
5196
330
1A
100
AcDbEntity
  8
寸法線
100
AcDbLine
 10
283.720079200228
 20
225.593470743033
 30
0.0
 11
567.779999329494
 21
225.593470743033
 31
0.0
  0
LINE
  5
5197
330
1A
100
AcDbEntity
  8
寸法線
100
AcDbLine
 10
283.720079200228
 20
212.540844635455
 30
0.0
 11
567.779999329494
 21
212.540844635455
 31
0.0
  0
LINE
  5
5198
330
1A
100
AcDbEntity
  8
寸法線
100
AcDbLine
 10
283.720079200228
 20
199.488218527878
 30
0.0
 11
567.779999329494
 21
199.488218527878
 31
0.0
  0
LINE
  5
5199
330
1A
100
AcDbEntity
  8
寸法線
100
AcDbLine
 10
567.779999329494
 20
146.271567020292
 30
0.0
 11
567.779999329494
 21
291.873975173339
 31
0.0
  0
LINE
  5
519A
330
1A
100
AcDbEntity
  8
寸法線
100
AcDbLine
 10
283.720079200228
 20
264.751349065762
 30
0.0
 11
567.779999329494
 21
264.751349065762
 31
0.0
  0
MTEXT
  5
519B
102
{ACAD_XDICTIONARY
360
519C
102
}
330
1A
100
AcDbEntity
  8
寸法線
 48
10.0
100
AcDbMText
 10
357.459066321616
 20
289.017194141945
 30
0.0
 40
8.0
 41
83.478034242776
 71
     2
 72
     5
  1
\PTSS-A1WA-100\PTSS-A1WA-200\PTSS-A1WA-300\PTSS-A1WA-400\PTSS-A1WA-500\PTSS-A1WA-600\PTSS-A1WA-700\PTSS-A1WA-800\PTSS-A1WA-900\PTSS-A1WA-A10
1001
ACADANNOTATIVE
1000
AnnotativeData
1002
{
1070
     1
1070
     0
1002
}
1001
ACAD
1000
MTEXTBEGIN
1070
    44
1040
0.99
1000
MTEXTEND
  0
LINE
  5
519F
330
1A
100
AcDbEntity
  8
寸法線
 48
10.0
100
AcDbLine
 10
399.198083443004
 20
291.873975173339
 30
0.0
 11
399.198083443004
 21
146.271567020292
 31
0.0
  0
SPLINE
  5
51A1
330
1A
100
AcDbEntity
  8
寸法線
 48
10.0
100
AcDbSpline
210
0.0
220
0.0
230
1.0
 70
  1064
 71
     3
 72
    13
 73
     9
 74
     7
 42
0.000000001
 43
0.0000000001
 44
0.0000000001
 40
0.0
 40
0.0
 40
0.0
 40
0.0
 40
3.546053604694573
 40
9.27899609329885
 40
13.89970108471578
 40
17.0953966299493
 40
18.7947045570244
 40
20.02704699455825
 40
20.02704699455825
 40
20.02704699455825
 40
20.02704699455825
 10
415.0725690787718
 20
280.9927508653259
 30
0.0
 10
416.1270973478501
 20
281.4798795995301
 30
0.0
 10
418.8864926587661
 20
282.7545545270693
 30
0.0
 10
419.551429565126
 20
291.6530113998878
 30
0.0
 10
415.6181265459798
 20
285.2529245759458
 30
0.0
 10
415.7903627421809
 20
282.0039070173773
 30
0.0
 10
417.8626444398301
 20
280.7310879405672
 30
0.0
 10
418.7792485180662
 20
281.1896050244369
 30
0.0
 10
419.1645502981362
 20
281.3823463102356
 30
0.0
 11
415.0725690787718
 21
280.9927508653259
 31
0.0
 11
417.8979845117205
 21
283.1355349885223
 31
0.0
 11
418.5312674049282
 21
288.8333926872381
 31
0.0
 11
416.04685100507
 21
284.9374217209935
 31
0.0
 11
416.4852779915324
 21
281.771943590384
 31
0.0
 11
417.9954124650932
 21
280.9927508653259
 31
0.0
 11
419.1645502981362
 21
281.3823463102356
 31
0.0
  0
MTEXT
  5
51A2
102
{ACAD_XDICTIONARY
360
51A3
102
}
330
1A
100
AcDbEntity
  8
寸法線
 48
10.0
100
AcDbMText
 10
417.72694944994
 20
274.947194141945
 30
0.0
 40
8.0
 41
104.940745969905
 71
     2
 72
     5
  1
1000\P2000\P3000\P4000\P5000\P6000\P7000\P8000\P9000\P10000
1001
ACADANNOTATIVE
1000
AnnotativeData
1002
{
1070
     1
1070
     0
1002
}
1001
ACAD
1000
MTEXTBEGIN
1070
    44
1040
0.99
1000
MTEXTEND
  0
LINE
  5
51A6
330
1A
100
AcDbEntity
  8
寸法線
 48
10.0
100
AcDbLine
 10
436.573237643171
 20
291.873975173339
 30
0.0
 11
436.573237643171
 21
146.271567020292
 31
0.0
  0
LINE
  5
51AA
330
1A
100
AcDbEntity
  8
寸法線
100
AcDbLine
 10
283.720079200228
 20
173.382966312724
 30
0.0
 11
567.779999329494
 21
173.382966312724
 31
0.0
  0
LINE
  5
51AB
330
1A
100
AcDbEntity
  8
寸法線
100
AcDbLine
 10
283.720079200228
 20
159.324193127869
 30
0.0
 11
567.779999329494
 21
159.324193127869
 31
0.0
  0
LINE
  5
51AC
330
1A
100
AcDbEntity
  8
寸法線
100
AcDbLine
 10
283.720079200228
 20
146.271567020292
 30
0.0
 11
567.779999329494
 21
146.271567020292
 31
0.0
  0
DIMENSION
  5
51AD
330
1A
100
AcDbEntity
  8
寸法線
 48
10.0
100
AcDbDimension
  2
*D50
 10
542.46688224848
 20
338.847698071445
 30
0.0
 11
497.466864461643
 21
343.472698071445
 31
0.0
 70
    32
  3
ISO-25
100
AcDbAlignedDimension
 13
452.466846674805
 23
396.038623818
 33
0.0
 14
542.46688224848
 24
369.038623818
 34
0.0
100
AcDbRotatedDimension
1001
ACAD
1000
DSTYLE
1002
{
1070
     5
1000
OPEN30
1070
    41
1040
6.0
1070
   271
1070
     1
1070
   341
1005
2AF4
1070
   272
1070
     1
1070
    73
1070
     0
1070
    48
1040
0.1
1070
    47
1040
0.1
1070
   140
1040
8.0
1002
}
  0
SPLINE
  5
51BA
330
1A
100
AcDbEntity
  8
寸法線
 48
10.0
100
AcDbSpline
210
0.0
220
0.0
230
1.0
 70
  1064
 71
     3
 72
    13
 73
     9
 74
     7
 42
0.000000001
 43
0.0000000001
 44
0.0000000001
 40
0.0
 40
0.0
 40
0.0
 40
0.0
 40
3.546053604694573
 40
9.27899609329885
 40
13.89970108471578
 40
17.0953966299493
 40
18.7947045570244
 40
20.02704699455825
 40
20.02704699455825
 40
20.02704699455825
 40
20.02704699455825
 10
165.4067363851579
 20
322.7393334715116
 30
0.0
 10
166.4612646542362
 20
323.2264622057157
 30
0.0
 10
169.2206599651521
 20
324.501137133255
 30
0.0
 10
169.8855968715122
 20
333.3995940060735
 30
0.0
 10
165.9522938523658
 20
326.9995071821314
 30
0.0
 10
166.1245300485671
 20
323.7504896235631
 30
0.0
 10
168.1968117462163
 20
322.477670546753
 30
0.0
 10
169.1134158244523
 20
322.9361876306226
 30
0.0
 10
169.4987176045224
 20
323.1289289164213
 30
0.0
 11
165.4067363851579
 21
322.7393334715116
 31
0.0
 11
168.2321518181066
 21
324.882117594708
 31
0.0
 11
168.8654347113143
 21
330.5799752934238
 31
0.0
 11
166.3810183114561
 21
326.6840043271792
 31
0.0
 11
166.8194452979185
 21
323.5185261965697
 31
0.0
 11
168.3295797714794
 21
322.7393334715116
 31
0.0
 11
169.4987176045224
 21
323.1289289164213
 31
0.0
  0
MTEXT
  5
52EE
330
1A
100
AcDbEntity
  8
寸法線
 48
10.0
100
AcDbMText
 10
135.540154439355
 20
500.421220439117
 30
0.0
 40
8.0
 41
0.0
 71
     9
 72
     1
  1
SUS304
  0
MTEXT
  5
52EF
330
1A
100
AcDbEntity
  8
寸法線
 48
10.0
100
AcDbMText
 10
-8.13402854628
 20
499.539313438743
 30
0.0
 40
8.0
 41
0.0
 71
     9
 72
     1
  1
SUS304
  0
MTEXT
  5
52F1
330
1A
100
AcDbEntity
  8
寸法線
 48
10.0
100
AcDbMText
 10
-56.361403895886
 20
499.932036395842
 30
0.0
 40
8.0
 41
0.0
 71
     9
 72
     1
  1
DETECTING\PELECTRODE\PSUS304
  0
MTEXT
  5
52F3
330
1A
100
AcDbEntity
  8
寸法線
 48
10.0
100
AcDbMText
 10
213.166928159809
 20
500.372329193776
 30
0.0
 40
8.0
 41
0.0
 71
     9
 72
     1
  1
INSULATOR\PPOLYACETAL
  0
MTEXT
  5
52F4
330
1A
100
AcDbEntity
  8
寸法線
 48
10.0
100
AcDbMText
 10
300.943017655162
 20
500.59039077675
 30
0.0
 40
8.0
 41
0.0
 71
     9
 72
     1
  1
SEAL\PSILICON RUBBER
  0
MTEXT
  5
52F5
330
1A
100
AcDbEntity
  8
寸法線
 48
10.0
100
AcDbMText
 10
365.265847521295
 20
499.996750075606
 30
0.0
 40
8.0
 41
0.0
 71
     9
 72
     1
  1
GROUNDING\PELECTRODE\PSUS304
  0
MTEXT
  5
52F6
330
1A
100
AcDbEntity
  8
寸法線
 48
10.0
100
AcDbMText
 10
426.614575406045
 20
500.590390776749
 30
0.0
 40
8.0
 41
0.0
 71
     7
 72
     1
  1
SETTING SCREW\PR1″\PSUS304
  0
LEADER
  5
52F7
330
1A
100
AcDbEntity
  8
寸法線
 48
10.0
100
AcDbLeader
  3
ISO-25
 76
     3
 10
264.611605031282
 20
427.574335114361
 30
0.0
 10
213.917572009151
 20
499.538623667948
 30
0.0
 10
200.17411047416
 20
499.538623667948
 30
0.0
213
0.0
223
0.5601274164175152
233
0.0
1001
ACAD
1000
DSTYLE
1002
{
1070
     5
1000
OPEN30
1070
   147
1040
0.625
1070
    77
1070
     0
1070
    41
1040
6.0
1070
    47
1040
0.1
1070
    48
1040
0.1
1070
    73
1070
     0
1070
   140
1040
8.0
1070
   271
1070
     1
1070
   272
1070
     1
1070
   341
1005
2AF4
1070
   342
1005
2AF4
1002
}
  0
LEADER
  5
52F8
330
1A
100
AcDbEntity
  8
寸法線
 48
10.0
100
AcDbLeader
  3
ISO-25
 76
     3
 10
307.466846674805
 20
427.539313586272
 30
0.0
 10
302.627600565262
 20
499.538623667948
 30
0.0
 10
290.940244546939
 20
499.538623667948
 30
0.0
213
3.550164367192281
223
0.1418355299755945
233
0.0
1001
ACAD
1000
DSTYLE
1002
{
1070
     5
1000
OPEN30
1070
   147
1040
0.625
1070
    77
1070
     0
1070
    41
1040
6.0
1070
    47
1040
0.1
1070
    48
1040
0.1
1070
    73
1070
     0
1070
   140
1040
8.0
1070
   271
1070
     1
1070
   272
1070
     1
1070
   341
1005
2AF4
1070
   342
1005
2AF4
1002
}
  0
LEADER
  5
52F9
330
1A
100
AcDbEntity
  8
寸法線
 48
10.0
100
AcDbLeader
  3
ISO-25
 76
     3
 10
365.230823386138
 20
428.038623815478
 30
0.0
 10
365.230823386138
 20
499.498654050812
 30
0.0
 10
352.842681392728
 20
499.498654050812
 30
0.0
1001
ACAD
1000
DSTYLE
1002
{
1070
     5
1000
OPEN30
1070
   147
1040
0.625
1070
    77
1070
     0
1070
    41
1040
6.0
1070
    47
1040
0.1
1070
    48
1040
0.1
1070
    73
1070
     0
1070
   140
1040
8.0
1070
   271
1070
     1
1070
   272
1070
     1
1070
   341
1005
2AF4
1070
   342
1005
2AF4
1002
}
  0
LEADER
  5
52FA
330
1A
100
AcDbEntity
  8
寸法線
 48
10.0
100
AcDbLeader
  3
ISO-25
 76
     3
 10
419.966846674806
 20
431.729061318
 30
0.0
 10
426.055702652131
 20
499.538623667948
 30
0.0
 10
438.875858467037
 20
499.538623667948
 30
0.0
213
-0.711498353561467
223
0.3291748393493776
233
0.0
1001
ACAD
1000
DSTYLE
1002
{
1070
     5
1000
OPEN30
1070
   147
1040
0.625
1070
    77
1070
     0
1070
    41
1040
6.0
1070
    47
1040
0.1
1070
    48
1040
0.1
1070
    73
1070
     0
1070
   140
1040
8.0
1070
   271
1070
     1
1070
   272
1070
     1
1070
   341
1005
2AF4
1070
   342
1005
2AF4
1002
}
  0
LEADER
  5
52FB
330
1A
100
AcDbEntity
  8
寸法線
 48
10.0
100
AcDbLeader
  3
ISO-25
 76
     3
 10
100.169377006618
 20
417.538623815478
 30
0.0
 10
83.650076241859
 20
499.5083010715
 30
0.0
 10
73.404754973165
 20
499.5083010715
 30
0.0
1001
ACAD
1000
DSTYLE
1002
{
1070
     5
1000
OPEN30
1070
   147
1040
0.625
1070
    77
1070
     0
1070
    41
1040
6.0
1070
    47
1040
0.1
1070
    48
1040
0.1
1070
    73
1070
     0
1070
   140
1040
8.0
1070
   271
1070
     1
1070
   272
1070
     1
1070
   341
1005
2AF4
1070
   342
1005
2AF4
1002
}
  0
MTEXT
  5
52FC
330
1A
100
AcDbEntity
  8
寸法線
 48
10.0
100
AcDbMText
 10
82.465974768899
 20
500.851194384984
 30
0.0
 40
8.0
 41
0.0
 71
     9
 72
     1
  1
STAINLESS STEEL\PWIRE ROPE
  0
LEADER
  5
52FD
330
1A
100
AcDbEntity
  8
寸法線
 48
10.0
100
AcDbLeader
  3
ISO-25
 76
     2
 10
181.436835679655
 20
424.738623815478
 30
0.0
 10
136.908673214394
 20
499.539313438743
 30
0.0
1001
ACAD
1000
DSTYLE
1002
{
1070
     5
1000
OPEN30
1070
   147
1040
0.625
1070
    77
1070
     0
1070
    41
1040
6.0
1070
    47
1040
0.1
1070
    48
1040
0.1
1070
    73
1070
     0
1070
   140
1040
8.0
1070
   271
1070
     1
1070
   272
1070
     1
1070
   341
1005
2AF4
1070
   342
1005
2AF4
1002
}
  0
LEADER
  5
52FE
330
1A
100
AcDbEntity
  8
寸法線
 48
10.0
100
AcDbLeader
  3
ISO-25
 76
     3
 10
214.438766210146
 20
424.738623815478
 30
0.0
 10
136.908673214394
 20
499.539313438743
 30
0.0
 10
125.193837872968
 20
499.539313438743
 30
0.0
1001
ACAD
1000
DSTYLE
1002
{
1070
     5
1000
OPEN30
1070
   147
1040
0.625
1070
    77
1070
     0
1070
    41
1040
6.0
1070
    47
1040
0.1
1070
    48
1040
0.1
1070
    73
1070
     0
1070
   140
1040
8.0
1070
   271
1070
     1
1070
   272
1070
     1
1070
   341
1005
2AF4
1070
   342
1005
2AF4
1002
}
  0
MTEXT
  5
5334
102
{ACAD_XDICTIONARY
360
5335
102
}
330
1A
100
AcDbEntity
  8
寸法線
 48
10.0
100
AcDbMText
 10
522.702907104022
 20
500.102963615893
 30
0.0
 40
8.0
 41
0.0
 71
     7
 72
     1
  1
ALUMINUM\PCASTING
1001
ACADANNOTATIVE
1000
AnnotativeData
1002
{
1070
     1
1070
     0
1002
}
  0
LEADER
  5
5338
330
1A
100
AcDbEntity
  8
寸法線
 48
10.0
100
AcDbLeader
  3
ISO-25
 76
     3
 10
489.977515248827
 20
444.038623818
 30
0.0
 10
520.653971891956
 20
499.538623667948
 30
0.0
 10
533.777976654269
 20
499.538623667948
 30
0.0
213
-5.684341886080801E-14
223
0.2479222121230578
233
0.0
1001
ACAD
1000
DSTYLE
1002
{
1070
     5
1000
OPEN30
1070
   147
1040
0.625
1070
    77
1070
     0
1070
    41
1040
6.0
1070
    47
1040
0.1
1070
    48
1040
0.1
1070
    73
1070
     0
1070
   140
1040
8.0
1070
   271
1070
     1
1070
   272
1070
     1
1070
   341
1005
2AF4
1070
   342
1005
2AF4
1002
}
  0
TEXT
  5
5339
330
1A
100
AcDbEntity
  8
寸法線
100
AcDbText
 10
519.241143303851
 20
541.33285386429
 30
0.0
 40
8.0
  1
COLOR：10YR7.5/14
100
AcDbText
  0
MTEXT
  5
533A
330
1A
100
AcDbEntity
  8
寸法線
 48
10.0
100
AcDbMText
 10
555.829343739339
 20
339.602113801808
 30
0.0
 40
8.0
 41
0.0
 71
     7
 72
     1
  1
CONDUIT\PG 1/2"
  0
LEADER
  5
533B
330
1A
100
AcDbEntity
  8
寸法線
 48
10.0
100
AcDbLeader
  3
ISO-25
 76
     3
 10
514.203203098248
 20
367.704426104654
 30
0.0
 10
553.816502809439
 20
338.851964263382
 30
0.0
 10
591.613033620937
 20
338.851964263382
 30
0.0
1001
ACAD
1000
DSTYLE
1002
{
1070
     5
1000
OPEN30
1070
   147
1040
0.625
1070
    77
1070
     0
1070
    41
1040
6.0
1070
    47
1040
0.1
1070
    48
1040
0.1
1070
    73
1070
     0
1070
   140
1040
8.0
1070
   271
1070
     1
1070
   272
1070
     1
1070
   341
1005
2AF4
1070
   342
1005
2AF4
1002
}
  0
LEADER
  5
53CC
330
1A
100
AcDbEntity
  8
寸法線
 48
10.0
100
AcDbLeader
  3
ISO-25
 76
     3
 10
-40.260253295001
 20
425.038623815478
 30
0.0
 10
-55.89342094414
 20
499.538623667948
 30
0.0
 10
-64.941127074533
 20
499.538623667948
 30
0.0
213
-5.684341886080801E-14
223
-0.185555775083003
233
0.0
1001
ACAD
1000
DSTYLE
1002
{
1070
     5
1000
OPEN30
1070
   147
1040
0.625
1070
    77
1070
     0
1070
    41
1040
6.0
1070
    47
1040
0.1
1070
    48
1040
0.1
1070
    73
1070
     0
1070
   140
1040
8.0
1070
   271
1070
     1
1070
   272
1070
     1
1070
   341
1005
2AF4
1070
   342
1005
2AF4
1002
}
  0
LEADER
  5
53FA
330
1A
100
AcDbEntity
  8
寸法線
 48
10.0
100
AcDbLeader
  3
ISO-25
 76
     3
 10
35.374329763792
 20
424.738623815478
 30
0.0
 10
-7.927591388977
 20
499.538623667948
 30
0.0
 10
-16.975297519369
 20
499.538623667948
 30
0.0
213
-5.684341886080801E-14
223
-0.185555775083003
233
0.0
1001
ACAD
1000
DSTYLE
1002
{
1070
     5
1000
OPEN30
1070
   147
1040
0.625
1070
    77
1070
     0
1070
    41
1040
6.0
1070
    47
1040
0.1
1070
    48
1040
0.1
1070
    73
1070
     0
1070
   140
1040
8.0
1070
   271
1070
     1
1070
   272
1070
     1
1070
   341
1005
2AF4
1070
   342
1005
2AF4
1002
}
  0
MTEXT
  5
5435
102
{ACAD_XDICTIONARY
360
5436
102
}
330
1A
100
AcDbEntity
  8
寸法線
 48
10.0
100
AcDbMText
 10
352.215437543058
 20
289.017194141945
 30
0.0
 40
8.0
 41
72.990776685661
 71
     2
 72
     5
  1
MODEL
1001
ACADANNOTATIVE
1000
AnnotativeData
1002
{
1070
     1
1070
     0
1002
}
1001
ACAD
1000
MTEXTBEGIN
1070
    44
1040
0.99
1000
MTEXTEND
  0
MTEXT
  5
5439
102
{ACAD_XDICTIONARY
360
543A
102
}
330
1A
100
AcDbEntity
  8
寸法線
 48
10.0
100
AcDbMText
 10
551.901840047349
 20
289.184672507691
 30
0.0
 40
8.0
 41
31.756318564289
 71
     2
 72
     5
  1
Q'ty
1001
ACADANNOTATIVE
1000
AnnotativeData
1002
{
1070
     1
1070
     0
1002
}
  0
MTEXT
  5
543D
102
{ACAD_XDICTIONARY
360
543E
102
}
330
1A
100
AcDbEntity
  8
寸法線
 48
10.0
100
AcDbMText
 10
486.298459204188
 20
288.128941647851
 30
0.0
 40
8.0
 41
99.450443122034
 71
     2
 72
     5
  1
NOTE
1001
ACADANNOTATIVE
1000
AnnotativeData
1002
{
1070
     1
1070
     0
1002
}
  0
LINE
  5
5441
330
1A
100
AcDbEntity
  8
寸法線
 48
10.0
100
AcDbLine
 10
283.720079200228
 20
277.803975173339
 30
0.0
 11
315.720049200228
 21
291.873975173339
 31
0.0
  0
TEXT
  5
5470
330
1A
100
AcDbEntity
  8
寸法線
 48
10.0
100
AcDbText
 10
345.135817941951
 20
127.599982343594
 30
0.0
 40
8.0
  1
○（Required length）
100
AcDbText
  0
LEADER
  5
5471
330
1A
100
AcDbEntity
  8
寸法線
 48
10.0
100
AcDbLeader
  3
ISO-25
 76
     3
 10
300.012396354811
 20
144.094783973588
 30
0.0
 10
300.012396354811
 20
131.353250411539
 30
0.0
 10
341.360533779821
 20
131.353250411539
 30
0.0
1001
ACAD
1000
DSTYLE
1002
{
1070
     5
1000
OPEN30
1070
   147
1040
0.625
1070
    77
1070
     0
1070
    41
1040
6.0
1070
    47
1040
0.1
1070
    48
1040
0.1
1070
    73
1070
     0
1070
   140
1040
8.0
1070
   271
1070
     1
1070
   272
1070
     1
1070
   341
1005
2AF4
1070
   342
1005
2AF4
1002
}
  0
CIRCLE
  5
54AF
330
1A
100
AcDbEntity
  8
寸法線
 48
10.0
100
AcDbCircle
 10
-77.150466364513
 20
206.516714198088
 30
0.0
 40
2.0
  0
CIRCLE
  5
54B0
330
1A
100
AcDbEntity
  8
寸法線
 48
10.0
100
AcDbCircle
 10
-54.950026364512
 20
206.516714198088
 30
0.0
 40
2.0
  0
LINE
  5
54B1
330
1A
100
AcDbEntity
  8
寸法線
 48
10.0
100
AcDbLine
 10
-88.550734364513
 20
192.516470198087
 30
0.0
 11
-85.550672364512
 21
187.716298198087
 31
0.0
  0
LINE
  5
54B2
330
1A
100
AcDbEntity
  8
寸法線
 48
10.0
100
AcDbLine
 10
-85.550672364512
 20
187.716298198087
 30
0.0
 11
-46.549818364512
 21
187.716298198087
 31
0.0
  0
LINE
  5
54B3
330
1A
100
AcDbEntity
  8
寸法線
 48
10.0
100
AcDbLine
 10
-46.549818364512
 20
187.716298198087
 30
0.0
 11
-43.549758364513
 21
192.516470198087
 31
0.0
  0
LINE
  5
54B4
330
1A
100
AcDbEntity
  8
寸法線
 48
10.0
100
AcDbLine
 10
-89.348488405514
 20
225.268666198088
 30
0.0
 11
-41.24403847107
 21
225.268666198088
 31
0.0
  0
MTEXT
  5
54B5
330
1A
100
AcDbEntity
  8
寸法線
 62
     1
 48
10.0
100
AcDbMText
 10
-87.68470640718
 20
235.925240821492
 30
0.0
 40
8.0
 41
55.39356842411
 71
     1
 72
     5
  1
TERMINAL
  0
MTEXT
  5
54B6
330
1A
100
AcDbEntity
  8
寸法線
 62
     1
 48
10.0
100
AcDbMText
 10
-99.511821082308
 20
181.081097421469
 30
0.0
 40
8.0
 41
74.443410852713
 71
     1
 72
     5
  1
TO CONVERTER
  0
MTEXT
  5
54B7
102
{ACAD_XDICTIONARY
360
54B8
102
}
330
1A
100
AcDbEntity
  8
寸法線
 48
10.0
100
AcDbMText
 10
-77.150466364513
 20
201.395288228476
 30
0.0
 40
8.0
 41
5.580100571959
 71
     2
 72
     5
  1
P
1001
ACADANNOTATIVE
1000
AnnotativeData
1002
{
1070
     1
1070
     0
1002
}
  0
MTEXT
  5
54BB
102
{ACAD_XDICTIONARY
360
54BC
102
}
330
1A
100
AcDbEntity
  8
寸法線
 48
10.0
100
AcDbMText
 10
-54.950026364512
 20
201.395288228476
 30
0.0
 40
8.0
 41
5.580100571959
 71
     2
 72
     5
  1
E
1001
ACADANNOTATIVE
1000
AnnotativeData
1002
{
1070
     1
1070
     0
1002
}
  0
VIEWPORT
  5
2902
330
28FB
100
AcDbEntity
 67
     1
  8
0
 48
10.0
100
AcDbViewport
 10
0.0
 20
0.0
 30
0.0
 40
528.349942987457
 41
300.3
 68
     1
 69
     1
1001
ACAD
1000
MVIEW
1002
{
1070
    16
1010
0.0
1020
0.0
1030
0.0
1010
0.0
1020
0.0
1030
1.0
1040
0.0
1040
300.3
1040
205.756503333333
1040
143.551503333333
1040
50.0
1040
0.0
1040
0.0
1070
    16
1070
   100
1070
     0
1070
     1
1070
     0
1070
     0
1070
     0
1070
     0
1040
0.0
1040
0.0
1040
0.0
1040
10.0
1040
10.0
1040
10.0
1040
10.0
1070
     0
1002
{
1002
}
1002
}
  0
VIEWPORT
  5
2904
330
28FB
100
AcDbEntity
 67
     1
  8
図枠太線
 48
10.0
100
AcDbViewport
 10
204.746305129083
 20
161.396645458131
 30
0.0
 40
400.0
 41
240.0
 68
     2
 69
     2
1001
ACAD
1000
MVIEW
1002
{
1070
    16
1010
0.0
1020
0.0
1030
0.0
1010
0.0
1020
0.0
1030
1.0
1040
0.0
1040
480.000003447905
1040
238.22984254417
1040
336.804993338595
1040
50.0
1040
0.0
1040
0.0
1070
    16
1070
   100
1070
     0
1070
     0
1070
     0
1070
     0
1070
     0
1070
     0
1040
0.0
1040
0.0
1040
0.0
1040
1.0
1040
1.0
1040
0.0
1040
0.0
1070
     0
1002
{
1002
}
1002
}
  0
INSERT
  5
2A59
330
28FB
100
AcDbEntity
 67
     1
  8
図枠太線
100
AcDbBlockReference
  2
A3横用_タイトル
 10
-0.352109406709
 20
-2.129314295396
 30
0.0
  0
MTEXT
  5
2E85
330
28FB
100
AcDbEntity
 67
     1
  8
寸法線
 48
10.0
100
AcDbMText
 10
149.12611673873
 20
14.255245025413
 30
0.0
 40
5.0
 41
11.452149180996
 71
     1
 72
     5
  1
{\H1.4x;1:2}
  0
MTEXT
  5
5503
102
{ACAD_XDICTIONARY
360
5504
102
}
330
28FB
100
AcDbEntity
 67
     1
  8
寸法線
 48
10.0
100
AcDbMText
 10
188.067266146757
 20
32.981938003741
 30
0.0
 40
5.0
 41
33.4
 71
     2
 72
     5
  1
takahashi
1001
ACADANNOTATIVE
1000
AnnotativeData
1002
{
1070
     1
1070
     0
1002
}
  0
MTEXT
  5
5507
102
{ACAD_XDICTIONARY
360
5508
102
}
330
28FB
100
AcDbEntity
 67
     1
  8
寸法線
 48
10.0
100
AcDbMText
 10
377.920856708546
 20
50.834223925331
 30
0.0
 40
5.0
 41
21.364427237501
 71
     1
 72
     5
  1
Q'ty: 
1001
ACADANNOTATIVE
1000
AnnotativeData
1002
{
1070
     1
1070
     0
1002
}
  0
MTEXT
  5
550C
102
{ACAD_XDICTIONARY
360
550D
102
}
330
28FB
100
AcDbEntity
 67
     1
  8
寸法線
 48
10.0
100
AcDbMText
 10
341.155313110839
 20
15.693933122141
 30
0.0
 40
8.0
 41
33.206594841881
 71
     1
 72
     5
  1
HE-13024
1001
ACADANNOTATIVE
1000
AnnotativeData
1002
{
1070
     1
1070
     0
1002
}
  0
MTEXT
  5
5510
330
28FB
100
AcDbEntity
 67
     1
  8
寸法線
 48
10.0
100
AcDbMText
 10
212.548677740965
 20
51.185679132829
 30
0.0
 40
5.0
 41
106.699923235854
 71
     1
 72
     5
  1
a reduced drawing（A3size～）
  0
LINE
  5
5511
330
28FB
100
AcDbEntity
 67
     1
  8
寸法線
 48
10.0
100
AcDbLine
 10
208.834699746824
 20
44.330291551503
 30
0.0
 11
305.487818087333
 21
44.330291551503
 31
0.0
  0
MTEXT
  5
565A
102
{ACAD_XDICTIONARY
360
565B
102
}
330
28FB
100
AcDbEntity
 67
     1
  8
寸法線
 48
10.0
100
AcDbMText
 10
307.871917838935
 20
32.414406608895
 30
0.0
 40
6.0
 41
45.0
 71
     1
 72
     5
  1
TSS-A1WA-□
1001
ACADANNOTATIVE
1000
AnnotativeData
1002
{
1070
     1
1070
     0
1002
}
  0
MTEXT
  5
565E
330
28FB
100
AcDbEntity
 67
     1
  8
寸法線
 48
10.0
100
AcDbMText
 10
361.549497831478
 20
35.070077613205
 30
0.0
 40
3.5
 41
59.837375094616
 71
     1
 72
     5
  1
CAPACITANCE TYPE\PLEVEL SENSOR
  0
MTEXT
  5
5802
102
{ACAD_XDICTIONARY
360
5803
102
}
330
28FB
100
AcDbEntity
 67
     1
  8
寸法線
 48
10.0
100
AcDbMText
 10
188.046305129083
 20
12.62384379707
 30
0.0
 40
5.0
 41
33.4
 71
     2
 72
     5
  1
\H0.9x;Sep.14.2016
1001
ACADANNOTATIVE
1000
AnnotativeData
1002
{
1070
     1
1070
     0
1002
}
  0
ENDSEC
  0
SECTION
  2
OBJECTS
  0
DICTIONARY
  5
C
330
0
100
AcDbDictionary
  3
ACAD_COLOR
350
2948
  3
ACAD_GROUP
350
D
  3
ACAD_LAYOUT
350
2816
  3
ACAD_MATERIAL
350
2947
  3
ACAD_MLEADERSTYLE
350
513B
  3
ACAD_MLINESTYLE
350
E
  3
ACAD_PLOTSETTINGS
350
2817
  3
ACAD_SCALELIST
350
5114
  3
ACAD_VISUALSTYLE
350
50FB
  3
ACADDIM
350
50E8
  3
ACDBHEADERROUNDTRIPXREC
350
5862
  3
ACDBVARIABLEDICTIONARY
350
51BB
  3
DWGPROPS
350
5887
  0
DICTIONARY
  5
5888
330
8
100
AcDbDictionary
280
     1
  3
ACAD_XREC_ROUNDTRIP
360
5889
  0
DICTIONARY
  5
29EA
330
2
100
AcDbDictionary
280
     1
  3
ACAD_LAYERFILTERS
360
2B0C
  3
ACAD_LAYERSTATES
360
29EB
  0
DICTIONARY
  5
519C
330
519B
100
AcDbDictionary
280
     1
  3
ACDBCONTEXTDATAMANAGER
360
519D
  0
DICTIONARY
  5
51A3
330
51A2
100
AcDbDictionary
280
     1
  3
ACDBCONTEXTDATAMANAGER
360
51A4
  0
DICTIONARY
  5
5335
330
5334
100
AcDbDictionary
280
     1
  3
ACDBCONTEXTDATAMANAGER
360
5336
  0
DICTIONARY
  5
5436
330
5435
100
AcDbDictionary
280
     1
  3
ACDBCONTEXTDATAMANAGER
360
5437
  0
DICTIONARY
  5
543A
330
5439
100
AcDbDictionary
280
     1
  3
ACDBCONTEXTDATAMANAGER
360
543B
  0
DICTIONARY
  5
543E
330
543D
100
AcDbDictionary
280
     1
  3
ACDBCONTEXTDATAMANAGER
360
543F
  0
DICTIONARY
  5
54B8
330
54B7
100
AcDbDictionary
280
     1
  3
ACDBCONTEXTDATAMANAGER
360
54B9
  0
DICTIONARY
  5
54BC
330
54BB
100
AcDbDictionary
280
     1
  3
ACDBCONTEXTDATAMANAGER
360
54BD
  0
DICTIONARY
  5
5504
330
5503
100
AcDbDictionary
280
     1
  3
ACDBCONTEXTDATAMANAGER
360
5505
  0
DICTIONARY
  5
5508
330
5507
100
AcDbDictionary
280
     1
  3
ACDBCONTEXTDATAMANAGER
360
5509
  0
DICTIONARY
  5
550D
330
550C
100
AcDbDictionary
280
     1
  3
ACDBCONTEXTDATAMANAGER
360
550E
  0
DICTIONARY
  5
565B
330
565A
100
AcDbDictionary
280
     1
  3
ACDBCONTEXTDATAMANAGER
360
565C
  0
DICTIONARY
  5
5803
330
5802
100
AcDbDictionary
280
     1
  3
ACDBCONTEXTDATAMANAGER
360
5804
  0
DICTIONARY
  5
2948
102
{ACAD_REACTORS
330
C
102
}
330
C
100
AcDbDictionary
  0
DICTIONARY
  5
D
102
{ACAD_REACTORS
330
C
102
}
330
C
100
AcDbDictionary
  3
*A1
350
456F
  3
*A2
350
4DB2
  3
*A3
350
4830
  3
*A4
350
4831
  3
*A5
350
4832
  3
*A6
350
4833
  0
DICTIONARY
  5
2816
102
{ACAD_REACTORS
330
C
102
}
330
C
100
AcDbDictionary
  0
DICTIONARY
  5
2947
102
{ACAD_REACTORS
330
C
102
}
330
C
100
AcDbDictionary
  3
BYBLOCK
350
5137
  3
BYLAYER
350
5136
  3
GLOBAL
350
5138
  0
DICTIONARY
  5
513B
102
{ACAD_REACTORS
330
C
102
}
330
C
100
AcDbDictionary
  3
STANDARD
350
513C
  0
DICTIONARY
  5
E
102
{ACAD_REACTORS
330
C
102
}
330
C
100
AcDbDictionary
  3
STANDARD
350
13
  0
DICTIONARY
  5
2817
102
{ACAD_REACTORS
330
C
102
}
330
C
100
AcDbDictionary
  0
DICTIONARY
  5
5114
102
{ACAD_REACTORS
330
C
102
}
330
C
100
AcDbDictionary
  3
A0
350
5115
  3
A1
350
5116
  3
A2
350
5117
  3
A3
350
5118
  3
A4
350
5119
  3
A5
350
511A
  3
A6
350
511B
  3
A7
350
511C
  3
A8
350
511D
  3
A9
350
511E
  3
B0
350
511F
  3
B1
350
5120
  3
B2
350
5121
  3
B3
350
5122
  3
B4
350
5123
  3
B5
350
5124
  3
B6
350
5125
  3
B7
350
5126
  3
B8
350
5127
  3
B9
350
5128
  3
C0
350
5129
  3
C1
350
512A
  3
C2
350
512B
  3
C3
350
512C
  3
C4
350
512D
  3
C5
350
512E
  3
C6
350
512F
  3
C7
350
5130
  3
C8
350
5131
  3
C9
350
5132
  3
D0
350
5133
  3
D1
350
5134
  3
D2
350
5135
  0
DICTIONARY
  5
50FB
102
{ACAD_REACTORS
330
C
102
}
330
C
100
AcDbDictionary
  3
2DWIREFRAME
350
5100
  3
BASIC
350
5103
  3
BRIGHTEN
350
5107
  3
COLORCHANGE
350
510B
  3
CONCEPTUAL
350
5105
  3
DIM
350
5106
  3
EDGECOLOROFF
350
510E
  3
FACEPATTERN
350
510A
  3
FLAT
350
50FC
  3
FLATWITHEDGES
350
50FD
  3
GOURAUD
350
50FE
  3
GOURAUDWITHEDGES
350
50FF
  3
HIDDEN
350
5102
  3
JITTEROFF
350
510C
  3
LINEPATTERN
350
5109
  3
MODELING
350
52AF
  3
OVERHANGOFF
350
510D
  3
REALISTIC
350
5104
  3
SHADED
350
5113
  3
SHADED_WITH_EDGES
350
5112
  3
SHADES_OF_GRAY
350
510F
  3
SKETCHY
350
5110
  3
THICKEN
350
5108
  3
WIREFRAME
350
5101
  3
X-RAY
350
5111
  0
XRECORD
  5
50E8
102
{ACAD_REACTORS
330
C
102
}
330
C
100
AcDbXrecord
 90
   990106
  3

 60
     0
 61
     0
 62
     4
 63
     4
 64
     0
 65
     0
 66
     0
 67
     3
 68
     1
 69
     0
 70
     0
 71
     0
 72
     0
 40
0.0
170
     2
340
0
  0
DICTIONARY
  5
5862
102
{ACAD_REACTORS
330
C
102
}
330
C
100
AcDbDictionary
  3
CEPSNID
350
586C
  3
CEPSNTYPE
350
586B
  3
COLORDICT
350
5885
  3
DIMSTYLEDATA
350
5882
  3
FINGERPRINTGUID
350
586D
  3
HYPERLINKBASE
350
5865
  3
INSUNITS
350
586A
  3
LAYOUTDICT
350
5867
  3
LWETCUNION
350
5869
  3
MATERIALDICT
350
5886
  3
PLOTSETDICT
350
5868
  3
PSVPSCALE
350
586F
  3
PUCSBASE
350
5872
  3
PUCSORGBACK
350
5878
  3
PUCSORGBOTTOM
350
5874
  3
PUCSORGFRONT
350
5877
  3
PUCSORGLEFT
350
5875
  3
PUCSORGRIGHT
350
5876
  3
PUCSORGTOP
350
5873
  3
PUCSORTHOREF
350
5870
  3
PUCSORTHOVIEW
350
5871
  3
STYLESHEET
350
5866
  3
TSTACKALIGN
350
5863
  3
TSTACKSIZE
350
5864
  3
UCSBASE
350
587B
  3
UCSORGBACK
350
5881
  3
UCSORGBOTTOM
350
587D
  3
UCSORGFRONT
350
5880
  3
UCSORGLEFT
350
587E
  3
UCSORGRIGHT
350
587F
  3
UCSORGTOP
350
587C
  3
UCSORTHOREF
350
5879
  3
UCSORTHOVIEW
350
587A
  3
VERSIONGUID
350
586E
  0
DICTIONARY
  5
51BB
102
{ACAD_REACTORS
330
C
102
}
330
C
100
AcDbDictionary
  3
CANNOSCALE
350
51BC
  3
CMLEADERSTYLE
350
51BE
  3
CTABLESTYLE
350
51BD
  3
DIMASSOC
350
5883
  3
HIDETEXT
350
5884
  3
MSLTSCALE
350
51BF
  3
XCLIPFRAME
350
51C0
  0
XRECORD
  5
5887
102
{ACAD_REACTORS
330
C
102
}
330
C
100
AcDbXrecord
  1
DWGPROPS COOKIE
  2

  3

  4

  6

  7

  8
takahashi
  9

300
=
301
=
302
=
303
=
304
=
305
=
306
=
307
=
308
=
309
=
 40
0.0
 41
2450576.222302431
 42
2457658.402407789
  1

 90
        0
  0
XRECORD
  5
5889
102
{ACAD_REACTORS
330
5888
102
}
330
5888
100
AcDbXrecord
102
VTR_0.000_0.000_1.000_1.000_VISUALSTYLE
340
5100
102
VTR_0.000_0.000_1.000_1.000_GRIDDISPLAY
 70
     3
102
VTR_0.000_0.000_1.000_1.000_GRIDMAJOR
 70
     5
102
VTR_0.000_0.000_1.000_1.000_DEFAULTLIGHTING
280
     1
102
VTR_0.000_0.000_1.000_1.000_DEFAULTLIGHTINGTYPE
 70
     1
102
VTR_0.000_0.000_1.000_1.000_BRIGHTNESS
141
0.0
102
VTR_0.000_0.000_1.000_1.000_CONTRAST
142
0.0
  0
DICTIONARY
  5
2B0C
102
{ACAD_REACTORS
330
29EA
102
}
330
29EA
100
AcDbDictionary
  0
DICTIONARY
  5
29EB
102
{ACAD_REACTORS
330
29EA
102
}
330
29EA
100
AcDbDictionary
  0
DICTIONARY
  5
519D
102
{ACAD_REACTORS
330
519C
102
}
330
519C
100
AcDbDictionary
  3
ACDB_ANNOTATIONSCALES
350
519E
  0
DICTIONARY
  5
51A4
102
{ACAD_REACTORS
330
51A3
102
}
330
51A3
100
AcDbDictionary
  3
ACDB_ANNOTATIONSCALES
350
51A5
  0
DICTIONARY
  5
5336
102
{ACAD_REACTORS
330
5335
102
}
330
5335
100
AcDbDictionary
  3
ACDB_ANNOTATIONSCALES
350
5337
  0
DICTIONARY
  5
5437
102
{ACAD_REACTORS
330
5436
102
}
330
5436
100
AcDbDictionary
  3
ACDB_ANNOTATIONSCALES
350
5438
  0
DICTIONARY
  5
543B
102
{ACAD_REACTORS
330
543A
102
}
330
543A
100
AcDbDictionary
  3
ACDB_ANNOTATIONSCALES
350
543C
  0
DICTIONARY
  5
543F
102
{ACAD_REACTORS
330
543E
102
}
330
543E
100
AcDbDictionary
  3
ACDB_ANNOTATIONSCALES
350
5440
  0
DICTIONARY
  5
54B9
102
{ACAD_REACTORS
330
54B8
102
}
330
54B8
100
AcDbDictionary
  3
ACDB_ANNOTATIONSCALES
350
54BA
  0
DICTIONARY
  5
54BD
102
{ACAD_REACTORS
330
54BC
102
}
330
54BC
100
AcDbDictionary
  3
ACDB_ANNOTATIONSCALES
350
54BE
  0
DICTIONARY
  5
5505
102
{ACAD_REACTORS
330
5504
102
}
330
5504
100
AcDbDictionary
  3
ACDB_ANNOTATIONSCALES
350
5506
  0
DICTIONARY
  5
5509
102
{ACAD_REACTORS
330
5508
102
}
330
5508
100
AcDbDictionary
  3
ACDB_ANNOTATIONSCALES
350
550A
  0
DICTIONARY
  5
550E
102
{ACAD_REACTORS
330
550D
102
}
330
550D
100
AcDbDictionary
  3
ACDB_ANNOTATIONSCALES
350
550F
  0
DICTIONARY
  5
565C
102
{ACAD_REACTORS
330
565B
102
}
330
565B
100
AcDbDictionary
  3
ACDB_ANNOTATIONSCALES
350
565D
  0
DICTIONARY
  5
5804
102
{ACAD_REACTORS
330
5803
102
}
330
5803
100
AcDbDictionary
  3
ACDB_ANNOTATIONSCALES
350
5805
  0
GROUP
  5
456F
102
{ACAD_REACTORS
330
D
102
}
330
D
100
AcDbGroup
300

 70
     1
 71
     1
340
453B
340
453A
340
4539
340
4538
340
4537
340
4536
340
4535
340
4534
340
4533
  0
GROUP
  5
4DB2
102
{ACAD_REACTORS
330
D
102
}
330
D
100
AcDbGroup
300

 70
     1
 71
     1
340
4DB1
340
4DB0
340
4DAF
340
4DAE
340
4DAD
340
4DAC
340
4DAB
340
4DAA
340
4DA9
340
4DA8
340
4DA7
340
4DA6
340
4DA5
340
4DA4
340
4DA3
340
4DA2
340
4DA1
340
4DA0
340
4D9F
340
4D9E
340
4D9D
  0
GROUP
  5
4830
102
{ACAD_REACTORS
330
D
102
}
330
D
100
AcDbGroup
300

 70
     1
 71
     1
340
4556
340
4555
340
4554
340
4553
340
4552
340
4557
  0
GROUP
  5
4831
102
{ACAD_REACTORS
330
D
102
}
330
D
100
AcDbGroup
300

 70
     1
 71
     1
340
4558
340
4559
340
455A
340
455B
340
455C
340
455D
340
455E
340
455F
340
4560
  0
GROUP
  5
4832
102
{ACAD_REACTORS
330
D
102
}
330
D
100
AcDbGroup
300

 70
     1
 71
     1
340
4567
340
4566
340
4565
340
4563
340
4564
340
4551
340
4561
340
4562
340
4568
  0
GROUP
  5
4833
102
{ACAD_REACTORS
330
D
102
}
330
D
100
AcDbGroup
300

 70
     1
 71
     1
340
454D
340
454C
340
454B
340
454A
340
4549
340
4550
340
454F
340
454E
340
453C
  0
MATERIAL
  5
5137
102
{ACAD_REACTORS
330
2947
102
}
102
{ACAD_XDICTIONARY
360
588C
102
}
330
2947
100
AcDbMaterial
  1
BYBLOCK
  0
MATERIAL
  5
5136
102
{ACAD_REACTORS
330
2947
102
}
102
{ACAD_XDICTIONARY
360
588A
102
}
330
2947
100
AcDbMaterial
  1
BYLAYER
  0
MATERIAL
  5
5138
102
{ACAD_REACTORS
330
2947
102
}
102
{ACAD_XDICTIONARY
360
588E
102
}
330
2947
100
AcDbMaterial
  1
GLOBAL
  0
ACAD_PROXY_OBJECT
  5
513C
102
{ACAD_REACTORS
330
513B
102
}
330
513B
100
AcDbProxyObject
 90
      499
 91
      508
 93
      610
310
40901902A4063FBFFFFFE0000000000000020400000000000020404214DD185B99185C990000000000000104090141901A00000000000004100000000000000041025764000000000000039000
340
14
340
0
340
10
340
0
 94
        0
1001
ACAD_MLEADERVER
1070
     2
  0
MLINESTYLE
  5
13
102
{ACAD_REACTORS
330
E
102
}
330
E
100
AcDbMlineStyle
  2
STANDARD
 70
     0
  3

 62
     0
 51
90.0
 52
90.0
 71
     2
 49
0.5
 62
   256
  6
BYLAYER
 49
-0.5
 62
   256
  6
BYLAYER
  0
ACAD_PROXY_OBJECT
  5
5115
102
{ACAD_REACTORS
330
5114
102
}
330
5114
100
AcDbProxyObject
 90
      499
 91
      505
 93
       41
310
903313A31580
  0
ACAD_PROXY_OBJECT
  5
5116
102
{ACAD_REACTORS
330
5114
102
}
330
5114
100
AcDbProxyObject
 90
      499
 91
      505
 93
      105
310
903313A324000000000000004000
  0
ACAD_PROXY_OBJECT
  5
5117
102
{ACAD_REACTORS
330
5114
102
}
330
5114
100
AcDbProxyObject
 90
      499
 91
      505
 93
      105
310
903313A344000000000000104000
  0
ACAD_PROXY_OBJECT
  5
5118
102
{ACAD_REACTORS
330
5114
102
}
330
5114
100
AcDbProxyObject
 90
      499
 91
      505
 93
      105
310
903313A354000000000000144000
  0
ACAD_PROXY_OBJECT
  5
5119
102
{ACAD_REACTORS
330
5114
102
}
330
5114
100
AcDbProxyObject
 90
      499
 91
      505
 93
      105
310
903313A384000000000000204000
  0
ACAD_PROXY_OBJECT
  5
511A
102
{ACAD_REACTORS
330
5114
102
}
330
5114
100
AcDbProxyObject
 90
      499
 91
      505
 93
      113
310
904313A31304000000000000244000
  0
ACAD_PROXY_OBJECT
  5
511B
102
{ACAD_REACTORS
330
5114
102
}
330
5114
100
AcDbProxyObject
 90
      499
 91
      505
 93
      113
310
904313A31364000000000000304000
  0
ACAD_PROXY_OBJECT
  5
511C
102
{ACAD_REACTORS
330
5114
102
}
330
5114
100
AcDbProxyObject
 90
      499
 91
      505
 93
      113
310
904313A32304000000000000344000
  0
ACAD_PROXY_OBJECT
  5
511D
102
{ACAD_REACTORS
330
5114
102
}
330
5114
100
AcDbProxyObject
 90
      499
 91
      505
 93
      113
310
904313A333040000000000003E4000
  0
ACAD_PROXY_OBJECT
  5
511E
102
{ACAD_REACTORS
330
5114
102
}
330
5114
100
AcDbProxyObject
 90
      499
 91
      505
 93
      113
310
904313A34304000000000000444000
  0
ACAD_PROXY_OBJECT
  5
511F
102
{ACAD_REACTORS
330
5114
102
}
330
5114
100
AcDbProxyObject
 90
      499
 91
      505
 93
      113
310
904313A35304000000000000494000
  0
ACAD_PROXY_OBJECT
  5
5120
102
{ACAD_REACTORS
330
5114
102
}
330
5114
100
AcDbProxyObject
 90
      499
 91
      505
 93
      121
310
905313A3130304000000000000594000
  0
ACAD_PROXY_OBJECT
  5
5121
102
{ACAD_REACTORS
330
5114
102
}
330
5114
100
AcDbProxyObject
 90
      499
 91
      505
 93
      105
310
903323A310000000000000010100
  0
ACAD_PROXY_OBJECT
  5
5122
102
{ACAD_REACTORS
330
5114
102
}
330
5114
100
AcDbProxyObject
 90
      499
 91
      505
 93
      105
310
903343A310000000000000410100
  0
ACAD_PROXY_OBJECT
  5
5123
102
{ACAD_REACTORS
330
5114
102
}
330
5114
100
AcDbProxyObject
 90
      499
 91
      505
 93
      105
310
903383A310000000000000810100
  0
ACAD_PROXY_OBJECT
  5
5124
102
{ACAD_REACTORS
330
5114
102
}
330
5114
100
AcDbProxyObject
 90
      499
 91
      505
 93
      113
310
90431303A310000000000000910100
  0
ACAD_PROXY_OBJECT
  5
5125
102
{ACAD_REACTORS
330
5114
102
}
330
5114
100
AcDbProxyObject
 90
      499
 91
      505
 93
      121
310
9053130303A310000000000001650100
  0
ACAD_PROXY_OBJECT
  5
5126
102
{ACAD_REACTORS
330
5114
102
}
330
5114
100
AcDbProxyObject
 90
      499
 91
      505
 93
      257
310
90E312F31323822203D2031272D3022000000000000200FC000000000000284000
  0
ACAD_PROXY_OBJECT
  5
5127
102
{ACAD_REACTORS
330
5114
102
}
330
5114
100
AcDbProxyObject
 90
      499
 91
      505
 93
      249
310
90D312F363422203D2031272D3022000000000000240FC000000000000284000
  0
ACAD_PROXY_OBJECT
  5
5128
102
{ACAD_REACTORS
330
5114
102
}
330
5114
100
AcDbProxyObject
 90
      499
 91
      505
 93
      249
310
90D312F333222203D2031272D3022000000000000280FC000000000000284000
  0
ACAD_PROXY_OBJECT
  5
5129
102
{ACAD_REACTORS
330
5114
102
}
330
5114
100
AcDbProxyObject
 90
      499
 91
      505
 93
      249
310
90D312F313622203D2031272D30220000000000002C0FC000000000000284000
  0
ACAD_PROXY_OBJECT
  5
512A
102
{ACAD_REACTORS
330
5114
102
}
330
5114
100
AcDbProxyObject
 90
      499
 91
      505
 93
      249
310
90D332F333222203D2031272D30220000000000002E0FC000000000000284000
  0
ACAD_PROXY_OBJECT
  5
512B
102
{ACAD_REACTORS
330
5114
102
}
330
5114
100
AcDbProxyObject
 90
      499
 91
      505
 93
      241
310
90C312F3822203D2031272D3022000000000000300FC000000000000284000
  0
ACAD_PROXY_OBJECT
  5
512C
102
{ACAD_REACTORS
330
5114
102
}
330
5114
100
AcDbProxyObject
 90
      499
 91
      505
 93
      249
310
90D332F313622203D2031272D3022000000000000320FC000000000000284000
  0
ACAD_PROXY_OBJECT
  5
512D
102
{ACAD_REACTORS
330
5114
102
}
330
5114
100
AcDbProxyObject
 90
      499
 91
      505
 93
      241
310
90C312F3422203D2031272D3022000000000000340FC000000000000284000
  0
ACAD_PROXY_OBJECT
  5
512E
102
{ACAD_REACTORS
330
5114
102
}
330
5114
100
AcDbProxyObject
 90
      499
 91
      505
 93
      241
310
90C332F3822203D2031272D3022000000000000360FC000000000000284000
  0
ACAD_PROXY_OBJECT
  5
512F
102
{ACAD_REACTORS
330
5114
102
}
330
5114
100
AcDbProxyObject
 90
      499
 91
      505
 93
      241
310
90C312F3222203D2031272D3022000000000000380FC000000000000284000
  0
ACAD_PROXY_OBJECT
  5
5130
102
{ACAD_REACTORS
330
5114
102
}
330
5114
100
AcDbProxyObject
 90
      499
 91
      505
 93
      241
310
90C332F3422203D2031272D30220000000000003A0FC000000000000284000
  0
ACAD_PROXY_OBJECT
  5
5131
102
{ACAD_REACTORS
330
5114
102
}
330
5114
100
AcDbProxyObject
 90
      499
 91
      505
 93
      161
310
90A3122203D2031272D30224000000000000284000
  0
ACAD_PROXY_OBJECT
  5
5132
102
{ACAD_REACTORS
330
5114
102
}
330
5114
100
AcDbProxyObject
 90
      499
 91
      505
 93
      257
310
90E312D312F3222203D2031272D30220000000000003E0FC000000000000284000
  0
ACAD_PROXY_OBJECT
  5
5133
102
{ACAD_REACTORS
330
5114
102
}
330
5114
100
AcDbProxyObject
 90
      499
 91
      505
 93
      225
310
90A3322203D2031272D302200000000000002100000000000000284000
  0
ACAD_PROXY_OBJECT
  5
5134
102
{ACAD_REACTORS
330
5114
102
}
330
5114
100
AcDbProxyObject
 90
      499
 91
      505
 93
      225
310
90A3622203D2031272D302200000000000006100000000000000284000
  0
ACAD_PROXY_OBJECT
  5
5135
102
{ACAD_REACTORS
330
5114
102
}
330
5114
100
AcDbProxyObject
 90
      499
 91
      505
 93
      249
310
90D31272D3022203D2031272D30220000000000000A100000000000000284000
  0
ACAD_PROXY_OBJECT
  5
5100
102
{ACAD_REACTORS
330
50FB
102
}
330
50FB
100
AcDbProxyObject
 90
      499
 91
      504
 93
      436
310
42CC9915DA5C99599C985B595049028333333333333E33F0000000000000F90107901411070040501600405405064090741402480A0340
1001
ACAD
1000
AcDbSavedByObjectVersion
1070
     0
  0
ACAD_PROXY_OBJECT
  5
5103
102
{ACAD_REACTORS
330
50FB
102
}
330
50FB
100
AcDbProxyObject
 90
      499
 91
      504
 93
      388
310
4150985CDA58D07406404333333333333E33F0000000000000F90107A41107004050150841D405064090741402480A0350
1001
ACAD
1000
AcDbSavedByObjectVersion
1070
     0
  0
ACAD_PROXY_OBJECT
  5
5107
102
{ACAD_REACTORS
330
50FB
102
}
330
50FB
100
AcDbProxyObject
 90
      499
 91
      504
 93
      428
310
42109C9A59DA1D195B90C409028333333333333E33F0000000000000F9010790141107004050150841D405064090741402480A029950
1001
ACAD
1000
AcDbSavedByObjectVersion
1070
     0
  0
ACAD_PROXY_OBJECT
  5
510B
102
{ACAD_REACTORS
330
50FB
102
}
330
50FB
100
AcDbProxyObject
 90
      499
 91
      504
 93
      452
310
42D0DBDB1BDC90DA185B99D95104090240C333333333333E33F0000000000000F90108901411070040501508421405064090741402480A0350
1001
ACAD
1000
AcDbSavedByObjectVersion
1070
     0
  0
ACAD_PROXY_OBJECT
  5
5105
102
{ACAD_REACTORS
330
50FB
102
}
330
50FB
100
AcDbProxyObject
 90
      499
 91
      504
 93
      500
310
4290DBDB98D95C1D1D585B10940D028333333333333E33F0000000000000F90107902409070040501000000000018199010841D405064090740C02480A0340
1001
ACAD
1000
AcDbSavedByObjectVersion
1070
     0
  0
ACAD_PROXY_OBJECT
  5
5106
102
{ACAD_REACTORS
330
50FB
102
}
330
50FB
100
AcDbProxyObject
 90
      499
 91
      504
 93
      412
310
40D11A5B50B409028333333333333E33F0000000000000F9010790141107004050150841D405064090741402480A02677FFFFFD0
1001
ACAD
1000
AcDbSavedByObjectVersion
1070
     0
  0
ACAD_PROXY_OBJECT
  5
510E
102
{ACAD_REACTORS
330
50FB
102
}
330
50FB
100
AcDbProxyObject
 90
      499
 91
      504
 93
      452
310
43115919D950DBDB1BDC93D999916409028333333333333E33F0000000000000F9010790141107004050150841D405064090741402480A0350
1001
ACAD
1000
AcDbSavedByObjectVersion
1070
     0
  0
ACAD_PROXY_OBJECT
  5
510A
102
{ACAD_REACTORS
330
50FB
102
}
330
50FB
100
AcDbProxyObject
 90
      499
 91
      504
 93
      444
310
42D19858D95C185D1D195C9B90F409028333333333333E33F0000000000000F9010790141107004050150841D405064090741402480A0350
1001
ACAD
1000
AcDbSavedByObjectVersion
1070
     0
  0
ACAD_PROXY_OBJECT
  5
50FC
102
{ACAD_REACTORS
330
50FB
102
}
330
50FB
100
AcDbProxyObject
 90
      499
 91
      504
 93
      380
310
41119B185D240901404333333333333E33F0000000000000F9010740A907004050150841D405064090741402480A1B50
1001
ACAD
1000
AcDbSavedByObjectVersion
1070
     0
  0
ACAD_PROXY_OBJECT
  5
50FD
102
{ACAD_REACTORS
330
50FB
102
}
330
50FB
100
AcDbProxyObject
 90
      499
 91
      504
 93
      468
310
43519B185D15DA5D1A115919D95CD0140901404333333333333E33F0000000000000F90107409019070040501600405405064090741402480A1B50
1001
ACAD
1000
AcDbSavedByObjectVersion
1070
     0
  0
ACAD_PROXY_OBJECT
  5
50FE
102
{ACAD_REACTORS
330
50FB
102
}
330
50FB
100
AcDbProxyObject
 90
      499
 91
      504
 93
      404
310
41D1DBDD5C985D5910240902404333333333333E33F0000000000000F9010740A9070040501641D405064090741402480A1B50
1001
ACAD
1000
AcDbSavedByObjectVersion
1070
     0
  0
ACAD_PROXY_OBJECT
  5
50FF
102
{ACAD_REACTORS
330
50FB
102
}
330
50FB
100
AcDbProxyObject
 90
      499
 91
      504
 93
      492
310
4411DBDD5C985D5915DA5D1A115919D95CD0340902404333333333333E33F0000000000000F90107409019070040501600405405064090741402480A1B50
1001
ACAD
1000
AcDbSavedByObjectVersion
1070
     0
  0
ACAD_PROXY_OBJECT
  5
5102
102
{ACAD_REACTORS
330
50FB
102
}
330
50FB
100
AcDbProxyObject
 90
      499
 91
      504
 93
      476
310
41921A5919195B90640502408333333333333E33F0000000000000F901079024090700405020000000000001110200405405064090740C02480A0340
1001
ACAD
1000
AcDbSavedByObjectVersion
1070
     0
  0
ACAD_PROXY_OBJECT
  5
510C
102
{ACAD_REACTORS
330
50FB
102
}
330
50FB
100
AcDbProxyObject
 90
      499
 91
      504
 93
      428
310
42529A5D1D195C93D999914409028333333333333E33F0000000000000F9010790141107004050150A41D405064090741402480A0350
1001
ACAD
1000
AcDbSavedByObjectVersion
1070
     0
  0
ACAD_PROXY_OBJECT
  5
5109
102
{ACAD_REACTORS
330
50FB
102
}
330
50FB
100
AcDbProxyObject
 90
      499
 91
      504
 93
      444
310
42D31A5B995C185D1D195C9B90E409028333333333333E33F0000000000000F9010790141107004050750841D405064090741402483A0350
1001
ACAD
1000
AcDbSavedByObjectVersion
1070
     0
  0
ACAD_PROXY_OBJECT
  5
52AF
102
{ACAD_REACTORS
330
50FB
102
}
330
50FB
100
AcDbProxyObject
 90
      499
 91
      504
 93
      412
310
90A409038333333333333E33F0000000000000F901074090290700405010000000000201990108421405064090741402480A1B40
1001
ACAD
1000
AcDbSavedByObjectVersion
1070
     0
  0
ACAD_PROXY_OBJECT
  5
510D
102
{ACAD_REACTORS
330
50FB
102
}
330
50FB
100
AcDbProxyObject
 90
      499
 91
      504
 93
      444
310
42D3DD995C9A185B99D3D999915409028333333333333E33F0000000000000F9010790141107004050150941D405064090741402480A0350
1001
ACAD
1000
AcDbSavedByObjectVersion
1070
     0
  0
ACAD_PROXY_OBJECT
  5
5104
102
{ACAD_REACTORS
330
50FB
102
}
330
50FB
100
AcDbProxyObject
 90
      499
 91
      504
 93
      428
310
425499585B1A5CDD1A58D08409038333333333333E33F0000000000000F9010740A907004050150800405405064090740C02480A1B40
1001
ACAD
1000
AcDbSavedByObjectVersion
1070
     0
  0
ACAD_PROXY_OBJECT
  5
5113
102
{ACAD_REACTORS
330
50FB
102
}
330
50FB
100
AcDbProxyObject
 90
      499
 91
      504
 93
      420
310
4194DA1859195911B40902404333333333333E33F0000000000000F9010740A41107004050150800405405064090840C02480A0B40
1001
ACAD
1000
AcDbSavedByObjectVersion
1070
     0
  0
ACAD_PROXY_OBJECT
  5
5112
102
{ACAD_REACTORS
330
50FB
102
}
330
50FB
100
AcDbProxyObject
 90
      499
 91
      504
 93
      516
310
4454DA18591959081DDA5D1A08195919D95CD1A40902404333333333333E33F0000000000000F901074090142907004050250800405405064090740C02480A0B40
1001
ACAD
1000
AcDbSavedByObjectVersion
1070
     0
  0
ACAD_PROXY_OBJECT
  5
510F
102
{ACAD_REACTORS
330
50FB
102
}
330
50FB
100
AcDbProxyObject
 90
      499
 91
      504
 93
      532
310
4394DA1859195CC81BD98811DC985E5174090240C333333333333E33F0000000000000F901079024090741D01000000000000111010841D405064090740C02480A0340
1001
ACAD
1000
AcDbSavedByObjectVersion
1070
     0
  0
ACAD_PROXY_OBJECT
  5
5110
102
{ACAD_REACTORS
330
50FB
102
}
330
50FB
100
AcDbProxyObject
 90
      499
 91
      504
 93
      476
310
41D4DAD95D18DA1E51840502408333333333333E33F0000000000000F901079024090741D01000000000000111010B41D405064090741802480A0340
1001
ACAD
1000
AcDbSavedByObjectVersion
1070
     0
  0
ACAD_PROXY_OBJECT
  5
5108
102
{ACAD_REACTORS
330
50FB
102
}
330
50FB
100
AcDbProxyObject
 90
      499
 91
      504
 93
      412
310
41D51A1A58DAD95B90D409028333333333333E33F0000000000000F9010790141107004050150C41D405064090741402480A0350
1001
ACAD
1000
AcDbSavedByObjectVersion
1070
     0
  0
ACAD_PROXY_OBJECT
  5
5101
102
{ACAD_REACTORS
330
50FB
102
}
330
50FB
100
AcDbProxyObject
 90
      499
 91
      504
 93
      420
310
4255DA5C99599C985B595059028333333333333E33F0000000000000F90107901411070040501600405405064090740C02480A0340
1001
ACAD
1000
AcDbSavedByObjectVersion
1070
     0
  0
ACAD_PROXY_OBJECT
  5
5111
102
{ACAD_REACTORS
330
50FB
102
}
330
50FB
100
AcDbProxyObject
 90
      499
 91
      504
 93
      404
310
41560B54985E51940902404000000000000E03F0000000000000F9010740501907004050150841D405064090740C02480A1B40
1001
ACAD
1000
AcDbSavedByObjectVersion
1070
     0
  0
XRECORD
  5
586C
102
{ACAD_REACTORS
330
5862
102
}
330
5862
100
AcDbXrecord
340
0
  0
XRECORD
  5
586B
102
{ACAD_REACTORS
330
5862
102
}
330
5862
100
AcDbXrecord
 90
        0
  0
XRECORD
  5
5885
102
{ACAD_REACTORS
330
5862
102
}
330
5862
100
AcDbXrecord
340
2948
  0
XRECORD
  5
5882
102
{ACAD_REACTORS
330
5862
102
}
330
5862
100
AcDbXrecord
1000
DSTYLE
1002
{
1070
   171
 70
     2
1070
   143
 40
0.0394
1070
   274
 70
     2
1070
    41
 40
6.0
1070
   342
340
2AF4
1070
   271
 70
     1
1070
   278
 70
    46
1070
   341
340
2AF4
1070
   272
 70
     1
1070
    48
 40
0.1
1070
   283
 70
     1
1070
    47
 40
0.1
1070
   145
 40
1.0
1070
   340
340
10
1070
   140
 40
8.0
1070
   284
 70
     0
1002
}
  0
XRECORD
  5
586D
102
{ACAD_REACTORS
330
5862
102
}
330
5862
100
AcDbXrecord
  1
{23698909-1D67-4744-B0E2-8DE11E3ED422}
  0
XRECORD
  5
5865
102
{ACAD_REACTORS
330
5862
102
}
330
5862
100
AcDbXrecord
  1

  0
XRECORD
  5
586A
102
{ACAD_REACTORS
330
5862
102
}
330
5862
100
AcDbXrecord
 90
        0
  0
XRECORD
  5
5867
102
{ACAD_REACTORS
330
5862
102
}
330
5862
100
AcDbXrecord
340
2816
  0
XRECORD
  5
5869
102
{ACAD_REACTORS
330
5862
102
}
330
5862
100
AcDbXrecord
 90
    10781
  0
XRECORD
  5
5886
102
{ACAD_REACTORS
330
5862
102
}
330
5862
100
AcDbXrecord
340
2947
  0
XRECORD
  5
5868
102
{ACAD_REACTORS
330
5862
102
}
330
5862
100
AcDbXrecord
340
2817
  0
XRECORD
  5
586F
102
{ACAD_REACTORS
330
5862
102
}
330
5862
100
AcDbXrecord
 40
0.25
  0
XRECORD
  5
5872
102
{ACAD_REACTORS
330
5862
102
}
330
5862
100
AcDbXrecord
340
0
  0
XRECORD
  5
5878
102
{ACAD_REACTORS
330
5862
102
}
330
5862
100
AcDbXrecord
 10
0.0
 20
0.0
 30
0.0
  0
XRECORD
  5
5874
102
{ACAD_REACTORS
330
5862
102
}
330
5862
100
AcDbXrecord
 10
0.0
 20
0.0
 30
0.0
  0
XRECORD
  5
5877
102
{ACAD_REACTORS
330
5862
102
}
330
5862
100
AcDbXrecord
 10
0.0
 20
0.0
 30
0.0
  0
XRECORD
  5
5875
102
{ACAD_REACTORS
330
5862
102
}
330
5862
100
AcDbXrecord
 10
0.0
 20
0.0
 30
0.0
  0
XRECORD
  5
5876
102
{ACAD_REACTORS
330
5862
102
}
330
5862
100
AcDbXrecord
 10
0.0
 20
0.0
 30
0.0
  0
XRECORD
  5
5873
102
{ACAD_REACTORS
330
5862
102
}
330
5862
100
AcDbXrecord
 10
0.0
 20
0.0
 30
0.0
  0
XRECORD
  5
5870
102
{ACAD_REACTORS
330
5862
102
}
330
5862
100
AcDbXrecord
340
0
  0
XRECORD
  5
5871
102
{ACAD_REACTORS
330
5862
102
}
330
5862
100
AcDbXrecord
 70
     0
  0
XRECORD
  5
5866
102
{ACAD_REACTORS
330
5862
102
}
330
5862
100
AcDbXrecord
  1

  0
XRECORD
  5
5863
102
{ACAD_REACTORS
330
5862
102
}
330
5862
100
AcDbXrecord
 90
        1
  0
XRECORD
  5
5864
102
{ACAD_REACTORS
330
5862
102
}
330
5862
100
AcDbXrecord
 90
       70
  0
XRECORD
  5
587B
102
{ACAD_REACTORS
330
5862
102
}
330
5862
100
AcDbXrecord
340
0
  0
XRECORD
  5
5881
102
{ACAD_REACTORS
330
5862
102
}
330
5862
100
AcDbXrecord
 10
0.0
 20
0.0
 30
0.0
  0
XRECORD
  5
587D
102
{ACAD_REACTORS
330
5862
102
}
330
5862
100
AcDbXrecord
 10
0.0
 20
0.0
 30
0.0
  0
XRECORD
  5
5880
102
{ACAD_REACTORS
330
5862
102
}
330
5862
100
AcDbXrecord
 10
0.0
 20
0.0
 30
0.0
  0
XRECORD
  5
587E
102
{ACAD_REACTORS
330
5862
102
}
330
5862
100
AcDbXrecord
 10
0.0
 20
0.0
 30
0.0
  0
XRECORD
  5
587F
102
{ACAD_REACTORS
330
5862
102
}
330
5862
100
AcDbXrecord
 10
0.0
 20
0.0
 30
0.0
  0
XRECORD
  5
587C
102
{ACAD_REACTORS
330
5862
102
}
330
5862
100
AcDbXrecord
 10
0.0
 20
0.0
 30
0.0
  0
XRECORD
  5
5879
102
{ACAD_REACTORS
330
5862
102
}
330
5862
100
AcDbXrecord
340
0
  0
XRECORD
  5
587A
102
{ACAD_REACTORS
330
5862
102
}
330
5862
100
AcDbXrecord
 70
     0
  0
XRECORD
  5
586E
102
{ACAD_REACTORS
330
5862
102
}
330
5862
100
AcDbXrecord
  1
{C7799B65-E68F-416E-AC72-96A0B28E4841}
  0
DICTIONARYVAR
  5
51BC
102
{ACAD_REACTORS
330
51BB
102
}
330
51BB
100
DictionaryVariables
280
     0
  1
1:1
  0
DICTIONARYVAR
  5
51BE
102
{ACAD_REACTORS
330
51BB
102
}
330
51BB
100
DictionaryVariables
280
     0
  1
Standard
  0
DICTIONARYVAR
  5
51BD
102
{ACAD_REACTORS
330
51BB
102
}
330
51BB
100
DictionaryVariables
280
     0
  1
Standard
  0
DICTIONARYVAR
  5
5883
102
{ACAD_REACTORS
330
51BB
102
}
330
51BB
100
DictionaryVariables
280
     0
  1
1
  0
DICTIONARYVAR
  5
5884
102
{ACAD_REACTORS
330
51BB
102
}
330
51BB
100
DictionaryVariables
280
     0
  1
0
  0
DICTIONARYVAR
  5
51BF
102
{ACAD_REACTORS
330
51BB
102
}
330
51BB
100
DictionaryVariables
280
     0
  1
0
  0
DICTIONARYVAR
  5
51C0
102
{ACAD_REACTORS
330
51BB
102
}
330
51BB
100
DictionaryVariables
280
     0
  1
0
  0
DICTIONARY
  5
519E
102
{ACAD_REACTORS
330
519D
102
}
330
519D
100
AcDbDictionary
  0
DICTIONARY
  5
51A5
102
{ACAD_REACTORS
330
51A4
102
}
330
51A4
100
AcDbDictionary
  0
DICTIONARY
  5
5337
102
{ACAD_REACTORS
330
5336
102
}
330
5336
100
AcDbDictionary
  0
DICTIONARY
  5
5438
102
{ACAD_REACTORS
330
5437
102
}
330
5437
100
AcDbDictionary
  0
DICTIONARY
  5
543C
102
{ACAD_REACTORS
330
543B
102
}
330
543B
100
AcDbDictionary
  0
DICTIONARY
  5
5440
102
{ACAD_REACTORS
330
543F
102
}
330
543F
100
AcDbDictionary
  0
DICTIONARY
  5
54BA
102
{ACAD_REACTORS
330
54B9
102
}
330
54B9
100
AcDbDictionary
  0
DICTIONARY
  5
54BE
102
{ACAD_REACTORS
330
54BD
102
}
330
54BD
100
AcDbDictionary
  0
DICTIONARY
  5
5506
102
{ACAD_REACTORS
330
5505
102
}
330
5505
100
AcDbDictionary
  0
DICTIONARY
  5
550A
102
{ACAD_REACTORS
330
5509
102
}
330
5509
100
AcDbDictionary
  0
DICTIONARY
  5
550F
102
{ACAD_REACTORS
330
550E
102
}
330
550E
100
AcDbDictionary
  0
DICTIONARY
  5
565D
102
{ACAD_REACTORS
330
565C
102
}
330
565C
100
AcDbDictionary
  0
DICTIONARY
  5
5805
102
{ACAD_REACTORS
330
5804
102
}
330
5804
100
AcDbDictionary
  0
DICTIONARY
  5
588C
330
5137
100
AcDbDictionary
280
     1
  3
ACAD_XREC_ROUNDTRIP
360
588D
  0
DICTIONARY
  5
588A
330
5136
100
AcDbDictionary
280
     1
  3
ACAD_XREC_ROUNDTRIP
360
588B
  0
DICTIONARY
  5
588E
330
5138
100
AcDbDictionary
280
     1
  3
ACAD_XREC_ROUNDTRIP
360
588F
  0
XRECORD
  5
588D
102
{ACAD_REACTORS
330
588C
102
}
330
588C
100
AcDbXrecord
102
MATERIAL
148
0.0
149
0.0
149
0.0
 93
        0
 94
      127
282
     0
 72
     1
 77
     1
171
     1
175
     1
179
     1
273
     0
  0
XRECORD
  5
588B
102
{ACAD_REACTORS
330
588A
102
}
330
588A
100
AcDbXrecord
102
MATERIAL
148
0.0
149
0.0
149
0.0
 93
        0
 94
      127
282
     0
 72
     1
 77
     1
171
     1
175
     1
179
     1
273
     0
  0
XRECORD
  5
588F
102
{ACAD_REACTORS
330
588E
102
}
330
588E
100
AcDbXrecord
102
MATERIAL
148
0.0
149
0.0
149
0.0
 93
        0
 94
      127
282
     0
 72
     1
 77
     1
171
     1
175
     1
179
     1
273
     0
  0
ENDSEC
  0
EOF
