  0
SECTION
  2
HEADER
  9
$ACADVER
  1
AC1014
  9
$ACADMAINTVER
 70
     9
  9
$DWGCODEPAGE
  3
ANSI_932
  9
$INSBASE
 10
0.0
 20
0.0
 30
0.0
  9
$EXTMIN
 10
-60.543508828233
 20
121.122095188083
 30
0.0
  9
$EXTMAX
 10
623.246269360295
 20
541.641690831167
 30
0.0
  9
$LIMMIN
 10
-360.747566795242
 20
4.457354754526
  9
$LIMMAX
 10
-162.153696144267
 20
287.675440264018
  9
$ORTHOMODE
 70
     0
  9
$REGENMODE
 70
     1
  9
$FILLMODE
 70
     1
  9
$QTEXTMODE
 70
     0
  9
$MIRRTEXT
 70
     1
  9
$DRAGMODE
 70
     2
  9
$LTSCALE
 40
1.0
  9
$OSMODE
 70
   935
  9
$ATTMODE
 70
     1
  9
$TEXTSIZE
 40
5.0
  9
$TRACEWID
 40
1.0
  9
$TEXTSTYLE
  7
STANDARD
  9
$CLAYER
  8
寸法線
  9
$CELTYPE
  6
BYLAYER
  9
$CECOLOR
 62
   256
  9
$CELTSCALE
 40
10.0
  9
$DELOBJ
 70
     1
  9
$DISPSILH
 70
     0
  9
$DIMSCALE
 40
1.0
  9
$DIMASZ
 40
6.0
  9
$DIMEXO
 40
0.625
  9
$DIMDLI
 40
3.75
  9
$DIMRND
 40
0.0
  9
$DIMDLE
 40
0.0
  9
$DIMEXE
 40
1.25
  9
$DIMTP
 40
0.1
  9
$DIMTM
 40
0.1
  9
$DIMTXT
 40
8.0
  9
$DIMCEN
 40
2.5
  9
$DIMTSZ
 40
0.0
  9
$DIMTOL
 70
     0
  9
$DIMLIM
 70
     0
  9
$DIMTIH
 70
     0
  9
$DIMTOH
 70
     0
  9
$DIMSE1
 70
     0
  9
$DIMSE2
 70
     0
  9
$DIMTAD
 70
     1
  9
$DIMZIN
 70
     8
  9
$DIMBLK
  1
OPEN30
  9
$DIMASO
 70
     1
  9
$DIMSHO
 70
     1
  9
$DIMPOST
  1

  9
$DIMAPOST
  1

  9
$DIMALT
 70
     0
  9
$DIMALTD
 70
     2
  9
$DIMALTF
 40
0.0394
  9
$DIMLFAC
 40
1.0
  9
$DIMTOFL
 70
     1
  9
$DIMTVP
 40
1.0
  9
$DIMTIX
 70
     0
  9
$DIMSOXD
 70
     0
  9
$DIMSAH
 70
     0
  9
$DIMBLK1
  1

  9
$DIMBLK2
  1

  9
$DIMSTYLE
  2
ISO-25
  9
$DIMCLRD
 70
     0
  9
$DIMCLRE
 70
     0
  9
$DIMCLRT
 70
     0
  9
$DIMTFAC
 40
1.0
  9
$DIMGAP
 40
0.625
  9
$DIMJUST
 70
     0
  9
$DIMSD1
 70
     0
  9
$DIMSD2
 70
     0
  9
$DIMTOLJ
 70
     1
  9
$DIMTZIN
 70
     0
  9
$DIMALTZ
 70
     0
  9
$DIMALTTZ
 70
     0
  9
$DIMFIT
 70
     3
  9
$DIMUPT
 70
     0
  9
$DIMUNIT
 70
     2
  9
$DIMDEC
 70
     1
  9
$DIMTDEC
 70
     1
  9
$DIMALTU
 70
     2
  9
$DIMALTTD
 70
     2
  9
$DIMTXSTY
  7
STANDARD
  9
$DIMAUNIT
 70
     0
  9
$LUNITS
 70
     2
  9
$LUPREC
 70
     4
  9
$SKETCHINC
 40
1.0
  9
$FILLETRAD
 40
1.0
  9
$AUNITS
 70
     0
  9
$AUPREC
 70
     0
  9
$MENU
  1
.
  9
$ELEVATION
 40
0.0
  9
$PELEVATION
 40
0.0
  9
$THICKNESS
 40
0.0
  9
$LIMCHECK
 70
     0
  9
$CHAMFERA
 40
0.5
  9
$CHAMFERB
 40
0.5
  9
$CHAMFERC
 40
20.0
  9
$CHAMFERD
 40
0.0
  9
$SKPOLY
 70
     0
  9
$TDCREATE
 40
2450576.597302431
  9
$TDUPDATE
 40
2457658.777201887
  9
$TDINDWG
 40
1.5895084954
  9
$TDUSRTIMER
 40
1.5895068634
  9
$USRTIMER
 70
     1
  9
$ANGBASE
 50
0.0
  9
$ANGDIR
 70
     0
  9
$PDMODE
 70
     0
  9
$PDSIZE
 40
0.0
  9
$PLINEWID
 40
0.0
  9
$COORDS
 70
     2
  9
$SPLFRAME
 70
     0
  9
$SPLINETYPE
 70
     6
  9
$SPLINESEGS
 70
     8
  9
$ATTDIA
 70
     0
  9
$ATTREQ
 70
     1
  9
$HANDLING
 70
     1
  9
$HANDSEED
  5
5D0C
  9
$SURFTAB1
 70
     6
  9
$SURFTAB2
 70
     6
  9
$SURFTYPE
 70
     6
  9
$SURFU
 70
     6
  9
$SURFV
 70
     6
  9
$UCSNAME
  2

  9
$UCSORG
 10
0.0
 20
0.0
 30
0.0
  9
$UCSXDIR
 10
1.0
 20
0.0
 30
0.0
  9
$UCSYDIR
 10
0.0
 20
1.0
 30
0.0
  9
$PUCSNAME
  2

  9
$PUCSORG
 10
0.0
 20
0.0
 30
0.0
  9
$PUCSXDIR
 10
1.0
 20
0.0
 30
0.0
  9
$PUCSYDIR
 10
0.0
 20
1.0
 30
0.0
  9
$USERI1
 70
     0
  9
$USERI2
 70
     0
  9
$USERI3
 70
     0
  9
$USERI4
 70
     0
  9
$USERI5
 70
     0
  9
$USERR1
 40
0.0
  9
$USERR2
 40
0.0
  9
$USERR3
 40
0.0
  9
$USERR4
 40
0.0
  9
$USERR5
 40
0.0
  9
$WORLDVIEW
 70
     1
  9
$SHADEDGE
 70
     3
  9
$SHADEDIF
 70
    70
  9
$TILEMODE
 70
     0
  9
$MAXACTVP
 70
    16
  9
$PINSBASE
 10
0.0
 20
0.0
 30
0.0
  9
$PLIMCHECK
 70
     0
  9
$PEXTMIN
 10
3.099713723288
 20
2.43561776385
 30
0.0
  9
$PEXTMAX
 10
403.099713723288
 20
282.43561776385
 30
0.0
  9
$PLIMMIN
 10
-7.007122192383
 20
-7.007118782997
  9
$PLIMMAX
 10
417.718108215332
 20
293.315290427208
  9
$UNITMODE
 70
     0
  9
$VISRETAIN
 70
     0
  9
$PLINEGEN
 70
     0
  9
$PSLTSCALE
 70
     1
  9
$TREEDEPTH
 70
  3020
  9
$PICKSTYLE
 70
     1
  9
$CMLSTYLE
  2
STANDARD
  9
$CMLJUST
 70
     0
  9
$CMLSCALE
 40
1.0
  9
$PROXYGRAPHICS
 70
     1
  9
$MEASUREMENT
 70
     1
  0
ENDSEC
  0
SECTION
  2
CLASSES
  0
CLASS
  1
ACDBDICTIONARYWDFLT
  2
AcDbDictionaryWithDefault
  3
ObjectDBX Classes
 90
        0
280
     0
281
     0
  0
CLASS
  1
ACDBPLACEHOLDER
  2
AcDbPlaceHolder
  3
ObjectDBX Classes
 90
        0
280
     0
281
     0
  0
CLASS
  1
LAYOUT
  2
AcDbLayout
  3
ObjectDBX Classes
 90
        0
280
     0
281
     0
  0
CLASS
  1
SORTENTSTABLE
  2
AcDbSortentsTable
  3
ObjectDBX Classes
 90
        0
280
     0
281
     0
  0
CLASS
  1
DICTIONARYVAR
  2
AcDbDictionaryVar
  3
ObjectDBX Classes
 90
        0
280
     0
281
     0
  0
CLASS
  1
VISUALSTYLE
  2
AcDbVisualStyle
  3
ObjectDBX Classes
 90
     4095
280
     0
281
     0
  0
CLASS
  1
SCALE
  2
AcDbScale
  3
ObjectDBX Classes
 90
     1153
280
     0
281
     0
  0
CLASS
  1
MATERIAL
  2
AcDbMaterial
  3
ObjectDBX Classes
 90
     1153
280
     0
281
     0
  0
CLASS
  1
TABLESTYLE
  2
AcDbTableStyle
  3
ObjectDBX Classes
 90
     4095
280
     0
281
     0
  0
CLASS
  1
MLEADERSTYLE
  2
AcDbMLeaderStyle
  3
ACDB_MLEADERSTYLE_CLASS
 90
     4095
280
     0
281
     0
  0
CLASS
  1
SUN
  2
AcDbSun
  3
SCENEOE
 90
     1153
280
     0
281
     0
  0
CLASS
  1
CELLSTYLEMAP
  2
AcDbCellStyleMap
  3
ObjectDBX Classes
 90
     1152
280
     0
281
     0
  0
CLASS
  1
XRECORD
  2
AcDbXrecord
  3
ObjectDBX Classes
 90
        0
280
     0
281
     0
  0
CLASS
  1
LWPOLYLINE
  2
AcDbPolyline
  3
ObjectDBX Classes
 90
        0
280
     0
281
     1
  0
CLASS
  1
HATCH
  2
AcDbHatch
  3
ObjectDBX Classes
 90
        0
280
     0
281
     1
  0
ENDSEC
  0
SECTION
  2
TABLES
  0
TABLE
  2
VPORT
  5
8
102
{ACAD_XDICTIONARY
360
5D04
102
}
330
0
100
AcDbSymbolTable
 70
     3
  0
VPORT
  5
4C88
330
8
100
AcDbSymbolTableRecord
100
AcDbViewportTableRecord
  2
*ACTIVE
 70
     0
 10
0.0
 20
0.0
 11
1.0
 21
1.0
 12
281.351380266031
 22
331.381893009625
 13
0.0
 23
0.0
 14
1.0
 24
1.0
 15
0.0
 25
0.0
 16
0.0
 26
0.0
 36
1.0
 17
0.0
 27
0.0
 37
0.0
 40
428.929987555945
 41
1.759407069555
 42
50.0
 43
0.0
 44
0.0
 50
0.0
 51
0.0
 71
    16
 72
   100
 73
     1
 74
     0
 75
     0
 76
     0
 77
     0
 78
     0
  0
ENDTAB
  0
TABLE
  2
LTYPE
  5
5
330
0
100
AcDbSymbolTable
 70
     6
  0
LTYPE
  5
14
330
5
100
AcDbSymbolTableRecord
100
AcDbLinetypeTableRecord
  2
BYBLOCK
 70
     0
  3

 72
    65
 73
     0
 40
0.0
  0
LTYPE
  5
15
330
5
100
AcDbSymbolTableRecord
100
AcDbLinetypeTableRecord
  2
BYLAYER
 70
     0
  3

 72
    65
 73
     0
 40
0.0
  0
LTYPE
  5
16
330
5
100
AcDbSymbolTableRecord
100
AcDbLinetypeTableRecord
  2
CONTINUOUS
 70
     0
  3
Solid line
 72
    65
 73
     0
 40
0.0
  0
LTYPE
  5
1EC
330
5
100
AcDbSymbolTableRecord
100
AcDbLinetypeTableRecord
  2
CENTER
 70
     0
  3
____ _ ____ _ ____ _ ____ _ ____ _ ____ _ ____ 
 72
    65
 73
     4
 40
2.0
 49
1.25
 74
     0
 49
-0.25
 74
     0
 49
0.25
 74
     0
 49
-0.25
 74
     0
  0
LTYPE
  5
1ED
330
5
100
AcDbSymbolTableRecord
100
AcDbLinetypeTableRecord
  2
DASHED
 70
     0
  3
__ __ __ __ __ __ __ __ __ __ __ __ __ __ __ __
 72
    65
 73
     2
 40
0.75
 49
0.5
 74
     0
 49
-0.25
 74
     0
  0
LTYPE
  5
2B1F
330
5
100
AcDbSymbolTableRecord
100
AcDbLinetypeTableRecord
  2
DASHDOT
 70
     0
  3
一点鎖線
 72
    65
 73
     4
 40
25.6
 49
20.0
 74
     0
 49
-2.0
 74
     0
 49
1.6
 74
     0
 49
-2.0
 74
     0
  0
LTYPE
  5
31A1
330
5
100
AcDbSymbolTableRecord
100
AcDbLinetypeTableRecord
  2
CENTER2
 70
     0
  3
Center (.5x) ___ _ ___ _ ___ _ ___ _ ___ _ ___
 72
    65
 73
     4
 40
28.575
 49
19.05
 74
     0
 49
-3.175
 74
     0
 49
3.175
 74
     0
 49
-3.175
 74
     0
  0
LTYPE
  5
4002
330
5
100
AcDbSymbolTableRecord
100
AcDbLinetypeTableRecord
  2
DASHED2
 70
     0
  3
Dashed (.5x) _ _ _ _ _ _ _ _ _ _ _ _ _ _ _ _ _
 72
    65
 73
     2
 40
9.525
 49
6.35
 74
     0
 49
-3.175
 74
     0
  0
ENDTAB
  0
TABLE
  2
LAYER
  5
2
102
{ACAD_XDICTIONARY
360
29EA
102
}
330
0
100
AcDbSymbolTable
 70
    12
  0
LAYER
  5
F
330
2
100
AcDbSymbolTableRecord
100
AcDbLayerTableRecord
  2
0
 70
     0
 62
     7
  6
CONTINUOUS
  0
LAYER
  5
61
330
2
100
AcDbSymbolTableRecord
100
AcDbLayerTableRecord
  2
図枠太線
 70
     0
 62
   251
  6
CONTINUOUS
  0
LAYER
  5
62
330
2
100
AcDbSymbolTableRecord
100
AcDbLayerTableRecord
  2
図枠細線
 70
     0
 62
   252
  6
CONTINUOUS
  0
LAYER
  5
63
330
2
100
AcDbSymbolTableRecord
100
AcDbLayerTableRecord
  2
図枠ロゴマーク
 70
     0
 62
   253
  6
CONTINUOUS
  0
LAYER
  5
1EF
330
2
100
AcDbSymbolTableRecord
100
AcDbLayerTableRecord
  2
外形線
 70
     0
 62
     7
  6
CONTINUOUS
  0
LAYER
  5
1F0
330
2
100
AcDbSymbolTableRecord
100
AcDbLayerTableRecord
  2
寸法線
 70
     0
 62
     1
  6
CONTINUOUS
  0
LAYER
  5
1F1
330
2
100
AcDbSymbolTableRecord
100
AcDbLayerTableRecord
  2
中心線
 70
     0
 62
     4
  6
CENTER
  0
LAYER
  5
1F4
330
2
100
AcDbSymbolTableRecord
100
AcDbLayerTableRecord
  2
DEFPOINTS
 70
     0
 62
     7
  6
CONTINUOUS
  0
LAYER
  5
2AA2
330
2
100
AcDbSymbolTableRecord
100
AcDbLayerTableRecord
  2
下書線
 70
     0
 62
     2
  6
CONTINUOUS
  0
LAYER
  5
2AA3
330
2
100
AcDbSymbolTableRecord
100
AcDbLayerTableRecord
  2
隠れ線
 70
     0
 62
     3
  6
DASHED
  0
LAYER
  5
2AA4
330
2
100
AcDbSymbolTableRecord
100
AcDbLayerTableRecord
  2
細線
 70
     0
 62
     6
  6
CONTINUOUS
  0
LAYER
  5
2AA5
330
2
100
AcDbSymbolTableRecord
100
AcDbLayerTableRecord
  2
太線
 70
     0
 62
   190
  6
CONTINUOUS
  0
ENDTAB
  0
TABLE
  2
STYLE
  5
3
330
0
100
AcDbSymbolTable
 70
     2
  0
STYLE
  5
10
330
3
100
AcDbSymbolTableRecord
100
AcDbTextStyleTableRecord
  2
STANDARD
 70
     0
 40
0.0
 41
1.0
 50
0.0
 71
     0
 42
5.0
  3
ISOCP
  4
bigfont.shx
  0
STYLE
  5
64
330
3
100
AcDbSymbolTableRecord
100
AcDbTextStyleTableRecord
  2
EXCADSTD
 70
     0
 40
0.0
 41
1.0
 50
0.0
 71
     0
 42
0.2
  3
monotxt
  4
bigfont
  0
ENDTAB
  0
TABLE
  2
VIEW
  5
6
330
0
100
AcDbSymbolTable
 70
     0
  0
ENDTAB
  0
TABLE
  2
UCS
  5
7
330
0
100
AcDbSymbolTable
 70
     0
  0
ENDTAB
  0
TABLE
  2
APPID
  5
9
330
0
100
AcDbSymbolTable
 70
     6
  0
APPID
  5
11
330
9
100
AcDbSymbolTableRecord
100
AcDbRegAppTableRecord
  2
ACAD
 70
     0
  0
APPID
  5
3507
330
9
100
AcDbSymbolTableRecord
100
AcDbRegAppTableRecord
  2
ACAD_DIMASSOC_CALC_DIMLFAC
 70
     0
  0
APPID
  5
3508
330
9
100
AcDbSymbolTableRecord
100
AcDbRegAppTableRecord
  2
ACAD_DIMASSOC_DIMLFAC
 70
     0
  0
APPID
  5
3509
330
9
100
AcDbSymbolTableRecord
100
AcDbRegAppTableRecord
  2
ACAD_DIMASSOC_OVERRIDDEN_D
 70
     0
  0
APPID
  5
4CD2
330
9
100
AcDbSymbolTableRecord
100
AcDbRegAppTableRecord
  2
ACADANNOTATIVE
 70
     0
  0
APPID
  5
4EC0
330
9
100
AcDbSymbolTableRecord
100
AcDbRegAppTableRecord
  2
ACAD_MLEADERVER
 70
     0
  0
ENDTAB
  0
TABLE
  2
DIMSTYLE
  5
A
330
0
100
AcDbSymbolTable
 70
     2
  0
DIMSTYLE
105
1D
330
A
100
AcDbSymbolTableRecord
100
AcDbDimStyleTableRecord
  2
STANDARD
 70
     0
  3

  4

  5

  6

  7

 40
1.0
 41
0.18
 42
0.0625
 43
0.38
 44
0.18
 45
0.0
 46
0.0
 47
0.0
 48
0.0
140
0.18
141
0.09
142
0.0
143
25.4
144
1.0
145
0.0
146
1.0
147
0.09
 71
     0
 72
     0
 73
     1
 74
     1
 75
     0
 76
     0
 77
     0
 78
     0
170
     0
171
     2
172
     0
173
     0
174
     0
175
     0
176
     0
177
     0
178
     0
270
     2
271
     4
272
     4
273
     2
274
     2
340
10
275
     0
280
     0
281
     0
282
     0
283
     1
284
     0
285
     0
286
     0
287
     3
288
     0
  0
DIMSTYLE
105
24
102
{ACAD_REACTORS
330
436B
330
4378
330
44EC
330
44F9
330
45ED
330
4979
330
497B
330
497C
330
497D
330
497E
330
497F
330
5B1C
102
}
330
A
100
AcDbSymbolTableRecord
100
AcDbDimStyleTableRecord
  2
ISO-25
 70
     0
  3

  4

  5

  6

  7

 40
1.0
 41
2.5
 42
0.625
 43
3.75
 44
1.25
 45
0.0
 46
0.0
 47
0.0
 48
0.0
140
2.5
141
2.5
142
0.0
143
0.0394
144
1.0
145
1.0
146
1.0
147
0.625
 71
     0
 72
     0
 73
     1
 74
     0
 75
     0
 76
     0
 77
     1
 78
     8
170
     0
171
     2
172
     1
173
     0
174
     0
175
     0
176
     0
177
     0
178
     0
270
     2
271
     4
272
     4
273
     2
274
     2
340
10
275
     0
280
     0
281
     0
282
     0
283
     1
284
     0
285
     0
286
     0
287
     3
288
     0
  0
ENDTAB
  0
TABLE
  2
BLOCK_RECORD
  5
1
330
0
100
AcDbSymbolTable
 70
    21
  0
BLOCK_RECORD
  5
1A
102
{ACAD_XDICTIONARY
360
4506
102
}
330
1
100
AcDbSymbolTableRecord
100
AcDbBlockTableRecord
  2
*MODEL_SPACE
  0
BLOCK_RECORD
  5
28FB
330
1
100
AcDbSymbolTableRecord
100
AcDbBlockTableRecord
  2
*PAPER_SPACE
  0
BLOCK_RECORD
  5
65
330
1
100
AcDbSymbolTableRecord
100
AcDbBlockTableRecord
  2
A$C3392
  0
BLOCK_RECORD
  5
29BF
330
1
100
AcDbSymbolTableRecord
100
AcDbBlockTableRecord
  2
A4横用_タイトル
1001
ACAD
1000
DesignCenter Data
1002
{
1070
     1
1070
     4
1002
}
  0
BLOCK_RECORD
  5
29F4
330
1
100
AcDbSymbolTableRecord
100
AcDbBlockTableRecord
  2
A4縦用_タイトル
1001
ACAD
1000
DesignCenter Data
1002
{
1070
     1
1070
     4
1002
}
  0
BLOCK_RECORD
  5
2A32
330
1
100
AcDbSymbolTableRecord
100
AcDbBlockTableRecord
  2
A3横用_タイトル
1001
ACAD
1000
DesignCenter Data
1002
{
1070
     1
1070
     4
1002
}
  0
BLOCK_RECORD
  5
2A6C
330
1
100
AcDbSymbolTableRecord
100
AcDbBlockTableRecord
  2
A3縦用_タイトル
1001
ACAD
1000
DesignCenter Data
1002
{
1070
     1
1070
     4
1002
}
  0
BLOCK_RECORD
  5
2AF4
330
1
100
AcDbSymbolTableRecord
100
AcDbBlockTableRecord
  2
_OPEN30
  0
BLOCK_RECORD
  5
436C
330
1
100
AcDbSymbolTableRecord
100
AcDbBlockTableRecord
  2
*D6
  0
BLOCK_RECORD
  5
4379
330
1
100
AcDbSymbolTableRecord
100
AcDbBlockTableRecord
  2
*D7
  0
BLOCK_RECORD
  5
44ED
330
1
100
AcDbSymbolTableRecord
100
AcDbBlockTableRecord
  2
*D8
  0
BLOCK_RECORD
  5
44FA
330
1
100
AcDbSymbolTableRecord
100
AcDbBlockTableRecord
  2
*D9
  0
BLOCK_RECORD
  5
45EE
330
1
100
AcDbSymbolTableRecord
100
AcDbBlockTableRecord
  2
*D10
  0
BLOCK_RECORD
  5
4995
330
1
100
AcDbSymbolTableRecord
100
AcDbBlockTableRecord
  2
*D12
  0
BLOCK_RECORD
  5
49A0
330
1
100
AcDbSymbolTableRecord
100
AcDbBlockTableRecord
  2
*D13
  0
BLOCK_RECORD
  5
49AB
330
1
100
AcDbSymbolTableRecord
100
AcDbBlockTableRecord
  2
*D14
  0
BLOCK_RECORD
  5
49B6
330
1
100
AcDbSymbolTableRecord
100
AcDbBlockTableRecord
  2
*D15
  0
BLOCK_RECORD
  5
49C1
330
1
100
AcDbSymbolTableRecord
100
AcDbBlockTableRecord
  2
*D16
  0
BLOCK_RECORD
  5
49CC
330
1
100
AcDbSymbolTableRecord
100
AcDbBlockTableRecord
  2
*D17
  0
BLOCK_RECORD
  5
5B2B
330
1
100
AcDbSymbolTableRecord
100
AcDbBlockTableRecord
  2
*D20
  0
ENDTAB
  0
ENDSEC
  0
SECTION
  2
BLOCKS
  0
BLOCK
  5
1B
330
1A
100
AcDbEntity
  8
0
100
AcDbBlockBegin
  2
*MODEL_SPACE
 70
     0
 10
0.0
 20
0.0
 30
0.0
  3
*MODEL_SPACE
  1

  0
ENDBLK
  5
1C
330
1A
100
AcDbEntity
  8
0
100
AcDbBlockEnd
  0
BLOCK
  5
28FD
330
28FB
100
AcDbEntity
 67
     1
  8
0
 48
10.0
100
AcDbBlockBegin
  2
*PAPER_SPACE
 70
     0
 10
0.0
 20
0.0
 30
0.0
  3
*PAPER_SPACE
  1

  0
ENDBLK
  5
28FE
330
28FB
100
AcDbEntity
 67
     1
  8
0
 48
10.0
100
AcDbBlockEnd
  0
BLOCK
  5
93
330
65
100
AcDbEntity
  8
0
 48
10.0
100
AcDbBlockBegin
  2
A$C3392
 70
     0
 10
0.0
 20
0.0
 30
0.0
  3
A$C3392
  1

  0
LINE
  5
66
330
65
100
AcDbEntity
  8
図枠太線
  6
CONTINUOUS
100
AcDbLine
 10
211.858584505185
 20
30.927375675439
 30
0.0
 11
211.858584505185
 21
0.927375675439
 31
0.0
  0
LINE
  5
67
330
65
100
AcDbEntity
  8
図枠細線
  6
CONTINUOUS
100
AcDbLine
 10
231.858592505185
 20
15.927377675439
 30
0.0
 11
287.858592505185
 21
15.927375675439
 31
0.0
  0
LINE
  5
68
330
65
100
AcDbEntity
  8
図枠細線
  6
CONTINUOUS
100
AcDbLine
 10
211.858592505185
 20
15.927377675439
 30
0.0
 11
231.858592505185
 21
15.927377675439
 31
0.0
  0
LINE
  5
69
330
65
100
AcDbEntity
  8
図枠太線
  6
CONTINUOUS
 62
   251
100
AcDbLine
 10
1.858584505185
 20
0.927375675439
 30
0.0
 11
1.858584505185
 21
275.927375675439
 31
0.0
  0
TEXT
  5
6A
330
65
100
AcDbEntity
  8
図枠細線
  6
CONTINUOUS
 62
   252
100
AcDbText
 10
351.358592505185
 20
28.427377675439
 30
0.0
 40
2.0
  1
ＴＩＴＬＥ
 41
0.903614457831
  7
EXCADSTD
 72
     5
 11
361.358592505185
 21
28.427377675439
 31
0.0
100
AcDbText
  0
TEXT
  5
6B
330
65
100
AcDbEntity
  8
図枠細線
  6
CONTINUOUS
 62
   252
100
AcDbText
 10
345.358592505185
 20
28.427377675439
 30
0.0
 40
2.0
  1
名称
 41
1.171875
  7
EXCADSTD
 72
     5
 11
350.358592505185
 21
28.427377675439
 31
0.0
100
AcDbText
  0
TEXT
  5
6C
330
65
100
AcDbEntity
  8
図枠細線
  6
CONTINUOUS
 62
   252
100
AcDbText
 10
274.358592505185
 20
25.927377675439
 30
0.0
 40
2.0
  1
ＤＲＡＷＮ
 41
0.882352941176
  7
EXCADSTD
 72
     5
 11
284.358592505185
 21
25.927377675439
 31
0.0
100
AcDbText
  0
TEXT
  5
6D
330
65
100
AcDbEntity
  8
図枠細線
  6
CONTINUOUS
 62
   252
100
AcDbText
 10
260.358592505185
 20
25.927377675439
 30
0.0
 40
2.0
  1
ＤＥＳＩＧＮＥＤ
 41
0.713043472041
  7
EXCADSTD
 72
     5
 11
273.478592390744
 21
25.927377675439
 31
0.0
100
AcDbText
  0
TEXT
  5
6E
330
65
100
AcDbEntity
  8
図枠細線
  6
CONTINUOUS
 62
   252
100
AcDbText
 10
246.358592505185
 20
25.927377675439
 30
0.0
 40
2.0
  1
ＣＨＥＣＫＥＤ
 41
0.831249989569
  7
EXCADSTD
 72
     5
 11
259.658592338292
 21
25.927377675439
 31
0.0
100
AcDbText
  0
TEXT
  5
6F
330
65
100
AcDbEntity
  8
図枠細線
  6
CONTINUOUS
 62
   252
100
AcDbText
 10
274.358592505185
 20
28.427377675439
 30
0.0
 40
2.0
  1
製図
 41
1.209677419355
  7
EXCADSTD
 72
     5
 11
279.358592505185
 21
28.427377675439
 31
0.0
100
AcDbText
  0
TEXT
  5
70
330
65
100
AcDbEntity
  8
図枠細線
  6
CONTINUOUS
 62
   252
100
AcDbText
 10
260.358592505185
 20
28.427377675439
 30
0.0
 40
2.0
  1
設計
 41
1.171875
  7
EXCADSTD
 72
     5
 11
265.358592505185
 21
28.427377675439
 31
0.0
100
AcDbText
  0
TEXT
  5
71
330
65
100
AcDbEntity
  8
図枠細線
  6
CONTINUOUS
 62
   252
100
AcDbText
 10
246.358592505185
 20
28.427377675439
 30
0.0
 40
2.0
  1
検図
 41
1.209677419355
  7
EXCADSTD
 72
     5
 11
251.358592505185
 21
28.427377675439
 31
0.0
100
AcDbText
  0
TEXT
  5
72
330
65
100
AcDbEntity
  8
図枠細線
  6
CONTINUOUS
 62
   252
100
AcDbText
 10
232.358592505185
 20
25.927377675439
 30
0.0
 40
2.0
  1
ＡＰＰＲＯＶＥＤ
 41
0.695652184279
  7
EXCADSTD
 72
     5
 11
245.15859269592
 21
25.927377675439
 31
0.0
100
AcDbText
  0
TEXT
  5
73
330
65
100
AcDbEntity
  8
図枠細線
  6
CONTINUOUS
 62
   252
100
AcDbText
 10
232.358592505185
 20
28.427377675439
 30
0.0
 40
2.0
  1
承認
 41
1.171875
  7
EXCADSTD
 72
     5
 11
237.358592505185
 21
28.427377675439
 31
0.0
100
AcDbText
  0
TEXT
  5
74
330
65
100
AcDbEntity
  8
図枠細線
  6
CONTINUOUS
 62
   252
100
AcDbText
 10
290.069888505185
 20
2.574868675439
 30
0.0
 40
3.5
  1
ＴＯＷＡ　ＳＥＩＤＥＮ　ＩＮＤＵＳＴＲＩＡＬ　ＣＯ．，ＬＴＤ．
 41
0.414568012377
  7
EXCADSTD
 72
     5
 11
342.692388209546
 21
2.574868675439
 31
0.0
100
AcDbText
  0
TEXT
  5
75
330
65
100
AcDbEntity
  8
図枠ロゴマーク
  6
CONTINUOUS
 62
   253
100
AcDbText
 10
290.107348505185
 20
7.519769675439
 30
0.0
 40
7.0
  1
東和制電工業株式会社
 41
0.639204545455
  7
EXCADSTD
 72
     5
 11
342.607348505185
 21
7.519769675439
 31
0.0
100
AcDbText
  0
TEXT
  5
76
330
65
100
AcDbEntity
  8
図枠細線
  6
CONTINUOUS
 62
   252
100
AcDbText
 10
232.499705505185
 20
5.759088675439
 30
0.0
 40
2.0
  1
ＰＲＯＪＥＣＴＩＯＮ
 41
0.754285710199
  7
EXCADSTD
 72
     5
 11
250.099705409817
 21
5.759088675439
 31
0.0
100
AcDbText
  0
TEXT
  5
77
330
65
100
AcDbEntity
  8
図枠細線
  6
CONTINUOUS
 62
   252
100
AcDbText
 10
232.574629505185
 20
8.681077675439
 30
0.0
 40
2.0
  1
ＴＨＩＲＤ　ＡＮＧＬＥ
 41
0.691099486738
  7
EXCADSTD
 72
     5
 11
250.174629767445
 21
8.681077675439
 31
0.0
100
AcDbText
  0
TEXT
  5
78
330
65
100
AcDbEntity
  8
図枠細線
  6
CONTINUOUS
 62
   252
100
AcDbText
 10
256.823999505185
 20
13.427377675439
 30
0.0
 40
2.0
  1
ＳＣＡＬＥ
 41
0.903614457831
  7
EXCADSTD
 72
     5
 11
266.823999505185
 21
13.427377675439
 31
0.0
100
AcDbText
  0
TEXT
  5
79
330
65
100
AcDbEntity
  8
図枠細線
  6
CONTINUOUS
 62
   252
100
AcDbText
 10
274.858592505185
 20
13.427377675439
 30
0.0
 40
2.0
  1
ＤＡＴＥ
 41
0.923076923077
  7
EXCADSTD
 72
     5
 11
282.858592505185
 21
13.427377675439
 31
0.0
100
AcDbText
  0
TEXT
  5
7A
330
65
100
AcDbEntity
  8
図枠細線
  6
CONTINUOUS
 62
   252
100
AcDbText
 10
356.358592505185
 20
13.427377675439
 30
0.0
 40
2.0
  1
ＤＲＧ．ＮＯ．
 41
0.9375
  7
EXCADSTD
 72
     5
 11
370.358592505185
 21
13.427377675439
 31
0.0
100
AcDbText
  0
TEXT
  5
7B
330
65
100
AcDbEntity
  8
図枠細線
  6
CONTINUOUS
 62
   252
100
AcDbText
 10
345.358592505185
 20
13.427377675439
 30
0.0
 40
2.0
  1
図面番号
 41
1.102941176471
  7
EXCADSTD
 72
     5
 11
355.358592505185
 21
13.427377675439
 31
0.0
100
AcDbText
  0
TEXT
  5
7C
330
65
100
AcDbEntity
  8
図枠細線
  6
CONTINUOUS
 62
   252
100
AcDbText
 10
269.358592505185
 20
13.427377675439
 30
0.0
 40
2.0
  1
日付
 41
1.171875
  7
EXCADSTD
 72
     5
 11
274.358592505185
 21
13.427377675439
 31
0.0
100
AcDbText
  0
TEXT
  5
7D
330
65
100
AcDbEntity
  8
図枠細線
  6
CONTINUOUS
 62
   252
100
AcDbText
 10
251.451512505185
 20
13.427377675439
 30
0.0
 40
2.0
  1
尺度
 41
1.171875
  7
EXCADSTD
 72
     5
 11
256.451512505185
 21
13.427377675439
 31
0.0
100
AcDbText
  0
TEXT
  5
7E
330
65
100
AcDbEntity
  8
図枠細線
  6
CONTINUOUS
 62
   252
100
AcDbText
 10
232.358592505185
 20
13.427377675439
 30
0.0
 40
2.0
  1
第三角法
 41
1.102941176471
  7
EXCADSTD
 72
     5
 11
242.358592505185
 21
13.427377675439
 31
0.0
100
AcDbText
  0
TEXT
  5
7F
330
65
100
AcDbEntity
  8
図枠細線
  6
CONTINUOUS
 62
   252
100
AcDbText
 10
212.358592505185
 20
28.427377675439
 30
0.0
 40
2.0
  1
ＮＯＴＥ
 41
0.923076923077
  7
EXCADSTD
 72
     5
 11
220.358592505185
 21
28.427377675439
 31
0.0
100
AcDbText
  0
LINE
  5
80
330
65
100
AcDbEntity
  8
図枠細線
  6
CONTINUOUS
 62
   252
100
AcDbLine
 10
287.858592505185
 20
23.427375675439
 30
0.0
 11
344.858592505185
 21
23.427375675439
 31
0.0
  0
LINE
  5
81
330
65
100
AcDbEntity
  8
図枠太線
  6
CONTINUOUS
 62
   251
100
AcDbLine
 10
287.858584505185
 20
15.927375675439
 30
0.0
 11
344.858592505185
 21
15.927375675439
 31
0.0
  0
LINE
  5
82
330
65
100
AcDbEntity
  8
図枠細線
  6
CONTINUOUS
 62
   252
100
AcDbLine
 10
344.858592505185
 20
15.927375675439
 30
0.0
 11
401.858584505185
 21
15.927375675439
 31
0.0
  0
LINE
  5
83
330
65
100
AcDbEntity
  8
図枠太線
  6
CONTINUOUS
 62
   251
100
AcDbLine
 10
344.858592505185
 20
0.927377675439
 30
0.0
 11
344.858592505185
 21
30.927375675439
 31
0.0
  0
LINE
  5
84
330
65
100
AcDbEntity
  8
図枠太線
  6
CONTINUOUS
 62
   251
100
AcDbLine
 10
287.858592505185
 20
0.927377675439
 30
0.0
 11
287.858592505185
 21
30.927375675439
 31
0.0
  0
LINE
  5
85
330
65
100
AcDbEntity
  8
図枠細線
  6
CONTINUOUS
 62
   252
100
AcDbLine
 10
268.858592505185
 20
0.927377675439
 30
0.0
 11
268.858592505185
 21
15.927375675439
 31
0.0
  0
LINE
  5
86
330
65
100
AcDbEntity
  8
図枠細線
  6
CONTINUOUS
 62
   252
100
AcDbLine
 10
250.858592505185
 20
0.927377675439
 30
0.0
 11
250.858592505185
 21
15.927375675439
 31
0.0
  0
LINE
  5
87
330
65
100
AcDbEntity
  8
図枠細線
  6
CONTINUOUS
 62
   252
100
AcDbLine
 10
273.858592505185
 20
30.927375675439
 30
0.0
 11
273.858592505185
 21
15.927375675439
 31
0.0
  0
LINE
  5
88
330
65
100
AcDbEntity
  8
図枠細線
  6
CONTINUOUS
 62
   252
100
AcDbLine
 10
259.858592505185
 20
30.927375675439
 30
0.0
 11
259.858592505185
 21
15.927375675439
 31
0.0
  0
LINE
  5
89
330
65
100
AcDbEntity
  8
図枠細線
  6
CONTINUOUS
 62
   252
100
AcDbLine
 10
245.858592505185
 20
30.927375675439
 30
0.0
 11
245.858592505185
 21
15.927375675439
 31
0.0
  0
LINE
  5
8A
330
65
100
AcDbEntity
  8
図枠太線
  6
CONTINUOUS
 62
   251
100
AcDbLine
 10
231.858592505185
 20
0.927377675439
 30
0.0
 11
231.858592505185
 21
30.927375675439
 31
0.0
  0
LINE
  5
8B
330
65
100
AcDbEntity
  8
図枠細線
  6
CONTINUOUS
 62
   252
100
AcDbLine
 10
211.858592505185
 20
25.927375675439
 30
0.0
 11
231.858592505185
 21
25.927375675439
 31
0.0
  0
LINE
  5
8C
330
65
100
AcDbEntity
  8
図枠細線
  6
CONTINUOUS
 62
   252
100
AcDbLine
 10
211.858592505185
 20
20.927375675439
 30
0.0
 11
231.858592505185
 21
20.927375675439
 31
0.0
  0
LINE
  5
8D
330
65
100
AcDbEntity
  8
図枠細線
  6
CONTINUOUS
 62
   252
100
AcDbLine
 10
211.858592505185
 20
10.927375675439
 30
0.0
 11
231.858592505185
 21
10.927375675439
 31
0.0
  0
LINE
  5
8E
330
65
100
AcDbEntity
  8
図枠細線
  6
CONTINUOUS
 62
   252
100
AcDbLine
 10
211.858592505185
 20
5.927377675439
 30
0.0
 11
231.858592505185
 21
5.927377675439
 31
0.0
  0
LINE
  5
8F
330
65
100
AcDbEntity
  8
図枠太線
  6
CONTINUOUS
 62
   251
100
AcDbLine
 10
211.858592505185
 20
30.927375675439
 30
0.0
 11
401.858584505185
 21
30.927375675439
 31
0.0
  0
LINE
  5
90
330
65
100
AcDbEntity
  8
図枠太線
  6
CONTINUOUS
 62
   251
100
AcDbLine
 10
1.858584505185
 20
275.927375675439
 30
0.0
 11
401.858584505185
 21
275.927375675439
 31
0.0
  0
LINE
  5
91
330
65
100
AcDbEntity
  8
図枠太線
  6
CONTINUOUS
 62
   251
100
AcDbLine
 10
401.858584505185
 20
0.927375675439
 30
0.0
 11
401.858584505185
 21
275.927375675439
 31
0.0
  0
LINE
  5
92
330
65
100
AcDbEntity
  8
図枠太線
  6
CONTINUOUS
 62
   251
100
AcDbLine
 10
1.858584505185
 20
0.927375675439
 30
0.0
 11
401.858584505185
 21
0.927375675439
 31
0.0
  0
ENDBLK
  5
94
330
65
100
AcDbEntity
  8
0
100
AcDbBlockEnd
  0
BLOCK
  5
29C0
330
29BF
100
AcDbEntity
  8
0
100
AcDbBlockBegin
  2
A4横用_タイトル
 70
     0
 10
0.0
 20
0.0
 30
0.0
  3
A4横用_タイトル
  1

  0
LINE
  5
29C1
330
29BF
100
AcDbEntity
  8
図枠細線
  6
CONTINUOUS
100
AcDbLine
 10
75.061011071051
 20
16.806607253358
 30
0.0
 11
144.061011071051
 21
16.806604789072
 31
0.0
  0
LINE
  5
29C2
330
29BF
100
AcDbEntity
  8
図枠細線
  6
CONTINUOUS
 62
   252
100
AcDbLine
 10
4.061011071051
 20
11.806606253358
 30
0.0
 11
75.061011071051
 21
11.806606253358
 31
0.0
  0
LINE
  5
29C3
330
29BF
100
AcDbEntity
  8
図枠細線
  6
CONTINUOUS
 62
   252
100
AcDbLine
 10
4.061011071051
 20
21.806606253358
 30
0.0
 11
75.061011071051
 21
21.806606253358
 31
0.0
  0
LINE
  5
29C4
330
29BF
100
AcDbEntity
  8
図枠細線
  6
CONTINUOUS
 62
   252
100
AcDbLine
 10
4.061011071051
 20
26.806606253358
 30
0.0
 11
75.061011071051
 21
26.806606253358
 31
0.0
  0
LINE
  5
29C5
330
29BF
100
AcDbEntity
  8
図枠細線
  6
CONTINUOUS
100
AcDbLine
 10
4.061011071051
 20
16.806608253358
 30
0.0
 11
75.061011071051
 21
16.806608253358
 31
0.0
  0
TEXT
  5
29C6
330
29BF
100
AcDbEntity
  8
図枠細線
  6
CONTINUOUS
 62
   252
100
AcDbText
 10
76.405475827713
 20
9.560308253358
 30
0.0
 40
2.0
  1
ＴＨＩＲＤ　ＡＮＧＬＥ
 41
0.691099486738
  7
EXCADSTD
 72
     5
 11
94.005476089973
 21
9.560308253358
 31
0.0
100
AcDbText
  0
TEXT
  5
29C7
330
29BF
100
AcDbEntity
  8
図枠細線
  6
CONTINUOUS
 62
   252
100
AcDbText
 10
76.705775880921
 20
14.306608253358
 30
0.0
 40
2.0
  1
第三角法
 41
1.102941176471
  7
EXCADSTD
 72
     5
 11
86.705775880921
 21
14.306608253358
 31
0.0
100
AcDbText
  0
TEXT
  5
29C8
330
29BF
100
AcDbEntity
  8
図枠細線
  6
CONTINUOUS
 62
   252
100
AcDbText
 10
76.705775880921
 20
26.806608253358
 30
0.0
 40
2.0
  1
ＡＰＰＲＯＶＥＤ
 41
0.695652184279
  7
EXCADSTD
 72
     5
 11
89.505776071656
 21
26.806608253358
 31
0.0
100
AcDbText
  0
TEXT
  5
29C9
330
29BF
100
AcDbEntity
  8
図枠細線
  6
CONTINUOUS
 62
   252
100
AcDbText
 10
76.705775880921
 20
29.306608253358
 30
0.0
 40
2.0
  1
承認
 41
1.171875
  7
EXCADSTD
 72
     5
 11
81.705775880921
 21
29.306608253358
 31
0.0
100
AcDbText
  0
LINE
  5
29CA
330
29BF
100
AcDbEntity
  8
図枠細線
  6
CONTINUOUS
 62
   252
100
AcDbLine
 10
98.061011071051
 20
31.806606253358
 30
0.0
 11
98.061011071051
 21
16.806606253358
 31
0.0
  0
TEXT
  5
29CB
330
29BF
100
AcDbEntity
  8
図枠細線
  6
CONTINUOUS
 62
   252
100
AcDbText
 10
104.216531119804
 20
14.306608253358
 30
0.0
 40
2.0
  1
ＳＣＡＬＥ
 41
0.903614457831
  7
EXCADSTD
 72
     5
 11
114.216531119804
 21
14.306608253358
 31
0.0
100
AcDbText
  0
TEXT
  5
29CC
330
29BF
100
AcDbEntity
  8
図枠細線
  6
CONTINUOUS
 62
   252
100
AcDbText
 10
98.844044119804
 20
14.306608253358
 30
0.0
 40
2.0
  1
尺度
 41
1.171875
  7
EXCADSTD
 72
     5
 11
103.844044119804
 21
14.306608253358
 31
0.0
100
AcDbText
  0
TEXT
  5
29CD
330
29BF
100
AcDbEntity
  8
図枠細線
  6
CONTINUOUS
 62
   252
100
AcDbText
 10
98.968727707497
 20
26.806608253358
 30
0.0
 40
2.0
  1
ＣＨＥＣＫＥＤ
 41
0.831249989569
  7
EXCADSTD
 72
     5
 11
112.268727540604
 21
26.806608253358
 31
0.0
100
AcDbText
  0
TEXT
  5
29CE
330
29BF
100
AcDbEntity
  8
図枠細線
  6
CONTINUOUS
 62
   252
100
AcDbText
 10
98.968727707497
 20
29.306608253358
 30
0.0
 40
2.0
  1
検図
 41
1.209677419355
  7
EXCADSTD
 72
     5
 11
103.968727707497
 21
29.306608253358
 31
0.0
100
AcDbText
  0
LINE
  5
29CF
330
29BF
100
AcDbEntity
  8
図枠細線
  6
CONTINUOUS
 62
   252
100
AcDbLine
 10
121.061011071051
 20
31.806606253358
 30
0.0
 11
121.061011071051
 21
16.806606253358
 31
0.0
  0
TEXT
  5
29D0
330
29BF
100
AcDbEntity
  8
図枠細線
  6
CONTINUOUS
 62
   252
100
AcDbText
 10
128.001465247253
 20
14.306608253358
 30
0.0
 40
2.0
  1
ＤＡＴＥ
 41
0.923076923077
  7
EXCADSTD
 72
     5
 11
136.001465247253
 21
14.306608253358
 31
0.0
100
AcDbText
  0
TEXT
  5
29D1
330
29BF
100
AcDbEntity
  8
図枠細線
  6
CONTINUOUS
 62
   252
100
AcDbText
 10
122.066415498841
 20
14.306608253358
 30
0.0
 40
2.0
  1
日付
 41
1.171875
  7
EXCADSTD
 72
     5
 11
127.066415498841
 21
14.306608253358
 31
0.0
100
AcDbText
  0
TEXT
  5
29D2
330
29BF
100
AcDbEntity
  8
図枠細線
  6
CONTINUOUS
 62
   252
100
AcDbText
 10
121.59429406571
 20
29.306608253358
 30
0.0
 40
2.0
  1
製図
 41
1.209677419355
  7
EXCADSTD
 72
     5
 11
126.59429406571
 21
29.306608253358
 31
0.0
100
AcDbText
  0
TEXT
  5
29D3
330
29BF
100
AcDbEntity
  8
図枠細線
  6
CONTINUOUS
 62
   252
100
AcDbText
 10
121.59429406571
 20
26.806608253358
 30
0.0
 40
2.0
  1
ＤＲＡＷＮ
 41
0.882352941176
  7
EXCADSTD
 72
     5
 11
131.59429406571
 21
26.806608253358
 31
0.0
100
AcDbText
  0
TEXT
  5
29D4
330
29BF
100
AcDbEntity
  8
図枠細線
  6
CONTINUOUS
 62
   252
100
AcDbText
 10
226.591229661348
 20
14.306608253358
 30
0.0
 40
2.0
  1
ＤＲＧ．ＮＯ．
 41
0.9375
  7
EXCADSTD
 72
     5
 11
240.591229661348
 21
14.306608253358
 31
0.0
100
AcDbText
  0
LINE
  5
29D5
330
29BF
100
AcDbEntity
  8
図枠太線
  6
CONTINUOUS
 62
   251
100
AcDbLine
 10
144.061003071051
 20
16.806606253358
 30
0.0
 11
214.061011071051
 21
16.806606253358
 31
0.0
  0
LINE
  5
29D6
330
29BF
100
AcDbEntity
  8
図枠細線
  6
CONTINUOUS
 62
   252
100
AcDbLine
 10
144.061011071051
 20
24.306606253358
 30
0.0
 11
214.061011071051
 21
24.306606253358
 31
0.0
  0
TEXT
  5
29D7
330
29BF
100
AcDbEntity
  8
図枠ロゴマーク
  6
CONTINUOUS
 62
   253
100
AcDbText
 10
146.433776781596
 20
8.399000253358
 30
0.0
 40
7.0
  1
東和制電工業株式会社
 41
0.80361088462
  7
EXCADSTD
 72
     5
 11
212.437017438349
 21
8.399000253358
 31
0.0
100
AcDbText
  0
TEXT
  5
29D8
330
29BF
100
AcDbEntity
  8
図枠細線
  6
CONTINUOUS
 62
   252
100
AcDbText
 10
215.156179912936
 20
14.306608253358
 30
0.0
 40
2.0
  1
図面番号
 41
1.102941176471
  7
EXCADSTD
 72
     5
 11
225.156179912936
 21
14.306608253358
 31
0.0
100
AcDbText
  0
TEXT
  5
29D9
330
29BF
100
AcDbEntity
  8
図枠細線
  6
CONTINUOUS
 62
   252
100
AcDbText
 10
221.591229661348
 20
29.306608253358
 30
0.0
 40
2.0
  1
ＴＩＴＬＥ
 41
0.903614457831
  7
EXCADSTD
 72
     5
 11
231.591229661348
 21
29.306608253358
 31
0.0
100
AcDbText
  0
TEXT
  5
29DA
330
29BF
100
AcDbEntity
  8
図枠細線
  6
CONTINUOUS
 62
   252
100
AcDbText
 10
215.156179912936
 20
29.306608253358
 30
0.0
 40
2.0
  1
名称
 41
1.171875
  7
EXCADSTD
 72
     5
 11
220.156179912936
 21
29.306608253358
 31
0.0
100
AcDbText
  0
LINE
  5
29DB
330
29BF
100
AcDbEntity
  8
図枠太線
  6
CONTINUOUS
 62
   251
100
AcDbLine
 10
4.061011071051
 20
1.806608253358
 30
0.0
 11
284.061011071051
 21
1.806608253358
 31
0.0
  0
LINE
  5
29DC
330
29BF
100
AcDbEntity
  8
図枠細線
  6
CONTINUOUS
 62
   252
100
AcDbLine
 10
4.061011071051
 20
6.806608253358
 30
0.0
 11
75.061011071051
 21
6.806608253358
 31
0.0
  0
LINE
  5
29DD
330
29BF
100
AcDbEntity
  8
図枠太線
  6
CONTINUOUS
 62
   251
100
AcDbLine
 10
75.061011071051
 20
1.806608253358
 30
0.0
 11
75.061011071051
 21
31.806606253358
 31
0.0
  0
TEXT
  5
29DE
330
29BF
100
AcDbEntity
  8
図枠細線
  6
CONTINUOUS
 62
   252
100
AcDbText
 10
76.330551827713
 20
6.638319253358
 30
0.0
 40
2.0
  1
ＰＲＯＪＥＣＴＩＯＮ
 41
0.754285710199
  7
EXCADSTD
 72
     5
 11
93.930551732346
 21
6.638319253358
 31
0.0
100
AcDbText
  0
LINE
  5
29DF
330
29BF
100
AcDbEntity
  8
図枠細線
  6
CONTINUOUS
 62
   252
100
AcDbLine
 10
98.061011071051
 20
1.806606931929
 30
0.0
 11
98.061011071051
 21
16.806604931929
 31
0.0
  0
LINE
  5
29E0
330
29BF
100
AcDbEntity
  8
図枠細線
  6
CONTINUOUS
 62
   252
100
AcDbLine
 10
121.061011071051
 20
1.806607574787
 30
0.0
 11
121.061011071051
 21
16.806605574787
 31
0.0
  0
LINE
  5
29E1
330
29BF
100
AcDbEntity
  8
図枠太線
  6
CONTINUOUS
 62
   251
100
AcDbLine
 10
284.061011071051
 20
1.806608253358
 30
0.0
 11
284.061011071051
 21
31.806606253358
 31
0.0
  0
LINE
  5
29E2
330
29BF
100
AcDbEntity
  8
図枠細線
  6
CONTINUOUS
 62
   252
100
AcDbLine
 10
214.061011071051
 20
16.806606253358
 30
0.0
 11
284.061011071051
 21
16.806606253358
 31
0.0
  0
TEXT
  5
29E3
330
29BF
100
AcDbEntity
  8
図枠細線
  6
CONTINUOUS
 62
   252
100
AcDbText
 10
146.199593676182
 20
3.454099253358
 30
0.0
 40
3.5
  1
ＴＯＷＡ　ＳＥＩＤＥＮ　ＩＮＤＵＳＴＲＩＡＬ　ＣＯ．，ＬＴＤ．
 41
0.528937826907
  7
EXCADSTD
 72
     5
 11
213.339435171588
 21
3.454099253358
 31
0.0
100
AcDbText
  0
LINE
  5
29E4
330
29BF
100
AcDbEntity
  8
図枠太線
  6
CONTINUOUS
 62
   251
100
AcDbLine
 10
144.061011071051
 20
1.806608253358
 30
0.0
 11
144.061011071051
 21
31.806606253358
 31
0.0
  0
LINE
  5
29E5
330
29BF
100
AcDbEntity
  8
図枠太線
  6
CONTINUOUS
 62
   251
100
AcDbLine
 10
214.061011071051
 20
1.806608253358
 30
0.0
 11
214.061011071051
 21
31.806606253358
 31
0.0
  0
MTEXT
  5
29E6
330
29BF
100
AcDbEntity
  8
図枠太線
100
AcDbMText
 10
5.064337346478
 20
31.010982137407
 30
0.0
 40
2.5
 41
8.67856098472
 71
     1
 72
     5
  1
{\Fmonotxt.shx,bigfont.shx|c128;図暦}
  0
LINE
  5
29E7
330
29BF
100
AcDbEntity
  8
図枠太線
  6
CONTINUOUS
 62
   251
100
AcDbLine
 10
4.061011071051
 20
1.806608253358
 30
0.0
 11
4.061011071051
 21
31.806606253358
 31
0.0
  0
TEXT
  5
29E8
330
29BF
100
AcDbEntity
  8
図枠細線
 48
10.0
100
AcDbText
 10
12.260817420402
 20
28.625419626495
 30
0.0
 40
2.0
  1
CHANGE NOTICE
100
AcDbText
  0
ENDBLK
  5
29E9
330
29BF
100
AcDbEntity
  8
0
100
AcDbBlockEnd
  0
BLOCK
  5
29F5
330
29F4
100
AcDbEntity
  8
0
100
AcDbBlockBegin
  2
A4縦用_タイトル
 70
     0
 10
0.0
 20
0.0
 30
0.0
  3
A4縦用_タイトル
  1

  0
LINE
  5
29F6
330
29F4
100
AcDbEntity
  8
図枠太線
  6
CONTINUOUS
 62
   251
100
AcDbLine
 10
2.368253864267
 20
4.525433224584
 30
0.0
 11
192.368245864267
 21
4.525433224584
 31
0.0
  0
LINE
  5
29F7
330
29F4
100
AcDbEntity
  8
図枠太線
  6
CONTINUOUS
 62
   251
100
AcDbLine
 10
78.368245864267
 20
19.525431224584
 30
0.0
 11
135.368253864267
 21
19.525431224584
 31
0.0
  0
LINE
  5
29F8
330
29F4
100
AcDbEntity
  8
図枠細線
  6
CONTINUOUS
 62
   252
100
AcDbLine
 10
78.368253864267
 20
27.025431224584
 30
0.0
 11
135.368253864267
 21
27.025431224584
 31
0.0
  0
TEXT
  5
29F9
330
29F4
100
AcDbEntity
  8
図枠ロゴマーク
  6
CONTINUOUS
 62
   253
100
AcDbText
 10
80.617009864267
 20
11.117825224584
 30
0.0
 40
7.0
  1
東和制電工業株式会社
 41
0.639204545455
  7
EXCADSTD
 72
     5
 11
133.117009864267
 21
11.117825224584
 31
0.0
100
AcDbText
  0
TEXT
  5
29FA
330
29F4
100
AcDbEntity
  8
図枠細線
  6
CONTINUOUS
 62
   252
100
AcDbText
 10
80.579549864267
 20
6.172924224584
 30
0.0
 40
3.5
  1
ＴＯＷＡ　ＳＥＩＤＥＮ　ＩＮＤＵＳＴＲＩＡＬ　ＣＯ．，ＬＴＤ．
 41
0.414568012377
  7
EXCADSTD
 72
     5
 11
133.202049568628
 21
6.172924224584
 31
0.0
100
AcDbText
  0
LINE
  5
29FB
330
29F4
100
AcDbEntity
  8
図枠太線
  6
CONTINUOUS
 62
   251
100
AcDbLine
 10
2.368253864267
 20
4.525433224584
 30
0.0
 11
2.368253864267
 21
34.525431224584
 31
0.0
  0
TEXT
  5
29FC
330
29F4
100
AcDbEntity
  8
図枠細線
  6
CONTINUOUS
 62
   252
100
AcDbText
 10
22.504308136501
 20
12.279133224584
 30
0.0
 40
2.0
  1
ＴＨＩＲＤ　ＡＮＧＬＥ
 41
0.691099486738
  7
EXCADSTD
 72
     5
 11
40.104308398762
 21
12.279133224584
 31
0.0
100
AcDbText
  0
TEXT
  5
29FD
330
29F4
100
AcDbEntity
  8
図枠細線
  6
CONTINUOUS
 62
   252
100
AcDbText
 10
22.429384136501
 20
9.357144224584
 30
0.0
 40
2.0
  1
ＰＲＯＪＥＣＴＩＯＮ
 41
0.754285710199
  7
EXCADSTD
 72
     5
 11
40.029384041134
 21
9.357144224584
 31
0.0
100
AcDbText
  0
LINE
  5
29FE
330
29F4
100
AcDbEntity
  8
図枠細線
  6
CONTINUOUS
100
AcDbLine
 10
22.368253864267
 20
19.525433224584
 30
0.0
 11
78.368253864267
 21
19.525431224584
 31
0.0
  0
TEXT
  5
29FF
330
29F4
100
AcDbEntity
  8
図枠細線
  6
CONTINUOUS
 62
   252
100
AcDbText
 10
22.868253864267
 20
17.025433224584
 30
0.0
 40
2.0
  1
第三角法
 41
1.102941176471
  7
EXCADSTD
 72
     5
 11
32.868253864267
 21
17.025433224584
 31
0.0
100
AcDbText
  0
TEXT
  5
2A00
330
29F4
100
AcDbEntity
  8
図枠細線
  6
CONTINUOUS
 62
   252
100
AcDbText
 10
22.868253864267
 20
29.525433224584
 30
0.0
 40
2.0
  1
ＡＰＰＲＯＶＥＤ
 41
0.695652184279
  7
EXCADSTD
 72
     5
 11
35.668254055002
 21
29.525433224584
 31
0.0
100
AcDbText
  0
LINE
  5
2A01
330
29F4
100
AcDbEntity
  8
図枠細線
  6
CONTINUOUS
 62
   252
100
AcDbLine
 10
2.368253864267
 20
9.525433224584
 30
0.0
 11
22.368253864267
 21
9.525433224584
 31
0.0
  0
LINE
  5
2A02
330
29F4
100
AcDbEntity
  8
図枠細線
  6
CONTINUOUS
 62
   252
100
AcDbLine
 10
2.368253864267
 20
14.525431224584
 30
0.0
 11
22.368253864267
 21
14.525431224584
 31
0.0
  0
LINE
  5
2A03
330
29F4
100
AcDbEntity
  8
図枠細線
  6
CONTINUOUS
 62
   252
100
AcDbLine
 10
2.368253864267
 20
24.525431224584
 30
0.0
 11
22.368253864267
 21
24.525431224584
 31
0.0
  0
LINE
  5
2A04
330
29F4
100
AcDbEntity
  8
図枠細線
  6
CONTINUOUS
 62
   252
100
AcDbLine
 10
2.368253864267
 20
29.525431224584
 30
0.0
 11
22.368253864267
 21
29.525431224584
 31
0.0
  0
LINE
  5
2A05
330
29F4
100
AcDbEntity
  8
図枠細線
  6
CONTINUOUS
100
AcDbLine
 10
2.368253864267
 20
19.525433224584
 30
0.0
 11
22.368253864267
 21
19.525433224584
 31
0.0
  0
TEXT
  5
2A06
330
29F4
100
AcDbEntity
  8
図枠細線
  6
CONTINUOUS
 62
   252
100
AcDbText
 10
2.868253864267
 20
32.025433224584
 30
0.0
 40
2.0
  1
ＮＯＴＥ
 41
0.923076923077
  7
EXCADSTD
 72
     5
 11
10.868253864267
 21
32.025433224584
 31
0.0
100
AcDbText
  0
LINE
  5
2A07
330
29F4
100
AcDbEntity
  8
図枠太線
  6
CONTINUOUS
 62
   251
100
AcDbLine
 10
22.368253864267
 20
4.525433224584
 30
0.0
 11
22.368253864267
 21
34.525431224584
 31
0.0
  0
TEXT
  5
2A08
330
29F4
100
AcDbEntity
  8
図枠細線
  6
CONTINUOUS
 62
   252
100
AcDbText
 10
22.868253864267
 20
32.025433224584
 30
0.0
 40
2.0
  1
承認
 41
1.171875
  7
EXCADSTD
 72
     5
 11
27.868253864267
 21
32.025433224584
 31
0.0
100
AcDbText
  0
TEXT
  5
2A09
330
29F4
100
AcDbEntity
  8
図枠細線
  6
CONTINUOUS
 62
   252
100
AcDbText
 10
60.711709035982
 20
32.025433224584
 30
0.0
 40
2.0
  1
製図
 41
1.209677419355
  7
EXCADSTD
 72
     5
 11
65.711709035982
 21
32.025433224584
 31
0.0
100
AcDbText
  0
TEXT
  5
2A0A
330
29F4
100
AcDbEntity
  8
図枠細線
  6
CONTINUOUS
 62
   252
100
AcDbText
 10
60.711709035982
 20
29.525433224584
 30
0.0
 40
2.0
  1
ＤＲＡＷＮ
 41
0.882352941176
  7
EXCADSTD
 72
     5
 11
70.711709035982
 21
29.525433224584
 31
0.0
100
AcDbText
  0
TEXT
  5
2A0B
330
29F4
100
AcDbEntity
  8
図枠細線
  6
CONTINUOUS
 62
   252
100
AcDbText
 10
60.834891743877
 20
17.025433224584
 30
0.0
 40
2.0
  1
日付
 41
1.171875
  7
EXCADSTD
 72
     5
 11
65.834891743877
 21
17.025433224584
 31
0.0
100
AcDbText
  0
TEXT
  5
2A0C
330
29F4
100
AcDbEntity
  8
図枠細線
  6
CONTINUOUS
 62
   252
100
AcDbText
 10
47.333660864267
 20
17.025433224584
 30
0.0
 40
2.0
  1
ＳＣＡＬＥ
 41
0.903614457831
  7
EXCADSTD
 72
     5
 11
57.333660864267
 21
17.025433224584
 31
0.0
100
AcDbText
  0
TEXT
  5
2A0D
330
29F4
100
AcDbEntity
  8
図枠細線
  6
CONTINUOUS
 62
   252
100
AcDbText
 10
42.281425990082
 20
29.525433224584
 30
0.0
 40
2.0
  1
ＣＨＥＣＫＥＤ
 41
0.831249989569
  7
EXCADSTD
 72
     5
 11
55.581425823189
 21
29.525433224584
 31
0.0
100
AcDbText
  0
LINE
  5
2A0E
330
29F4
100
AcDbEntity
  8
図枠細線
  6
CONTINUOUS
 62
   252
100
AcDbLine
 10
40.968253864267
 20
34.525431224584
 30
0.0
 11
40.968253864267
 21
19.525431224584
 31
0.0
  0
LINE
  5
2A0F
330
29F4
100
AcDbEntity
  8
図枠細線
  6
CONTINUOUS
 62
   252
100
AcDbLine
 10
40.968253864267
 20
4.525433224584
 30
0.0
 11
40.968253864267
 21
19.525431224584
 31
0.0
  0
TEXT
  5
2A10
330
29F4
100
AcDbEntity
  8
図枠細線
  6
CONTINUOUS
 62
   252
100
AcDbText
 10
41.961173864267
 20
17.025433224584
 30
0.0
 40
2.0
  1
尺度
 41
1.171875
  7
EXCADSTD
 72
     5
 11
46.961173864267
 21
17.025433224584
 31
0.0
100
AcDbText
  0
TEXT
  5
2A11
330
29F4
100
AcDbEntity
  8
図枠細線
  6
CONTINUOUS
 62
   252
100
AcDbText
 10
42.281425990082
 20
32.025433224584
 30
0.0
 40
2.0
  1
検図
 41
1.209677419355
  7
EXCADSTD
 72
     5
 11
47.281425990082
 21
32.025433224584
 31
0.0
100
AcDbText
  0
LINE
  5
2A12
330
29F4
100
AcDbEntity
  8
図枠細線
  6
CONTINUOUS
 62
   252
100
AcDbLine
 10
59.768253864267
 20
34.525431224584
 30
0.0
 11
59.768253864267
 21
19.525431224584
 31
0.0
  0
LINE
  5
2A13
330
29F4
100
AcDbEntity
  8
図枠細線
  6
CONTINUOUS
 62
   252
100
AcDbLine
 10
59.768253864267
 20
4.525433224584
 30
0.0
 11
59.768253864267
 21
19.525431224584
 31
0.0
  0
LINE
  5
2A14
330
29F4
100
AcDbEntity
  8
図枠太線
  6
CONTINUOUS
 62
   251
100
AcDbLine
 10
78.368253864267
 20
4.525433224584
 30
0.0
 11
78.368253864267
 21
34.525431224584
 31
0.0
  0
TEXT
  5
2A15
330
29F4
100
AcDbEntity
  8
図枠細線
  6
CONTINUOUS
 62
   252
100
AcDbText
 10
66.334891743877
 20
17.025433224584
 30
0.0
 40
2.0
  1
ＤＡＴＥ
 41
0.923076923077
  7
EXCADSTD
 72
     5
 11
74.334891743877
 21
17.025433224584
 31
0.0
100
AcDbText
  0
LINE
  5
2A16
330
29F4
100
AcDbEntity
  8
図枠細線
  6
CONTINUOUS
 62
   252
100
AcDbLine
 10
135.368253864267
 20
19.525431224584
 30
0.0
 11
192.368245864267
 21
19.525431224584
 31
0.0
  0
TEXT
  5
2A17
330
29F4
100
AcDbEntity
  8
図枠細線
  6
CONTINUOUS
 62
   252
100
AcDbText
 10
141.868253864267
 20
32.025433224584
 30
0.0
 40
2.0
  1
ＴＩＴＬＥ
 41
0.903614457831
  7
EXCADSTD
 72
     5
 11
151.868253864267
 21
32.025433224584
 31
0.0
100
AcDbText
  0
LINE
  5
2A18
330
29F4
100
AcDbEntity
  8
図枠太線
  6
CONTINUOUS
 62
   251
100
AcDbLine
 10
135.368253864267
 20
4.525433224584
 30
0.0
 11
135.368253864267
 21
34.525431224584
 31
0.0
  0
TEXT
  5
2A19
330
29F4
100
AcDbEntity
  8
図枠細線
  6
CONTINUOUS
 62
   252
100
AcDbText
 10
135.868253864267
 20
17.025433224584
 30
0.0
 40
2.0
  1
図面番号
 41
1.102941176471
  7
EXCADSTD
 72
     5
 11
145.868253864267
 21
17.025433224584
 31
0.0
100
AcDbText
  0
TEXT
  5
2A1A
330
29F4
100
AcDbEntity
  8
図枠細線
  6
CONTINUOUS
 62
   252
100
AcDbText
 10
135.868253864267
 20
32.025433224584
 30
0.0
 40
2.0
  1
名称
 41
1.171875
  7
EXCADSTD
 72
     5
 11
140.868253864267
 21
32.025433224584
 31
0.0
100
AcDbText
  0
TEXT
  5
2A1B
330
29F4
100
AcDbEntity
  8
図枠細線
  6
CONTINUOUS
 62
   252
100
AcDbText
 10
146.868253864267
 20
17.025433224584
 30
0.0
 40
2.0
  1
ＤＲＧ．ＮＯ．
 41
0.9375
  7
EXCADSTD
 72
     5
 11
160.868253864267
 21
17.025433224584
 31
0.0
100
AcDbText
  0
LINE
  5
2A1C
330
29F4
100
AcDbEntity
  8
図枠太線
  6
CONTINUOUS
 62
   251
100
AcDbLine
 10
192.368245864267
 20
4.525433224584
 30
0.0
 11
192.368245864267
 21
34.525431224584
 31
0.0
  0
ENDBLK
  5
2A1D
330
29F4
100
AcDbEntity
  8
0
100
AcDbBlockEnd
  0
BLOCK
  5
2A33
330
2A32
100
AcDbEntity
  8
0
100
AcDbBlockBegin
  2
A3横用_タイトル
 70
     0
 10
0.0
 20
0.0
 30
0.0
  3
A3横用_タイトル
  1

  0
LINE
  5
2A34
330
2A32
100
AcDbEntity
  8
図枠細線
  6
CONTINUOUS
 62
   252
100
AcDbLine
 10
205.098414535793
 20
33.525959753527
 30
0.0
 11
305.098414535793
 21
33.525959753527
 31
0.0
  0
LINE
  5
2A35
330
2A32
100
AcDbEntity
  8
図枠太線
  6
CONTINUOUS
 62
   251
100
AcDbLine
 10
205.098414535793
 20
23.525959753527
 30
0.0
 11
305.098414535793
 21
23.525959753527
 31
0.0
  0
LINE
  5
2A36
330
2A32
100
AcDbEntity
  8
図枠細線
  6
CONTINUOUS
100
AcDbLine
 10
5.098414535793
 20
23.525959753527
 30
0.0
 11
105.098414535793
 21
23.525959753527
 31
0.0
  0
LINE
  5
2A37
330
2A32
100
AcDbEntity
  8
図枠細線
  6
CONTINUOUS
 62
   252
100
AcDbLine
 10
5.098414535793
 20
36.725957753527
 30
0.0
 11
105.098414535793
 21
36.725957753527
 31
0.0
  0
LINE
  5
2A38
330
2A32
100
AcDbEntity
  8
図枠細線
  6
CONTINUOUS
 62
   252
100
AcDbLine
 10
5.098414535793
 20
30.125957753527
 30
0.0
 11
105.098414535793
 21
30.125957753527
 31
0.0
  0
LINE
  5
2A39
330
2A32
100
AcDbEntity
  8
図枠細線
  6
CONTINUOUS
 62
   252
100
AcDbLine
 10
5.098414535793
 20
16.725959753527
 30
0.0
 11
105.098414535793
 21
16.725959753527
 31
0.0
  0
LINE
  5
2A3A
330
2A32
100
AcDbEntity
  8
図枠細線
  6
CONTINUOUS
 62
   252
100
AcDbLine
 10
5.098414535793
 20
10.125959753527
 30
0.0
 11
105.098414535793
 21
10.125959753527
 31
0.0
  0
LINE
  5
2A3B
330
2A32
100
AcDbEntity
  8
図枠細線
  6
CONTINUOUS
100
AcDbLine
 10
105.098414535793
 20
23.525961753527
 30
0.0
 11
205.098414535793
 21
23.525959753527
 31
0.0
  0
LINE
  5
2A3C
330
2A32
100
AcDbEntity
  8
図枠細線
  6
CONTINUOUS
 62
   252
100
AcDbLine
 10
138.398414535793
 20
43.525959753527
 30
0.0
 11
138.398414535793
 21
18.525957753527
 31
0.0
  0
LINE
  5
2A3D
330
2A32
100
AcDbEntity
  8
図枠細線
  6
CONTINUOUS
 62
   252
100
AcDbLine
 10
171.698414535793
 20
43.525959753527
 30
0.0
 11
171.698414535793
 21
18.525957753527
 31
0.0
  0
LINE
  5
2A3E
330
2A32
100
AcDbEntity
  8
図枠細線
  6
CONTINUOUS
 62
   252
100
AcDbLine
 10
305.098414535793
 20
23.525959753527
 30
0.0
 11
405.098414535793
 21
23.525959753527
 31
0.0
  0
TEXT
  5
2A3F
330
2A32
100
AcDbEntity
  8
図枠ロゴマーク
  6
CONTINUOUS
 62
   253
100
AcDbText
 10
206.102509212755
 20
13.294257570546
 30
0.0
 40
7.0
  1
東和制電工業株式会社
 50
0.016555220185
 41
1.186384129432
  7
EXCADSTD
 72
     5
 11
303.544188309143
 21
13.322412672217
 31
0.0
100
AcDbText
  0
MTEXT
  5
2A40
330
2A32
100
AcDbEntity
  8
図枠細線
100
AcDbMText
 10
6.356764112375
 20
41.976594175478
 30
0.0
 40
2.5
 41
49.938282706292
 71
     1
 72
     5
  1
{\Fmonotxt.shx,bigfont.shx|c128;図暦　CHANGE　NOTICE}
  0
MTEXT
  5
2A41
330
2A32
100
AcDbEntity
  8
図枠細線
 48
10.0
100
AcDbMText
 10
306.544114926828
 20
41.701835800934
 30
0.0
 40
2.5
 41
28.002809618823
 71
     1
 72
     5
  1
{\Fmonotxt.shx,bigfont.shx|c128;名称　TITLE}
  0
MTEXT
  5
2A42
330
2A32
100
AcDbEntity
  8
図枠細線
 48
10.0
100
AcDbMText
 10
307.329617114284
 20
21.606206797226
 30
0.0
 40
2.5
 41
24.385612216707
 71
     1
 72
     5
  1
{\Fmonotxt.shx,bigfont.shx|c128;図面番号\PDRG.　No.}
  0
MTEXT
  5
2A43
330
2A32
100
AcDbEntity
  8
図枠細線
 48
10.0
100
AcDbMText
 10
173.726349404609
 20
21.73680662198
 30
0.0
 40
2.5
 41
25.735090160813
 71
     1
 72
     5
  1
{\Fmonotxt.shx,bigfont.shx|c128;日付 DATE}
  0
MTEXT
  5
2A44
330
2A32
100
AcDbEntity
  8
図枠細線
 48
10.0
100
AcDbMText
 10
173.48708833982
 20
41.621592044998
 30
0.0
 40
2.5
 41
24.983741184205
 71
     1
 72
     5
  1
{\Fmonotxt.shx,bigfont.shx|c128;製図　DRAWN}
  0
MTEXT
  5
2A45
330
2A32
100
AcDbEntity
  8
図枠細線
 48
10.0
100
AcDbMText
 10
139.28009927741
 20
21.866713069868
 30
0.0
 40
2.5
 41
22.629632913243
 71
     1
 72
     5
  1
{\Fmonotxt.shx,bigfont.shx|c128;尺度　SCALE}
  0
MTEXT
  5
2A46
330
2A32
100
AcDbEntity
  8
図枠細線
 48
10.0
100
AcDbMText
 10
139.910091179835
 20
41.311840415554
 30
0.0
 40
2.5
 41
28.998753428368
 71
     1
 72
     5
  1
{\Fmonotxt.shx,bigfont.shx|c128;検図  CHECKED}
  0
MTEXT
  5
2A47
330
2A32
100
AcDbEntity
  8
図枠細線
 48
10.0
100
AcDbMText
 10
114.253294667728
 20
21.916124850174
 30
0.0
 40
3.0
 41
19.692400475383
 71
     1
 72
     5
  1
{\Fmonotxt.shx,bigfont.shx|c128;第三角法}
  0
MTEXT
  5
2A48
330
2A32
100
AcDbEntity
  8
図枠細線
 48
10.0
100
AcDbMText
 10
108.986959929915
 20
15.282880185837
 30
0.0
 40
2.5
 41
27.954882823547
 71
     1
 72
     5
  1
{\Fmonotxt.shx,bigfont.shx|c128;THIRD ANGLE\PPROJECTION}
  0
MTEXT
  5
2A49
330
2A32
100
AcDbEntity
  8
図枠細線
 48
10.0
100
AcDbMText
 10
106.319432640184
 20
41.511437145487
 30
0.0
 40
2.5
 41
28.233595265074
 71
     1
 72
     5
  1
{\Fmonotxt.shx,bigfont.shx|c128;承認 APPROVED}
  0
LINE
  5
2A4A
330
2A32
100
AcDbEntity
  8
図枠太線
  6
CONTINUOUS
 62
   251
100
AcDbLine
 10
5.098414535793
 20
3.525959753527
 30
0.0
 11
405.098414535793
 21
3.525959753527
 31
0.0
  0
LINE
  5
2A4B
330
2A32
100
AcDbEntity
  8
図枠太線
 48
10.0
100
AcDbLine
 10
5.098414535793
 20
3.525959753527
 30
0.0
 11
5.098414535793
 21
43.525959753527
 31
0.0
  0
LINE
  5
2A4C
330
2A32
100
AcDbEntity
  8
図枠太線
  6
CONTINUOUS
 62
   251
100
AcDbLine
 10
105.098414535793
 20
3.525959753527
 30
0.0
 11
105.098414535793
 21
43.525959753527
 31
0.0
  0
LINE
  5
2A4D
330
2A32
100
AcDbEntity
  8
図枠細線
  6
CONTINUOUS
 62
   252
100
AcDbLine
 10
138.398414535793
 20
3.525959753527
 30
0.0
 11
138.398414535793
 21
18.525957753527
 31
0.0
  0
LINE
  5
2A4E
330
2A32
100
AcDbEntity
  8
図枠細線
  6
CONTINUOUS
 62
   252
100
AcDbLine
 10
171.698414535793
 20
3.525959753527
 30
0.0
 11
171.698414535793
 21
18.525957753527
 31
0.0
  0
LINE
  5
2A4F
330
2A32
100
AcDbEntity
  8
図枠太線
  6
CONTINUOUS
 62
   251
100
AcDbLine
 10
205.098414535793
 20
3.525959753527
 30
0.0
 11
205.098414535793
 21
43.525959753527
 31
0.0
  0
LINE
  5
2A50
330
2A32
100
AcDbEntity
  8
図枠太線
 48
10.0
100
AcDbLine
 10
405.098414535793
 20
43.525959753527
 30
0.0
 11
405.098414535793
 21
3.525959753527
 31
0.0
  0
TEXT
  5
2A51
330
2A32
100
AcDbEntity
  8
図枠細線
  6
CONTINUOUS
 62
   252
100
AcDbText
 10
208.519754474571
 20
6.482358407285
 30
0.0
 40
3.5
  1
ＴＯＷＡ　ＳＥＩＤＥＮ　ＩＮＤＵＳＴＲＩＡＬ　ＣＯ．，ＬＴＤ．
 41
0.746656297509
  7
EXCADSTD
 72
     5
 11
303.295327171727
 21
6.482358407285
 31
0.0
100
AcDbText
  0
LINE
  5
2A52
330
2A32
100
AcDbEntity
  8
図枠太線
  6
CONTINUOUS
 62
   251
100
AcDbLine
 10
305.098414535793
 20
3.525959753527
 30
0.0
 11
305.098414535793
 21
43.525959753527
 31
0.0
  0
ENDBLK
  5
2A53
330
2A32
100
AcDbEntity
  8
0
100
AcDbBlockEnd
  0
BLOCK
  5
2A6D
330
2A6C
100
AcDbEntity
  8
0
100
AcDbBlockBegin
  2
A3縦用_タイトル
 70
     0
 10
0.0
 20
0.0
 30
0.0
  3
A3縦用_タイトル
  1

  0
MTEXT
  5
2A6E
330
2A6C
100
AcDbEntity
  8
図枠細線
100
AcDbMText
 10
5.040804501593
 20
31.626098649005
 30
0.0
 40
2.5
 41
49.938282706292
 71
     1
 72
     5
  1
{\Fmonotxt.shx,bigfont.shx|c128;図暦　CHANGE　NOTICE}
  0
LINE
  5
2A6F
330
2A6C
100
AcDbEntity
  8
図枠太線
  6
CONTINUOUS
 62
   251
100
AcDbLine
 10
283.577871882961
 20
2.820844689254
 30
0.0
 11
283.577871882961
 21
32.820842689254
 31
0.0
  0
MTEXT
  5
2A70
330
2A6C
100
AcDbEntity
  8
図枠細線
 48
10.0
100
AcDbMText
 10
214.912458947454
 20
31.621488632308
 30
0.0
 40
2.5
 41
28.002809618823
 71
     1
 72
     5
  1
{\Fmonotxt.shx,bigfont.shx|c128;名称　TITLE}
  0
MTEXT
  5
2A71
330
2A6C
100
AcDbEntity
  8
図枠細線
 48
10.0
100
AcDbMText
 10
214.740030458938
 20
16.310225796722
 30
0.0
 40
2.5
 41
24.385612216707
 71
     1
 72
     5
  1
{\Fmonotxt.shx,bigfont.shx|c128;図面番号\PDRG.　No.}
  0
LINE
  5
2A72
330
2A6C
100
AcDbEntity
  8
図枠太線
  6
CONTINUOUS
 62
   251
100
AcDbLine
 10
213.577871882961
 20
2.820844689254
 30
0.0
 11
213.577871882961
 21
32.820842689254
 31
0.0
  0
LINE
  5
2A73
330
2A6C
100
AcDbEntity
  8
図枠太線
  6
CONTINUOUS
 62
   251
100
AcDbLine
 10
143.577871882961
 20
2.820844689254
 30
0.0
 11
143.577871882961
 21
32.820842689254
 31
0.0
  0
TEXT
  5
2A74
330
2A6C
100
AcDbEntity
  8
図枠細線
  6
CONTINUOUS
 62
   252
100
AcDbText
 10
145.716454488093
 20
4.468335689254
 30
0.0
 40
3.5
  1
ＴＯＷＡ　ＳＥＩＤＥＮ　ＩＮＤＵＳＴＲＩＡＬ　ＣＯ．，ＬＴＤ．
 41
0.528937826907
  7
EXCADSTD
 72
     5
 11
212.856295983498
 21
4.468335689254
 31
0.0
100
AcDbText
  0
TEXT
  5
2A75
330
2A6C
100
AcDbEntity
  8
図枠ロゴマーク
  6
CONTINUOUS
 62
   253
100
AcDbText
 10
145.950637593507
 20
9.413236689254
 30
0.0
 40
7.0
  1
東和制電工業株式会社
 41
0.80361088462
  7
EXCADSTD
 72
     5
 11
211.953878250259
 21
9.413236689254
 31
0.0
100
AcDbText
  0
LINE
  5
2A76
330
2A6C
100
AcDbEntity
  8
図枠細線
  6
CONTINUOUS
 62
   252
100
AcDbLine
 10
143.577871882961
 20
25.320842689254
 30
0.0
 11
213.577871882961
 21
25.320842689254
 31
0.0
  0
LINE
  5
2A77
330
2A6C
100
AcDbEntity
  8
図枠太線
  6
CONTINUOUS
 62
   251
100
AcDbLine
 10
143.577863882961
 20
17.820842689254
 30
0.0
 11
213.577871882961
 21
17.820842689254
 31
0.0
  0
LINE
  5
2A78
330
2A6C
100
AcDbEntity
  8
図枠細線
  6
CONTINUOUS
 62
   252
100
AcDbLine
 10
213.577871882961
 20
17.820842689254
 30
0.0
 11
283.577871882961
 21
17.820842689254
 31
0.0
  0
LINE
  5
2A79
330
2A6C
100
AcDbEntity
  8
図枠細線
  6
CONTINUOUS
 62
   252
100
AcDbLine
 10
120.577871882961
 20
32.820842689254
 30
0.0
 11
120.577871882961
 21
17.820842689254
 31
0.0
  0
MTEXT
  5
2A7A
330
2A6C
100
AcDbEntity
  8
図枠細線
 48
10.0
100
AcDbMText
 10
121.100885670352
 20
16.33785922638
 30
0.0
 40
2.0
 41
17.705978285068
 71
     1
 72
     5
  1
{\Fmonotxt.shx,bigfont.shx|c128;日付 DATE}
  0
MTEXT
  5
2A7B
330
2A6C
100
AcDbEntity
  8
図枠細線
 48
10.0
100
AcDbMText
 10
121.254842273491
 20
31.208993514037
 30
0.0
 40
2.0
 41
18.363799568758
 71
     1
 72
     5
  1
{\Fmonotxt.shx,bigfont.shx|c128;製図　DRAWN}
  0
LINE
  5
2A7C
330
2A6C
100
AcDbEntity
  8
図枠細線
  6
CONTINUOUS
 62
   252
100
AcDbLine
 10
97.577871882961
 20
32.820842689254
 30
0.0
 11
97.577871882961
 21
17.820842689254
 31
0.0
  0
MTEXT
  5
2A7D
330
2A6C
100
AcDbEntity
  8
図枠細線
 48
10.0
100
AcDbMText
 10
98.239734796872
 20
16.467764839281
 30
0.0
 40
2.0
 41
17.757791689903
 71
     1
 72
     5
  1
{\Fmonotxt.shx,bigfont.shx|c128;尺度　SCALE}
  0
MTEXT
  5
2A7E
330
2A6C
100
AcDbEntity
  8
図枠細線
 48
10.0
100
AcDbMText
 10
97.864744625154
 20
31.298433377664
 30
0.0
 40
2.0
 41
23.162655920976
 71
     1
 72
     5
  1
{\Fmonotxt.shx,bigfont.shx|c128;検図  CHECKED}
  0
LINE
  5
2A7F
330
2A6C
100
AcDbEntity
  8
図枠細線
  6
CONTINUOUS
 62
   252
100
AcDbLine
 10
97.577871882961
 20
2.820843367826
 30
0.0
 11
97.577871882961
 21
17.820841367826
 31
0.0
  0
LINE
  5
2A80
330
2A6C
100
AcDbEntity
  8
図枠細線
  6
CONTINUOUS
 62
   252
100
AcDbLine
 10
120.577871882961
 20
2.820844010683
 30
0.0
 11
120.577871882961
 21
17.820842010683
 31
0.0
  0
MTEXT
  5
2A81
330
2A6C
100
AcDbEntity
  8
図枠細線
 48
10.0
100
AcDbMText
 10
81.402399084102
 20
16.316484117426
 30
0.0
 40
2.0
 41
12.920322819369
 71
     1
 72
     5
  1
{\Fmonotxt.shx,bigfont.shx|c128;第三角法}
  0
MTEXT
  5
2A82
330
2A6C
100
AcDbEntity
  8
図枠細線
 48
10.0
100
AcDbMText
 10
75.736576535096
 20
11.080410931319
 30
0.0
 40
2.0
 41
21.072870671471
 71
     1
 72
     5
  1
{\Fmonotxt.shx,bigfont.shx|c128;THIRD ANGLE\PPROJECTION}
  0
LINE
  5
2A83
330
2A6C
100
AcDbEntity
  8
図枠太線
  6
CONTINUOUS
 62
   251
100
AcDbLine
 10
74.577871882961
 20
2.820844689254
 30
0.0
 11
74.577871882961
 21
32.820842689254
 31
0.0
  0
MTEXT
  5
2A84
330
2A6C
100
AcDbEntity
  8
図枠細線
 48
10.0
100
AcDbMText
 10
75.060214781573
 20
31.298434778555
 30
0.0
 40
2.0
 41
22.240928805967
 71
     1
 72
     5
  1
{\Fmonotxt.shx,bigfont.shx|c128;承認 APPROVED}
  0
LINE
  5
2A85
330
2A6C
100
AcDbEntity
  8
図枠細線
  6
CONTINUOUS
100
AcDbLine
 10
3.577871882961
 20
17.820844689254
 30
0.0
 11
74.577871882961
 21
17.820844689254
 31
0.0
  0
LINE
  5
2A86
330
2A6C
100
AcDbEntity
  8
図枠細線
  6
CONTINUOUS
 62
   252
100
AcDbLine
 10
3.577871882961
 20
27.820842689254
 30
0.0
 11
74.577871882961
 21
27.820842689254
 31
0.0
  0
LINE
  5
2A87
330
2A6C
100
AcDbEntity
  8
図枠細線
  6
CONTINUOUS
 62
   252
100
AcDbLine
 10
3.577871882961
 20
22.820842689254
 30
0.0
 11
74.577871882961
 21
22.820842689254
 31
0.0
  0
LINE
  5
2A88
330
2A6C
100
AcDbEntity
  8
図枠細線
  6
CONTINUOUS
 62
   252
100
AcDbLine
 10
3.577871882961
 20
12.820842689254
 30
0.0
 11
74.577871882961
 21
12.820842689254
 31
0.0
  0
LINE
  5
2A89
330
2A6C
100
AcDbEntity
  8
図枠細線
  6
CONTINUOUS
 62
   252
100
AcDbLine
 10
3.577871882961
 20
7.820844689254
 30
0.0
 11
74.577871882961
 21
7.820844689254
 31
0.0
  0
LINE
  5
2A8A
330
2A6C
100
AcDbEntity
  8
図枠細線
  6
CONTINUOUS
100
AcDbLine
 10
74.577871882961
 20
17.820843689254
 30
0.0
 11
143.577871882961
 21
17.820841224969
 31
0.0
  0
LINE
  5
2A8B
330
2A6C
100
AcDbEntity
  8
図枠太線
  6
CONTINUOUS
 62
   251
100
AcDbLine
 10
3.577871882961
 20
2.820844689254
 30
0.0
 11
283.577871882961
 21
2.820844689254
 31
0.0
  0
LINE
  5
2A8C
330
2A6C
100
AcDbEntity
  8
図枠太線
  6
CONTINUOUS
 62
   251
100
AcDbLine
 10
3.577871882961
 20
2.820844689254
 30
0.0
 11
3.577871882961
 21
32.820842689254
 31
0.0
  0
ENDBLK
  5
2A8D
330
2A6C
100
AcDbEntity
  8
0
100
AcDbBlockEnd
  0
BLOCK
  5
2AF8
330
2AF4
100
AcDbEntity
  8
0
 48
10.0
100
AcDbBlockBegin
  2
_OPEN30
 70
     0
 10
0.0
 20
0.0
 30
0.0
  3
_OPEN30
  1

  0
LINE
  5
2AF5
330
2AF4
100
AcDbEntity
  8
0
  6
BYBLOCK
 62
     0
100
AcDbLine
 10
-1.0
 20
0.26794919
 30
0.0
 11
0.0
 21
0.0
 31
0.0
  0
LINE
  5
2AF6
330
2AF4
100
AcDbEntity
  8
0
  6
BYBLOCK
 62
     0
100
AcDbLine
 10
0.0
 20
0.0
 30
0.0
 11
-1.0
 21
-0.26794919
 31
0.0
  0
LINE
  5
2AF7
330
2AF4
100
AcDbEntity
  8
0
  6
BYBLOCK
 62
     0
100
AcDbLine
 10
0.0
 20
0.0
 30
0.0
 11
-1.0
 21
0.0
 31
0.0
  0
ENDBLK
  5
2AF9
330
2AF4
100
AcDbEntity
  8
0
 48
10.0
100
AcDbBlockEnd
  0
BLOCK
  5
4376
330
436C
100
AcDbEntity
  8
0
 48
10.0
100
AcDbBlockBegin
  2
*D6
 70
     1
 10
0.0
 20
0.0
 30
0.0
  3
*D6
  1

  0
LINE
  5
4BF0
330
436C
100
AcDbEntity
  8
寸法線
 62
     0
 48
10.0
100
AcDbLine
 10
341.803740587346
 20
383.96314857328
 30
0.0
 11
341.803740587346
 21
305.212456237265
 31
0.0
  0
LINE
  5
4BF1
330
436C
100
AcDbEntity
  8
寸法線
 62
     0
 48
10.0
100
AcDbLine
 10
366.803740587346
 20
380.77264857328
 30
0.0
 11
366.803740587346
 21
305.212456237265
 31
0.0
  0
LINE
  5
4BF2
330
436C
100
AcDbEntity
  8
寸法線
 62
     0
 48
10.0
100
AcDbLine
 10
347.803740587346
 20
306.462456237265
 30
0.0
 11
360.803740587346
 21
306.462456237265
 31
0.0
  0
INSERT
  5
4BF3
330
436C
100
AcDbEntity
  8
寸法線
 62
     0
100
AcDbBlockReference
  2
_OPEN30
 10
341.803740587346
 20
306.462456237265
 30
0.0
 41
6.0
 42
6.0
 43
6.0
 50
180.0
  0
INSERT
  5
4BF4
330
436C
100
AcDbEntity
  8
寸法線
 62
     0
100
AcDbBlockReference
  2
_OPEN30
 10
366.803740587346
 20
306.462456237265
 30
0.0
 41
6.0
 42
6.0
 43
6.0
  0
MTEXT
  5
4BF5
330
436C
100
AcDbEntity
  8
寸法線
 62
     0
 48
10.0
100
AcDbMText
 10
354.303740587346
 20
311.091622903932
 30
0.0
 40
8.0
 41
0.0
 71
     5
 72
     1
  1
\A1;25
  0
POINT
  5
4BF6
330
436C
100
AcDbEntity
  8
DEFPOINTS
 62
     0
100
AcDbPoint
 10
341.803740587346
 20
384.58814857328
 30
0.0
  0
POINT
  5
4BF7
330
436C
100
AcDbEntity
  8
DEFPOINTS
 62
     0
100
AcDbPoint
 10
366.803740587346
 20
381.39764857328
 30
0.0
  0
POINT
  5
4BF8
330
436C
100
AcDbEntity
  8
DEFPOINTS
 62
     0
100
AcDbPoint
 10
366.803740587346
 20
306.462456237265
 30
0.0
  0
ENDBLK
  5
4377
330
436C
100
AcDbEntity
  8
0
 48
10.0
100
AcDbBlockEnd
  0
BLOCK
  5
4383
330
4379
100
AcDbEntity
  8
0
 48
10.0
100
AcDbBlockBegin
  2
*D7
 70
     1
 10
0.0
 20
0.0
 30
0.0
  3
*D7
  1

  0
LINE
  5
4BE7
330
4379
100
AcDbEntity
  8
寸法線
 62
     0
 48
10.0
100
AcDbLine
 10
366.803740587346
 20
380.77264857328
 30
0.0
 11
366.803740587346
 21
305.212456237265
 31
0.0
  0
LINE
  5
4BE8
330
4379
100
AcDbEntity
  8
寸法線
 62
     0
 48
10.0
100
AcDbLine
 10
386.803740587346
 20
380.71264857328
 30
0.0
 11
386.803740587346
 21
305.212456237265
 31
0.0
  0
LINE
  5
4BE9
330
4379
100
AcDbEntity
  8
寸法線
 62
     0
 48
10.0
100
AcDbLine
 10
372.803740587346
 20
306.462456237265
 30
0.0
 11
380.803740587346
 21
306.462456237265
 31
0.0
  0
INSERT
  5
4BEA
330
4379
100
AcDbEntity
  8
寸法線
 62
     0
100
AcDbBlockReference
  2
_OPEN30
 10
366.803740587346
 20
306.462456237265
 30
0.0
 41
6.0
 42
6.0
 43
6.0
 50
180.0
  0
INSERT
  5
4BEB
330
4379
100
AcDbEntity
  8
寸法線
 62
     0
100
AcDbBlockReference
  2
_OPEN30
 10
386.803740587346
 20
306.462456237265
 30
0.0
 41
6.0
 42
6.0
 43
6.0
  0
MTEXT
  5
4BEC
330
4379
100
AcDbEntity
  8
寸法線
 62
     0
 48
10.0
100
AcDbMText
 10
376.803740587346
 20
311.091622903932
 30
0.0
 40
8.0
 41
0.0
 71
     5
 72
     1
  1
\A1;20
  0
POINT
  5
4BED
330
4379
100
AcDbEntity
  8
DEFPOINTS
 62
     0
100
AcDbPoint
 10
366.803740587346
 20
381.39764857328
 30
0.0
  0
POINT
  5
4BEE
330
4379
100
AcDbEntity
  8
DEFPOINTS
 62
     0
100
AcDbPoint
 10
386.803740587346
 20
381.33764857328
 30
0.0
  0
POINT
  5
4BEF
330
4379
100
AcDbEntity
  8
DEFPOINTS
 62
     0
100
AcDbPoint
 10
386.803740587346
 20
306.462456237265
 30
0.0
  0
ENDBLK
  5
4384
330
4379
100
AcDbEntity
  8
0
 48
10.0
100
AcDbBlockEnd
  0
BLOCK
  5
44F7
330
44ED
100
AcDbEntity
  8
0
 48
10.0
100
AcDbBlockBegin
  2
*D8
 70
     1
 10
0.0
 20
0.0
 30
0.0
  3
*D8
  1

  0
LINE
  5
4BDE
330
44ED
100
AcDbEntity
  8
寸法線
 62
     0
 48
10.0
100
AcDbLine
 10
442.551779297477
 20
439.337685684956
 30
0.0
 11
505.415272331073
 21
439.337685684956
 31
0.0
  0
LINE
  5
4BDF
330
44ED
100
AcDbEntity
  8
寸法線
 62
     0
 48
10.0
100
AcDbLine
 10
463.070740587346
 20
354.33764857328
 30
0.0
 11
505.415272331073
 21
354.33764857328
 31
0.0
  0
LINE
  5
4BE0
330
44ED
100
AcDbEntity
  8
寸法線
 62
     0
 48
10.0
100
AcDbLine
 10
504.165272331073
 20
433.337685684956
 30
0.0
 11
504.165272331073
 21
360.33764857328
 31
0.0
  0
INSERT
  5
4BE1
330
44ED
100
AcDbEntity
  8
寸法線
 62
     0
100
AcDbBlockReference
  2
_OPEN30
 10
504.165272331073
 20
439.337685684956
 30
0.0
 41
6.0
 42
6.0
 43
6.0
 50
90.0
  0
INSERT
  5
4BE2
330
44ED
100
AcDbEntity
  8
寸法線
 62
     0
100
AcDbBlockReference
  2
_OPEN30
 10
504.165272331073
 20
354.33764857328
 30
0.0
 41
6.0
 42
6.0
 43
6.0
 50
270.0
  0
MTEXT
  5
4BE3
330
44ED
100
AcDbEntity
  8
寸法線
 62
     0
 48
10.0
100
AcDbMText
 10
499.531938997739
 20
396.837667129118
 30
0.0
 40
8.0
 41
0.0
 71
     5
 72
     1
  1
\A1;85
 11
0.0
 21
1.0
 31
0.0
  0
POINT
  5
4BE4
330
44ED
100
AcDbEntity
  8
DEFPOINTS
 62
     0
100
AcDbPoint
 10
441.926779297477
 20
439.337685684956
 30
0.0
  0
POINT
  5
4BE5
330
44ED
100
AcDbEntity
  8
DEFPOINTS
 62
     0
100
AcDbPoint
 10
462.445740587346
 20
354.33764857328
 30
0.0
  0
POINT
  5
4BE6
330
44ED
100
AcDbEntity
  8
DEFPOINTS
 62
     0
100
AcDbPoint
 10
504.165272331073
 20
354.33764857328
 30
0.0
  0
ENDBLK
  5
44F8
330
44ED
100
AcDbEntity
  8
0
 48
10.0
100
AcDbBlockEnd
  0
BLOCK
  5
4504
330
44FA
100
AcDbEntity
  8
0
 48
10.0
100
AcDbBlockBegin
  2
*D9
 70
     1
 10
0.0
 20
0.0
 30
0.0
  3
*D9
  1

  0
LINE
  5
4BD5
330
44FA
100
AcDbEntity
  8
寸法線
 62
     0
 48
10.0
100
AcDbLine
 10
341.803740587346
 20
383.96314857328
 30
0.0
 11
341.803740587346
 21
285.212456237265
 31
0.0
  0
LINE
  5
4BD6
330
44FA
100
AcDbEntity
  8
寸法線
 62
     0
 48
10.0
100
AcDbLine
 10
476.80377616102
 20
372.708979870723
 30
0.0
 11
476.80377616102
 21
285.212456237265
 31
0.0
  0
LINE
  5
4BD7
330
44FA
100
AcDbEntity
  8
寸法線
 62
     0
 48
10.0
100
AcDbLine
 10
347.803740587346
 20
286.462456237265
 30
0.0
 11
470.80377616102
 21
286.462456237265
 31
0.0
  0
INSERT
  5
4BD8
330
44FA
100
AcDbEntity
  8
寸法線
 62
     0
100
AcDbBlockReference
  2
_OPEN30
 10
341.803740587346
 20
286.462456237265
 30
0.0
 41
6.0
 42
6.0
 43
6.0
 50
180.0
  0
INSERT
  5
4BD9
330
44FA
100
AcDbEntity
  8
寸法線
 62
     0
100
AcDbBlockReference
  2
_OPEN30
 10
476.80377616102
 20
286.462456237265
 30
0.0
 41
6.0
 42
6.0
 43
6.0
  0
MTEXT
  5
4BDA
330
44FA
100
AcDbEntity
  8
寸法線
 62
     0
 48
10.0
100
AcDbMText
 10
409.303758374183
 20
291.091622903932
 30
0.0
 40
8.0
 41
0.0
 71
     5
 72
     1
  1
\A1;135
  0
POINT
  5
4BDB
330
44FA
100
AcDbEntity
  8
DEFPOINTS
 62
     0
100
AcDbPoint
 10
341.803740587346
 20
384.58814857328
 30
0.0
  0
POINT
  5
4BDC
330
44FA
100
AcDbEntity
  8
DEFPOINTS
 62
     0
100
AcDbPoint
 10
476.80377616102
 20
373.333979870723
 30
0.0
  0
POINT
  5
4BDD
330
44FA
100
AcDbEntity
  8
DEFPOINTS
 62
     0
100
AcDbPoint
 10
476.80377616102
 20
286.462456237265
 30
0.0
  0
ENDBLK
  5
4505
330
44FA
100
AcDbEntity
  8
0
 48
10.0
100
AcDbBlockEnd
  0
BLOCK
  5
45F8
330
45EE
100
AcDbEntity
  8
0
 48
10.0
100
AcDbBlockBegin
  2
*D10
 70
     1
 10
0.0
 20
0.0
 30
0.0
  3
*D10
  1

  0
LINE
  5
4BCC
330
45EE
100
AcDbEntity
  8
寸法線
 62
     0
 48
10.0
100
AcDbLine
 10
386.803740587346
 20
380.71264857328
 30
0.0
 11
386.803740587346
 21
305.212456237265
 31
0.0
  0
LINE
  5
4BCD
330
45EE
100
AcDbEntity
  8
寸法線
 62
     0
 48
10.0
100
AcDbLine
 10
476.80377616102
 20
372.708979870723
 30
0.0
 11
476.80377616102
 21
305.212456237265
 31
0.0
  0
LINE
  5
4BCE
330
45EE
100
AcDbEntity
  8
寸法線
 62
     0
 48
10.0
100
AcDbLine
 10
392.803740587346
 20
306.462456237265
 30
0.0
 11
470.80377616102
 21
306.462456237265
 31
0.0
  0
INSERT
  5
4BCF
330
45EE
100
AcDbEntity
  8
寸法線
 62
     0
100
AcDbBlockReference
  2
_OPEN30
 10
386.803740587346
 20
306.462456237265
 30
0.0
 41
6.0
 42
6.0
 43
6.0
 50
180.0
  0
INSERT
  5
4BD0
330
45EE
100
AcDbEntity
  8
寸法線
 62
     0
100
AcDbBlockReference
  2
_OPEN30
 10
476.80377616102
 20
306.462456237265
 30
0.0
 41
6.0
 42
6.0
 43
6.0
  0
MTEXT
  5
4BD1
330
45EE
100
AcDbEntity
  8
寸法線
 62
     0
 48
10.0
100
AcDbMText
 10
431.803758374183
 20
311.087456237265
 30
0.0
 40
8.0
 41
0.0
 71
     5
 72
     1
  1
\A1;90
  0
POINT
  5
4BD2
330
45EE
100
AcDbEntity
  8
DEFPOINTS
 62
     0
100
AcDbPoint
 10
386.803740587346
 20
381.33764857328
 30
0.0
  0
POINT
  5
4BD3
330
45EE
100
AcDbEntity
  8
DEFPOINTS
 62
     0
100
AcDbPoint
 10
476.80377616102
 20
373.333979870723
 30
0.0
  0
POINT
  5
4BD4
330
45EE
100
AcDbEntity
  8
DEFPOINTS
 62
     0
100
AcDbPoint
 10
476.80377616102
 20
306.462456237265
 30
0.0
  0
ENDBLK
  5
45F9
330
45EE
100
AcDbEntity
  8
0
 48
10.0
100
AcDbBlockEnd
  0
BLOCK
  5
499E
330
4995
100
AcDbEntity
  8
0
 48
10.0
100
AcDbBlockBegin
  2
*D12
 70
     1
 10
0.0
 20
0.0
 30
0.0
  3
*D12
  1

  0
LINE
  5
4BBA
330
4995
100
AcDbEntity
  8
寸法線
 62
     0
 48
10.0
100
AcDbLine
 10
316.668518262253
 20
411.714867613336
 30
0.0
 11
316.668518262253
 21
443.263886371619
 31
0.0
  0
LINE
  5
4BBB
330
4995
100
AcDbEntity
  8
寸法線
 62
     0
 48
10.0
100
AcDbLine
 10
316.668518262253
 20
405.714867613336
 30
0.0
 11
316.668518262253
 21
396.214867613336
 31
0.0
  0
INSERT
  5
4BBC
330
4995
100
AcDbEntity
  8
寸法線
 62
     0
100
AcDbBlockReference
  2
_OPEN30
 10
316.668518262253
 20
411.714867613336
 30
0.0
 41
6.0
 42
6.0
 43
6.0
 50
90.0
  0
INSERT
  5
4BBD
330
4995
100
AcDbEntity
  8
寸法線
 62
     0
100
AcDbBlockReference
  2
_OPEN30
 10
316.668518262253
 20
390.214867613336
 30
0.0
 41
6.0
 42
6.0
 43
6.0
 50
270.0
  0
MTEXT
  5
4BBE
330
4995
100
AcDbEntity
  8
寸法線
 62
     0
 48
10.0
100
AcDbMText
 10
312.039351595587
 20
430.705553038286
 30
0.0
 40
8.0
 41
0.0
 71
     5
 72
     1
  1
\A1;φ21.5
 11
0.0
 21
1.0
 31
0.0
  0
POINT
  5
4BBF
330
4995
100
AcDbEntity
  8
DEFPOINTS
 62
     0
100
AcDbPoint
 10
328.33238442067
 20
411.714867613336
 30
0.0
  0
POINT
  5
4BC0
330
4995
100
AcDbEntity
  8
DEFPOINTS
 62
     0
100
AcDbPoint
 10
328.33238442067
 20
390.214867613336
 30
0.0
  0
POINT
  5
4BC1
330
4995
100
AcDbEntity
  8
DEFPOINTS
 62
     0
100
AcDbPoint
 10
316.668518262254
 20
390.214867613336
 30
0.0
  0
ENDBLK
  5
499F
330
4995
100
AcDbEntity
  8
0
 48
10.0
100
AcDbBlockEnd
  0
BLOCK
  5
49A9
330
49A0
100
AcDbEntity
  8
0
 48
10.0
100
AcDbBlockBegin
  2
*D13
 70
     1
 10
0.0
 20
0.0
 30
0.0
  3
*D13
  1

  0
LINE
  5
4BB2
330
49A0
100
AcDbEntity
  8
寸法線
 62
     0
 48
10.0
100
AcDbLine
 10
229.165272331073
 20
411.714867613336
 30
0.0
 11
229.165272331073
 21
443.263886371619
 31
0.0
  0
LINE
  5
4BB3
330
49A0
100
AcDbEntity
  8
寸法線
 62
     0
 48
10.0
100
AcDbLine
 10
229.165272331073
 20
405.714867613336
 30
0.0
 11
229.165272331073
 21
396.214867613336
 31
0.0
  0
INSERT
  5
4BB4
330
49A0
100
AcDbEntity
  8
寸法線
 62
     0
100
AcDbBlockReference
  2
_OPEN30
 10
229.165272331073
 20
411.714867613336
 30
0.0
 41
6.0
 42
6.0
 43
6.0
 50
90.0
  0
INSERT
  5
4BB5
330
49A0
100
AcDbEntity
  8
寸法線
 62
     0
100
AcDbBlockReference
  2
_OPEN30
 10
229.165272331073
 20
390.214867613336
 30
0.0
 41
6.0
 42
6.0
 43
6.0
 50
270.0
  0
MTEXT
  5
4BB6
330
49A0
100
AcDbEntity
  8
寸法線
 62
     0
 48
10.0
100
AcDbMText
 10
224.536105664406
 20
430.705553038286
 30
0.0
 40
8.0
 41
0.0
 71
     5
 72
     1
  1
\A1;φ21.5
 11
0.0
 21
1.0
 31
0.0
  0
POINT
  5
4BB7
330
49A0
100
AcDbEntity
  8
DEFPOINTS
 62
     0
100
AcDbPoint
 10
241.803740587346
 20
411.714867613336
 30
0.0
  0
POINT
  5
4BB8
330
49A0
100
AcDbEntity
  8
DEFPOINTS
 62
     0
100
AcDbPoint
 10
241.803740587346
 20
390.214867613336
 30
0.0
  0
POINT
  5
4BB9
330
49A0
100
AcDbEntity
  8
DEFPOINTS
 62
     0
100
AcDbPoint
 10
229.165272331073
 20
390.214867613336
 30
0.0
  0
ENDBLK
  5
49AA
330
49A0
100
AcDbEntity
  8
0
 48
10.0
100
AcDbBlockEnd
  0
BLOCK
  5
49B4
330
49AB
100
AcDbEntity
  8
0
 48
10.0
100
AcDbBlockBegin
  2
*D14
 70
     1
 10
0.0
 20
0.0
 30
0.0
  3
*D14
  1

  0
LINE
  5
4BAA
330
49AB
100
AcDbEntity
  8
寸法線
 62
     0
 48
10.0
100
AcDbLine
 10
91.803740587346
 20
393.339867613336
 30
0.0
 11
91.803740587346
 21
305.212456237265
 31
0.0
  0
LINE
  5
4BAB
330
49AB
100
AcDbEntity
  8
寸法線
 62
     0
 48
10.0
100
AcDbLine
 10
191.803740587346
 20
390.089867613336
 30
0.0
 11
191.803740587346
 21
305.212456237265
 31
0.0
  0
LINE
  5
4BAC
330
49AB
100
AcDbEntity
  8
寸法線
 62
     0
 48
10.0
100
AcDbLine
 10
97.803740587346
 20
306.462456237265
 30
0.0
 11
185.803740587346
 21
306.462456237265
 31
0.0
  0
INSERT
  5
4BAD
330
49AB
100
AcDbEntity
  8
寸法線
 62
     0
100
AcDbBlockReference
  2
_OPEN30
 10
91.803740587346
 20
306.462456237265
 30
0.0
 41
6.0
 42
6.0
 43
6.0
 50
180.0
  0
INSERT
  5
4BAE
330
49AB
100
AcDbEntity
  8
寸法線
 62
     0
100
AcDbBlockReference
  2
_OPEN30
 10
191.803740587346
 20
306.462456237265
 30
0.0
 41
6.0
 42
6.0
 43
6.0
  0
POINT
  5
4BAF
330
49AB
100
AcDbEntity
  8
DEFPOINTS
 62
     0
100
AcDbPoint
 10
91.803740587346
 20
393.964867613336
 30
0.0
  0
POINT
  5
4BB0
330
49AB
100
AcDbEntity
  8
DEFPOINTS
 62
     0
100
AcDbPoint
 10
191.803740587346
 20
390.714867613336
 30
0.0
  0
POINT
  5
4BB1
330
49AB
100
AcDbEntity
  8
DEFPOINTS
 62
     0
100
AcDbPoint
 10
191.803740587346
 20
306.462456237265
 30
0.0
  0
ENDBLK
  5
49B5
330
49AB
100
AcDbEntity
  8
0
 48
10.0
100
AcDbBlockEnd
  0
BLOCK
  5
49BF
330
49B6
100
AcDbEntity
  8
0
 48
10.0
100
AcDbBlockBegin
  2
*D15
 70
     1
 10
0.0
 20
0.0
 30
0.0
  3
*D15
  1

  0
LINE
  5
4BA2
330
49B6
100
AcDbEntity
  8
寸法線
 62
     0
 48
10.0
100
AcDbLine
 10
191.803740587346
 20
390.089867613336
 30
0.0
 11
191.803740587346
 21
305.212456237265
 31
0.0
  0
LINE
  5
4BA3
330
49B6
100
AcDbEntity
  8
寸法線
 62
     0
 48
10.0
100
AcDbLine
 10
241.803740587346
 20
389.589867613336
 30
0.0
 11
241.803740587346
 21
305.212456237265
 31
0.0
  0
LINE
  5
4BA4
330
49B6
100
AcDbEntity
  8
寸法線
 62
     0
 48
10.0
100
AcDbLine
 10
197.803740587346
 20
306.462456237265
 30
0.0
 11
235.803740587346
 21
306.462456237265
 31
0.0
  0
INSERT
  5
4BA5
330
49B6
100
AcDbEntity
  8
寸法線
 62
     0
100
AcDbBlockReference
  2
_OPEN30
 10
191.803740587346
 20
306.462456237265
 30
0.0
 41
6.0
 42
6.0
 43
6.0
 50
180.0
  0
INSERT
  5
4BA6
330
49B6
100
AcDbEntity
  8
寸法線
 62
     0
100
AcDbBlockReference
  2
_OPEN30
 10
241.803740587346
 20
306.462456237265
 30
0.0
 41
6.0
 42
6.0
 43
6.0
  0
POINT
  5
4BA7
330
49B6
100
AcDbEntity
  8
DEFPOINTS
 62
     0
100
AcDbPoint
 10
191.803740587346
 20
390.714867613336
 30
0.0
  0
POINT
  5
4BA8
330
49B6
100
AcDbEntity
  8
DEFPOINTS
 62
     0
100
AcDbPoint
 10
241.803740587346
 20
390.214867613336
 30
0.0
  0
POINT
  5
4BA9
330
49B6
100
AcDbEntity
  8
DEFPOINTS
 62
     0
100
AcDbPoint
 10
241.803740587346
 20
306.462456237265
 30
0.0
  0
ENDBLK
  5
49C0
330
49B6
100
AcDbEntity
  8
0
 48
10.0
100
AcDbBlockEnd
  0
BLOCK
  5
49CA
330
49C1
100
AcDbEntity
  8
0
 48
10.0
100
AcDbBlockBegin
  2
*D16
 70
     1
 10
0.0
 20
0.0
 30
0.0
  3
*D16
  1

  0
LINE
  5
4B9A
330
49C1
100
AcDbEntity
  8
寸法線
 62
     0
 48
10.0
100
AcDbLine
 10
241.803740587346
 20
389.589867613336
 30
0.0
 11
241.803740587346
 21
305.212456237265
 31
0.0
  0
LINE
  5
4B9B
330
49C1
100
AcDbEntity
  8
寸法線
 62
     0
 48
10.0
100
AcDbLine
 10
341.803740587346
 20
384.590367613336
 30
0.0
 11
341.803740587346
 21
305.212456237265
 31
0.0
  0
LINE
  5
4B9C
330
49C1
100
AcDbEntity
  8
寸法線
 62
     0
 48
10.0
100
AcDbLine
 10
247.803740587346
 20
306.462456237265
 30
0.0
 11
335.803740587346
 21
306.462456237265
 31
0.0
  0
INSERT
  5
4B9D
330
49C1
100
AcDbEntity
  8
寸法線
 62
     0
100
AcDbBlockReference
  2
_OPEN30
 10
241.803740587346
 20
306.462456237265
 30
0.0
 41
6.0
 42
6.0
 43
6.0
 50
180.0
  0
INSERT
  5
4B9E
330
49C1
100
AcDbEntity
  8
寸法線
 62
     0
100
AcDbBlockReference
  2
_OPEN30
 10
341.803740587346
 20
306.462456237265
 30
0.0
 41
6.0
 42
6.0
 43
6.0
  0
POINT
  5
4B9F
330
49C1
100
AcDbEntity
  8
DEFPOINTS
 62
     0
100
AcDbPoint
 10
241.803740587346
 20
390.214867613336
 30
0.0
  0
POINT
  5
4BA0
330
49C1
100
AcDbEntity
  8
DEFPOINTS
 62
     0
100
AcDbPoint
 10
341.803740587346
 20
385.215367613336
 30
0.0
  0
POINT
  5
4BA1
330
49C1
100
AcDbEntity
  8
DEFPOINTS
 62
     0
100
AcDbPoint
 10
341.803740587346
 20
306.462456237265
 30
0.0
  0
ENDBLK
  5
49CB
330
49C1
100
AcDbEntity
  8
0
 48
10.0
100
AcDbBlockEnd
  0
BLOCK
  5
49D5
330
49CC
100
AcDbEntity
  8
0
 48
10.0
100
AcDbBlockBegin
  2
*D17
 70
     1
 10
0.0
 20
0.0
 30
0.0
  3
*D17
  1

  0
LINE
  5
4B92
330
49CC
100
AcDbEntity
  8
寸法線
 62
     0
 48
10.0
100
AcDbLine
 10
91.803740587346
 20
393.339867613336
 30
0.0
 11
91.803740587346
 21
285.212456237265
 31
0.0
  0
LINE
  5
4B93
330
49CC
100
AcDbEntity
  8
寸法線
 62
     0
 48
10.0
100
AcDbLine
 10
341.803740587346
 20
384.590367613336
 30
0.0
 11
341.803740587346
 21
285.212456237265
 31
0.0
  0
LINE
  5
4B94
330
49CC
100
AcDbEntity
  8
寸法線
 62
     0
 48
10.0
100
AcDbLine
 10
97.803740587346
 20
286.462456237265
 30
0.0
 11
335.803740587346
 21
286.462456237265
 31
0.0
  0
INSERT
  5
4B95
330
49CC
100
AcDbEntity
  8
寸法線
 62
     0
100
AcDbBlockReference
  2
_OPEN30
 10
91.803740587346
 20
286.462456237265
 30
0.0
 41
6.0
 42
6.0
 43
6.0
 50
180.0
  0
INSERT
  5
4B96
330
49CC
100
AcDbEntity
  8
寸法線
 62
     0
100
AcDbBlockReference
  2
_OPEN30
 10
341.803740587346
 20
286.462456237265
 30
0.0
 41
6.0
 42
6.0
 43
6.0
  0
POINT
  5
4B97
330
49CC
100
AcDbEntity
  8
DEFPOINTS
 62
     0
100
AcDbPoint
 10
91.803740587346
 20
393.964867613336
 30
0.0
  0
POINT
  5
4B98
330
49CC
100
AcDbEntity
  8
DEFPOINTS
 62
     0
100
AcDbPoint
 10
341.803740587346
 20
385.215367613336
 30
0.0
  0
POINT
  5
4B99
330
49CC
100
AcDbEntity
  8
DEFPOINTS
 62
     0
100
AcDbPoint
 10
341.803740587346
 20
286.462456237265
 30
0.0
  0
ENDBLK
  5
49D6
330
49CC
100
AcDbEntity
  8
0
 48
10.0
100
AcDbBlockEnd
  0
BLOCK
  5
5B2C
330
5B2B
100
AcDbEntity
  8
0
100
AcDbBlockBegin
  2
*D20
 70
     1
 10
0.0
 20
0.0
 30
0.0
  3
*D20
  1

  0
LINE
  5
5B2E
330
5B2B
100
AcDbEntity
  8
寸法線
 62
     0
 48
10.0
100
AcDbLine
 10
92.178740587346
 20
411.714867613336
 30
0.0
 11
77.915272331073
 21
411.714867613336
 31
0.0
  0
LINE
  5
5B2F
330
5B2B
100
AcDbEntity
  8
寸法線
 62
     0
 48
10.0
100
AcDbLine
 10
92.178740587346
 20
390.214867613336
 30
0.0
 11
77.915272331073
 21
390.214867613336
 31
0.0
  0
LINE
  5
5B30
330
5B2B
100
AcDbEntity
  8
寸法線
 62
     0
 48
10.0
100
AcDbLine
 10
79.165272331073
 20
411.714867613336
 30
0.0
 11
79.165272331073
 21
442.831534280003
 31
0.0
  0
LINE
  5
5B31
330
5B2B
100
AcDbEntity
  8
寸法線
 62
     0
 48
10.0
100
AcDbLine
 10
79.165272331073
 20
405.714867613336
 30
0.0
 11
79.165272331073
 21
396.214867613336
 31
0.0
  0
INSERT
  5
5B32
330
5B2B
100
AcDbEntity
  8
寸法線
 62
     0
100
AcDbBlockReference
  2
_OPEN30
 10
79.165272331073
 20
411.714867613336
 30
0.0
 41
6.0
 42
6.0
 43
6.0
 50
90.0
  0
INSERT
  5
5B33
330
5B2B
100
AcDbEntity
  8
寸法線
 62
     0
100
AcDbBlockReference
  2
_OPEN30
 10
79.165272331073
 20
390.214867613336
 30
0.0
 41
6.0
 42
6.0
 43
6.0
 50
270.0
  0
MTEXT
  5
5B34
330
5B2B
100
AcDbEntity
  8
寸法線
 62
     0
 48
10.0
100
AcDbMText
 10
74.536105664406
 20
430.27320094667
 30
0.0
 40
8.0
 41
0.0
 71
     5
 72
     1
  1
\A1;φ21.5
 11
0.0
 21
1.0
 31
0.0
  0
POINT
  5
5B35
330
5B2B
100
AcDbEntity
  8
DEFPOINTS
 62
     0
100
AcDbPoint
 10
92.803740587346
 20
411.714867613336
 30
0.0
  0
POINT
  5
5B36
330
5B2B
100
AcDbEntity
  8
DEFPOINTS
 62
     0
100
AcDbPoint
 10
92.803740587346
 20
390.214867613336
 30
0.0
  0
POINT
  5
5B37
330
5B2B
100
AcDbEntity
  8
DEFPOINTS
 62
     0
100
AcDbPoint
 10
79.165272331073
 20
390.214867613336
 30
0.0
  0
ENDBLK
  5
5B2D
330
5B2B
100
AcDbEntity
  8
0
100
AcDbBlockEnd
  0
ENDSEC
  0
SECTION
  2
ENTITIES
  0
LWPOLYLINE
  5
31A0
330
1A
100
AcDbEntity
  8
外形線
100
AcDbPolyline
 90
        4
 70
     1
 43
0.0
 10
386.803740587346
 20
381.33764857328
 10
389.803740587346
 20
381.33764857328
 10
389.803740587346
 20
419.33764857328
 10
386.803740587346
 20
419.33764857328
  0
MTEXT
  5
3E9C
102
{ACAD_XDICTIONARY
360
4FDD
102
}
330
1A
100
AcDbEntity
  8
寸法線
 48
10.0
100
AcDbMText
 10
377.059292056547
 20
484.83764842575
 30
0.0
 40
8.0
 41
0.0
 71
     7
 72
     1
  1
SETTING SCREW\PR1″\PSUS304
1001
ACADANNOTATIVE
1000
AnnotativeData
1002
{
1070
     1
1070
     0
1002
}
  0
LINE
  5
4029
102
{ACAD_REACTORS
330
45E2
102
}
330
1A
100
AcDbEntity
  8
細線
100
AcDbLine
 10
369.803740587346
 20
411.30764857328
 30
0.0
 11
383.803740587346
 21
411.30764857328
 31
0.0
  0
LINE
  5
402A
102
{ACAD_REACTORS
330
45E2
102
}
330
1A
100
AcDbEntity
  8
細線
100
AcDbLine
 10
369.803740587346
 20
389.36764857328
 30
0.0
 11
383.803740587346
 21
389.36764857328
 31
0.0
  0
LWPOLYLINE
  5
4031
102
{ACAD_REACTORS
330
45E2
102
}
330
1A
100
AcDbEntity
  8
外形線
100
AcDbPolyline
 90
        8
 70
     1
 43
0.0
 10
369.803740587346
 20
378.39764857328
 10
383.803740587346
 20
378.39764857328
 10
386.803740587346
 20
381.39764857328
 10
386.803740587346
 20
419.27764857328
 10
383.803740587346
 20
422.27764857328
 10
369.803740587346
 20
422.27764857328
 10
366.803740587346
 20
419.27764857328
 10
366.803740587346
 20
381.39764857328
  0
LINE
  5
4032
102
{ACAD_REACTORS
330
45E2
102
}
330
1A
100
AcDbEntity
  8
外形線
100
AcDbLine
 10
341.803740587346
 20
384.58814857328
 30
0.0
 11
366.803740587346
 21
383.02564857328
 31
0.0
  0
LINE
  5
4033
102
{ACAD_REACTORS
330
45E2
102
}
330
1A
100
AcDbEntity
  8
細線
100
AcDbLine
 10
341.803740587346
 20
386.06714857328
 30
0.0
 11
366.803740587346
 21
384.50464857328
 31
0.0
  0
LINE
  5
4034
102
{ACAD_REACTORS
330
45E2
102
}
330
1A
100
AcDbEntity
  8
細線
100
AcDbLine
 10
341.803740587346
 20
414.60814857328
 30
0.0
 11
366.803740587346
 21
416.17064857328
 31
0.0
  0
LINE
  5
4035
102
{ACAD_REACTORS
330
45E2
102
}
330
1A
100
AcDbEntity
  8
外形線
100
AcDbLine
 10
341.803740587346
 20
416.08714857328
 30
0.0
 11
341.803740587346
 21
384.58814857328
 31
0.0
  0
LINE
  5
4036
102
{ACAD_REACTORS
330
45E2
102
}
330
1A
100
AcDbEntity
  8
外形線
100
AcDbLine
 10
341.803740587346
 20
416.08714857328
 30
0.0
 11
366.803740587346
 21
417.64964857328
 31
0.0
  0
LINE
  5
408F
330
1A
100
AcDbEntity
  8
中心線
 48
10.0
100
AcDbLine
 10
83.63267441825
 20
400.33764857328
 30
0.0
 11
481.520861258535
 21
400.33764857328
 31
0.0
  0
ARC
  5
4255
102
{ACAD_REACTORS
330
45E2
102
}
330
1A
100
AcDbEntity
  8
細線
 48
10.0
100
AcDbCircle
 10
365.246923920679
 20
400.33764857328
 30
0.0
 40
21.55681666666653
100
AcDbArc
 50
329.410228093566
 51
30.589771906434
  0
ARC
  5
4256
102
{ACAD_REACTORS
330
45E2
102
}
330
1A
100
AcDbEntity
  8
細線
 48
10.0
100
AcDbCircle
 10
365.246923920679
 20
422.27764857328
 30
0.0
 40
21.55681666666653
100
AcDbArc
 50
329.410228093566
 51
352.495619345011
  0
ARC
  5
4259
102
{ACAD_REACTORS
330
45E2
102
}
330
1A
100
AcDbEntity
  8
細線
 48
10.0
100
AcDbCircle
 10
365.246923920679
 20
378.39764857328
 30
0.0
 40
21.55681666666653
100
AcDbArc
 50
7.504380654989
 51
30.589771906434
  0
ARC
  5
425A
102
{ACAD_REACTORS
330
45E2
102
}
330
1A
100
AcDbEntity
  8
細線
 48
10.0
100
AcDbCircle
 10
388.360557254012
 20
422.27764857328
 30
0.0
 40
21.55681666666653
100
AcDbArc
 50
187.504380654988
 51
210.589771906434
  0
ARC
  5
425B
102
{ACAD_REACTORS
330
45E2
102
}
330
1A
100
AcDbEntity
  8
細線
 48
10.0
100
AcDbCircle
 10
388.360557254012
 20
400.33764857328
 30
0.0
 40
21.55681666666653
100
AcDbArc
 50
149.410228093566
 51
210.589771906434
  0
ARC
  5
425C
102
{ACAD_REACTORS
330
45E2
102
}
330
1A
100
AcDbEntity
  8
細線
 48
10.0
100
AcDbCircle
 10
388.360557254012
 20
378.39764857328
 30
0.0
 40
21.55681666666653
100
AcDbArc
 50
149.410228093566
 51
172.495619345011
  0
MTEXT
  5
428B
102
{ACAD_XDICTIONARY
360
4FDA
102
}
330
1A
100
AcDbEntity
  8
寸法線
 48
10.0
100
AcDbMText
 10
298.913302942205
 20
484.837648425751
 30
0.0
 40
8.0
 41
0.0
 71
     7
 72
     1
  1
GROUNDING\PELECTRODE\A1;\PSUS304
1001
ACADANNOTATIVE
1000
AnnotativeData
1002
{
1070
     1
1070
     0
1002
}
  0
MTEXT
  5
428E
102
{ACAD_XDICTIONARY
360
4FD7
102
}
330
1A
100
AcDbEntity
  8
寸法線
 48
10.0
100
AcDbMText
 10
199.650889353944
 20
484.837648425751
 30
0.0
 40
8.0
 41
0.0
 71
     7
 72
     1
  1
SEAL\PSILICON RUBBER
1001
ACADANNOTATIVE
1000
AnnotativeData
1002
{
1070
     1
1070
     0
1002
}
  0
MTEXT
  5
4290
102
{ACAD_XDICTIONARY
360
4FD4
102
}
330
1A
100
AcDbEntity
  8
寸法線
 48
10.0
100
AcDbMText
 10
183.175128722995
 20
484.837648425751
 30
0.0
 40
8.0
 41
0.0
 71
     9
 72
     1
  1
INSULATOR\PPOLYACETAL
1001
ACADANNOTATIVE
1000
AnnotativeData
1002
{
1070
     1
1070
     0
1002
}
  0
MTEXT
  5
4292
102
{ACAD_XDICTIONARY
360
4FD1
102
}
330
1A
100
AcDbEntity
  8
寸法線
 48
10.0
100
AcDbMText
 10
97.162628256987
 20
484.837648425751
 30
0.0
 40
8.0
 41
0.0
 71
     9
 72
     1
  1
DETECTING\PELECTRODE\A1;\PSUS304
1001
ACADANNOTATIVE
1000
AnnotativeData
1002
{
1070
     1
1070
     0
1002
}
  0
DIMENSION
  5
436B
330
1A
100
AcDbEntity
  8
寸法線
 48
10.0
100
AcDbDimension
  2
*D6
 10
366.803740587346
 20
306.462456237265
 30
0.0
 11
354.303740587346
 21
311.091622903932
 31
0.0
 70
    32
  3
ISO-25
100
AcDbAlignedDimension
 13
341.803740587346
 23
384.58814857328
 33
0.0
 14
366.803740587346
 24
381.39764857328
 34
0.0
100
AcDbRotatedDimension
1001
ACAD
1000
DSTYLE
1002
{
1070
     5
1000
OPEN30
1070
    41
1040
6.0
1070
    47
1040
0.1
1070
    48
1040
0.1
1070
    73
1070
     0
1070
   140
1040
8.0
1070
   271
1070
     1
1070
   272
1070
     1
1070
   341
1005
2AF4
1002
}
  0
DIMENSION
  5
4378
330
1A
100
AcDbEntity
  8
寸法線
 48
10.0
100
AcDbDimension
  2
*D7
 10
386.803740587346
 20
306.462456237265
 30
0.0
 11
376.803740587346
 21
311.091622903932
 31
0.0
 70
    32
  3
ISO-25
100
AcDbAlignedDimension
 13
366.803740587346
 23
381.39764857328
 33
0.0
 14
386.803740587346
 24
381.33764857328
 34
0.0
100
AcDbRotatedDimension
1001
ACAD
1000
DSTYLE
1002
{
1070
     5
1000
OPEN30
1070
    41
1040
6.0
1070
    47
1040
0.1
1070
    48
1040
0.1
1070
    73
1070
     0
1070
   140
1040
8.0
1070
   271
1070
     1
1070
   272
1070
     1
1070
   341
1005
2AF4
1002
}
  0
LINE
  5
4423
102
{ACAD_REACTORS
330
44DC
102
}
330
1A
100
AcDbEntity
  8
外形線
100
AcDbLine
 10
389.803740587346
 20
416.33764857328
 30
0.0
 11
389.803740587346
 21
384.33764857328
 31
0.0
  0
ARC
  5
4424
102
{ACAD_REACTORS
330
44DC
102
}
330
1A
100
AcDbEntity
  8
外形線
100
AcDbCircle
 10
391.303740587346
 20
416.33764857328
 30
0.0
 40
1.5
100
AcDbArc
 50
90.0
 51
180.0
  0
ARC
  5
4425
102
{ACAD_REACTORS
330
44DC
102
}
330
1A
100
AcDbEntity
  8
外形線
100
AcDbCircle
 10
391.303740587346
 20
384.33764857328
 30
0.0
 40
1.5
100
AcDbArc
 50
180.0
 51
270.0
  0
LINE
  5
4428
102
{ACAD_REACTORS
330
44DC
102
}
330
1A
100
AcDbEntity
  8
外形線
100
AcDbLine
 10
412.945740587346
 20
421.33764857328
 30
0.0
 11
412.945740587346
 21
379.33764857328
 31
0.0
  0
ARC
  5
4429
102
{ACAD_REACTORS
330
44DC
102
}
330
1A
100
AcDbEntity
  8
外形線
100
AcDbCircle
 10
411.445740587346
 20
381.33764857328
 30
0.0
 40
1.5
100
AcDbArc
 50
0.0
 51
90.0
  0
ARC
  5
442A
102
{ACAD_REACTORS
330
44DC
102
}
330
1A
100
AcDbEntity
  8
外形線
100
AcDbCircle
 10
411.445740587346
 20
419.33764857328
 30
0.0
 40
1.5
100
AcDbArc
 50
270.0
 51
0.0
  0
LINE
  5
442B
102
{ACAD_REACTORS
330
44DC
102
}
330
1A
100
AcDbEntity
  8
外形線
100
AcDbLine
 10
463.896573878861
 20
370.433416880348
 30
0.0
 11
465.80479681157
 21
371.384821738663
 31
0.0
  0
LINE
  5
442C
102
{ACAD_REACTORS
330
44DC
102
}
330
1A
100
AcDbEntity
  8
外形線
100
AcDbLine
 10
434.077174028732
 20
430.241880266212
 30
0.0
 11
435.985396961442
 21
431.193285124527
 31
0.0
  0
LINE
  5
442D
102
{ACAD_REACTORS
330
44DC
102
}
330
1A
100
AcDbEntity
  8
外形線
100
AcDbLine
 10
435.985396961442
 20
431.193285124527
 30
0.0
 11
465.80479681157
 21
371.384821738663
 31
0.0
  0
LINE
  5
442E
102
{ACAD_REACTORS
330
44DC
102
}
330
1A
100
AcDbEntity
  8
外形線
100
AcDbLine
 10
463.896573878861
 20
370.433416880348
 30
0.0
 11
434.077174028732
 21
430.241880266212
 31
0.0
  0
ARC
  5
442F
102
{ACAD_REACTORS
330
44DC
102
}
330
1A
100
AcDbEntity
  8
細線
100
AcDbCircle
 10
447.442940995948
 20
341.32645020769
 30
0.0
 40
34.01119848081266
100
AcDbArc
 50
63.82505009863
 51
116.164440091242
  0
LINE
  5
4431
102
{ACAD_REACTORS
330
44DC
102
}
330
1A
100
AcDbEntity
  8
外形線
100
AcDbLine
 10
462.445740587346
 20
354.33764857328
 30
0.0
 11
463.445740587346
 21
355.33764857328
 31
0.0
  0
LINE
  5
4432
102
{ACAD_REACTORS
330
44DC
102
}
330
1A
100
AcDbEntity
  8
外形線
100
AcDbLine
 10
432.445740587346
 20
354.33764857328
 30
0.0
 11
462.445740587346
 21
354.33764857328
 31
0.0
  0
LINE
  5
4433
102
{ACAD_REACTORS
330
44DC
102
}
330
1A
100
AcDbEntity
  8
外形線
100
AcDbLine
 10
431.445740587346
 20
355.33764857328
 30
0.0
 11
432.445740587346
 21
354.33764857328
 31
0.0
  0
LINE
  5
4434
102
{ACAD_REACTORS
330
44DC
102
}
330
1A
100
AcDbEntity
  8
外形線
100
AcDbLine
 10
431.445740587346
 20
355.33764857328
 30
0.0
 11
431.445740587346
 21
370.33764857328
 31
0.0
  0
ARC
  5
4435
102
{ACAD_REACTORS
330
44DC
102
}
330
1A
100
AcDbEntity
  8
外形線
100
AcDbCircle
 10
430.445740587346
 20
370.33764857328
 30
0.0
 40
1.0
100
AcDbArc
 50
0.0
 51
90.0
  0
ARC
  5
4438
102
{ACAD_REACTORS
330
44DC
102
}
330
1A
100
AcDbEntity
  8
外形線
100
AcDbCircle
 10
420.945740587346
 20
421.33764857328
 30
0.0
 40
8.0
100
AcDbArc
 50
90.0
 51
180.0
  0
ARC
  5
4439
102
{ACAD_REACTORS
330
44DC
102
}
330
1A
100
AcDbEntity
  8
外形線
100
AcDbCircle
 10
420.945740587346
 20
379.33764857328
 30
0.0
 40
8.0
100
AcDbArc
 50
180.0
 51
270.0
  0
ARC
  5
443B
102
{ACAD_REACTORS
330
44D9
102
}
330
1A
100
AcDbEntity
  8
外形線
100
AcDbCircle
 10
441.452420984362
 20
436.375425704674
 30
0.0
 40
3.0
100
AcDbArc
 50
45.304483030748
 51
116.499999999995
  0
ARC
  5
443C
102
{ACAD_REACTORS
330
44D9
102
}
330
1A
100
AcDbEntity
  8
外形線
100
AcDbCircle
 10
473.830795120273
 20
372.932253930118
 30
0.0
 40
3.0
100
AcDbArc
 50
296.499999999995
 51
7.69551696925
  0
LINE
  5
4440
102
{ACAD_REACTORS
330
44D9
102
}
330
1A
100
AcDbEntity
  8
外形線
100
AcDbLine
 10
468.123389077523
 20
366.734445093193
 30
0.0
 11
475.169388559602
 21
370.247450845312
 31
0.0
  0
LINE
  5
4441
102
{ACAD_REACTORS
330
44D9
102
}
330
1A
100
AcDbEntity
  8
外形線
100
AcDbLine
 10
478.498127033322
 20
404.495642687533
 30
0.0
 11
469.266166259396
 21
399.892756839383
 31
0.0
  0
LINE
  5
4442
102
{ACAD_REACTORS
330
44D9
102
}
330
1A
100
AcDbEntity
  8
外形線
100
AcDbLine
 10
467.094695445198
 20
404.955803545246
 30
0.0
 11
476.044039061218
 21
409.417781676344
 31
0.0
  0
LINE
  5
4443
102
{ACAD_REACTORS
330
44D9
102
}
330
1A
100
AcDbEntity
  8
外形線
100
AcDbLine
 10
463.52511294032
 20
412.115278438062
 30
0.0
 11
472.47445655634
 21
416.57725656916
 31
0.0
  0
LINE
  5
4444
102
{ACAD_REACTORS
330
44D9
102
}
330
1A
100
AcDbEntity
  8
外形線
100
AcDbLine
 10
470.020368584236
 20
421.499395557971
 30
0.0
 11
460.78840781031
 21
416.896509709821
 31
0.0
  0
LINE
  5
4445
102
{ACAD_REACTORS
330
44D9
102
}
330
1A
100
AcDbEntity
  8
外形線
100
AcDbLine
 10
472.47445655634
 20
416.57725656916
 30
0.0
 11
470.020368584236
 21
421.499395557971
 31
0.0
  0
LINE
  5
4446
102
{ACAD_REACTORS
330
44D9
102
}
330
1A
100
AcDbEntity
  8
外形線
100
AcDbLine
 10
476.044039061218
 20
409.417781676344
 30
0.0
 11
478.498127033322
 21
404.495642687533
 31
0.0
  0
LINE
  5
4456
102
{ACAD_REACTORS
330
44DC
102
}
330
1A
100
AcDbEntity
  8
外形線
100
AcDbLine
 10
463.445740587346
 20
355.33764857328
 30
0.0
 11
463.445740587346
 21
371.33764857328
 31
0.0
  0
LINE
  5
4459
102
{ACAD_REACTORS
330
44DC
102
}
330
1A
100
AcDbEntity
  8
中心線
 48
10.0
100
AcDbLine
 10
447.445740587346
 20
380.33764857328
 30
0.0
 11
447.445740587346
 21
341.32645020769
 31
0.0
  0
LINE
  5
4463
102
{ACAD_REACTORS
330
44D9
102
}
330
1A
100
AcDbEntity
  8
外形線
 48
10.0
100
AcDbLine
 10
433.666804695489
 20
435.845861769997
 30
0.0
 11
440.113827545033
 21
439.06022878948
 31
0.0
  0
ARC
  5
448E
102
{ACAD_REACTORS
330
44D9
102
}
330
1A
100
AcDbEntity
  8
外形線
 48
10.0
100
AcDbCircle
 10
361.183064678303
 20
355.594146950305
 30
0.0
 40
116.880564807258
100
AcDbArc
 50
8.420101953743
 51
45.185262866735
  0
LINE
  5
448F
102
{ACAD_REACTORS
330
44D9
102
}
330
1A
100
AcDbEntity
  8
外形線
 48
10.0
100
AcDbLine
 10
433.666804695489
 20
435.845861769997
 30
0.0
 11
468.123389077523
 21
366.734445093193
 31
0.0
  0
LINE
  5
44D5
102
{ACAD_REACTORS
330
44DC
102
}
330
1A
100
AcDbEntity
  8
外形線
 48
10.0
100
AcDbLine
 10
420.945740587346
 20
429.33764857328
 30
0.0
 11
434.486873953796
 21
429.33764857328
 31
0.0
  0
LINE
  5
44D6
102
{ACAD_REACTORS
330
44DC
102
}
330
1A
100
AcDbEntity
  8
外形線
 48
10.0
100
AcDbLine
 10
391.303740587346
 20
417.83764857328
 30
0.0
 11
411.445740587346
 21
417.83764857328
 31
0.0
  0
LINE
  5
44D7
102
{ACAD_REACTORS
330
44DC
102
}
330
1A
100
AcDbEntity
  8
外形線
 48
10.0
100
AcDbLine
 10
391.303740587346
 20
382.83764857328
 30
0.0
 11
411.445740587346
 21
382.83764857328
 31
0.0
  0
LINE
  5
44D8
102
{ACAD_REACTORS
330
44DC
102
}
330
1A
100
AcDbEntity
  8
外形線
 48
10.0
100
AcDbLine
 10
420.945740587346
 20
371.33764857328
 30
0.0
 11
430.445740587346
 21
371.33764857328
 31
0.0
  0
DIMENSION
  5
44EC
330
1A
100
AcDbEntity
  8
寸法線
 48
10.0
100
AcDbDimension
  2
*D8
 10
504.165272331073
 20
354.33764857328
 30
0.0
 11
499.531938997739
 21
396.837667129118
 31
0.0
 70
    32
  3
ISO-25
100
AcDbAlignedDimension
 13
441.926779297477
 23
439.337685684956
 33
0.0
 14
462.445740587346
 24
354.33764857328
 34
0.0
 50
90.0
100
AcDbRotatedDimension
1001
ACAD
1000
DSTYLE
1002
{
1070
     5
1000
OPEN30
1070
    41
1040
6.0
1070
    47
1040
0.1
1070
    48
1040
0.1
1070
    73
1070
     0
1070
   140
1040
8.0
1070
   271
1070
     1
1070
   272
1070
     1
1070
   341
1005
2AF4
1002
}
  0
DIMENSION
  5
44F9
330
1A
100
AcDbEntity
  8
寸法線
 48
10.0
100
AcDbDimension
  2
*D9
 10
476.80377616102
 20
286.462456237265
 30
0.0
 11
409.303758374183
 21
291.091622903932
 31
0.0
 70
    32
  3
ISO-25
100
AcDbAlignedDimension
 13
341.803740587346
 23
384.58814857328
 33
0.0
 14
476.80377616102
 24
373.333979870723
 34
0.0
100
AcDbRotatedDimension
1001
ACAD
1000
DSTYLE
1002
{
1070
     5
1000
OPEN30
1070
    41
1040
6.0
1070
    47
1040
0.1
1070
    48
1040
0.1
1070
    73
1070
     0
1070
   140
1040
8.0
1070
   271
1070
     1
1070
   272
1070
     1
1070
   341
1005
2AF4
1002
}
  0
MTEXT
  5
456E
102
{ACAD_XDICTIONARY
360
4FE0
102
}
330
1A
100
AcDbEntity
  8
寸法線
 48
10.0
100
AcDbMText
 10
457.039801016563
 20
484.837648425751
 30
0.0
 40
8.0
 41
0.0
 71
     7
 72
     1
  1
ALUMINUM\PCASTING
1001
ACADANNOTATIVE
1000
AnnotativeData
1002
{
1070
     1
1070
     0
1002
}
  0
DIMENSION
  5
45ED
330
1A
100
AcDbEntity
  8
寸法線
 48
10.0
100
AcDbDimension
  2
*D10
 10
476.80377616102
 20
306.462456237265
 30
0.0
 11
431.803758374183
 21
311.087456237265
 31
0.0
 70
    32
  3
ISO-25
100
AcDbAlignedDimension
 13
386.803740587346
 23
381.33764857328
 33
0.0
 14
476.80377616102
 24
373.333979870723
 34
0.0
100
AcDbRotatedDimension
1001
ACAD
1000
DSTYLE
1002
{
1070
     5
1000
OPEN30
1070
    41
1040
6.0
1070
    47
1040
0.1
1070
    48
1040
0.1
1070
    73
1070
     0
1070
   140
1040
8.0
1070
   271
1070
     1
1070
   272
1070
     1
1070
   341
1005
2AF4
1002
}
  0
LEADER
  5
474E
330
1A
100
AcDbEntity
  8
寸法線
 48
10.0
100
AcDbLeader
  3
ISO-25
 76
     3
 10
202.895167304126
 20
411.696278352124
 30
0.0
 10
183.948116912962
 20
483.943443870185
 30
0.0
 10
171.567768365414
 20
483.985671196554
 30
0.0
213
2.947423883473732
223
-0.01005317659638649
233
0.0
1001
ACAD
1000
DSTYLE
1002
{
1070
     5
1000
OPEN30
1070
   147
1040
0.625
1070
    77
1070
     0
1070
    41
1040
6.0
1070
    47
1040
0.1
1070
    48
1040
0.1
1070
    73
1070
     0
1070
   140
1040
8.0
1070
   271
1070
     1
1070
   272
1070
     1
1070
   341
1005
2AF4
1070
   342
1005
2AF4
1002
}
  0
LEADER
  5
4750
330
1A
100
AcDbEntity
  8
寸法線
 48
10.0
100
AcDbLeader
  3
ISO-25
 76
     3
 10
123.973802563252
 20
411.714867613336
 30
0.0
 10
95.56640464389
 20
483.943443870185
 30
0.0
 10
87.692005717122
 20
483.943443870185
 30
0.0
1001
ACAD
1000
DSTYLE
1002
{
1070
     5
1000
OPEN30
1070
   147
1040
0.625
1070
    77
1070
     0
1070
    41
1040
6.0
1070
    47
1040
0.1
1070
    48
1040
0.1
1070
    73
1070
     0
1070
   140
1040
8.0
1070
   271
1070
     1
1070
   272
1070
     1
1070
   341
1005
2AF4
1070
   342
1005
2AF4
1002
}
  0
LEADER
  5
4751
330
1A
100
AcDbEntity
  8
寸法線
 48
10.0
100
AcDbLeader
  3
ISO-25
 76
     3
 10
272.976268125499
 20
411.803945834022
 30
0.0
 10
297.807381089632
 20
483.943443870185
 30
0.0
 10
309.448521729046
 20
483.943443870185
 30
0.0
213
0.533466143987539
223
-0.02470762574876062
233
0.0
1001
ACAD
1000
DSTYLE
1002
{
1070
     5
1000
OPEN30
1070
   147
1040
0.625
1070
    77
1070
     0
1070
    41
1040
6.0
1070
    47
1040
0.1
1070
    48
1040
0.1
1070
    73
1070
     0
1070
   140
1040
8.0
1070
   271
1070
     1
1070
   272
1070
     1
1070
   341
1005
2AF4
1070
   342
1005
2AF4
1002
}
  0
LEADER
  5
475A
330
1A
100
AcDbEntity
  8
寸法線
 48
10.0
100
AcDbLeader
  3
ISO-25
 76
     3
 10
354.956813011714
 20
416.889288422467
 30
0.0
 10
375.080280429562
 20
483.943443870185
 30
0.0
 10
384.996192081717
 20
483.943443870185
 30
0.0
213
0.0
223
-0.05912167360497733
233
0.0
1001
ACAD
1000
DSTYLE
1002
{
1070
     5
1000
OPEN30
1070
   147
1040
0.625
1070
    77
1070
     0
1070
    41
1040
6.0
1070
    47
1040
0.1
1070
    48
1040
0.1
1070
    73
1070
     0
1070
   140
1040
8.0
1070
   271
1070
     1
1070
   272
1070
     1
1070
   341
1005
2AF4
1070
   342
1005
2AF4
1002
}
  0
LEADER
  5
475B
330
1A
100
AcDbEntity
  8
寸法線
 48
10.0
100
AcDbLeader
  3
ISO-25
 76
     3
 10
424.07655439388
 20
429.547031285534
 30
0.0
 10
454.990865804496
 20
483.943443870185
 30
0.0
 10
468.114870566809
 20
483.943443870185
 30
0.0
213
-5.684341886080801E-14
223
-0.08194239549834492
233
0.0
1001
ACAD
1000
DSTYLE
1002
{
1070
     5
1000
OPEN30
1070
   147
1040
0.625
1070
    77
1070
     0
1070
    41
1040
6.0
1070
    47
1040
0.1
1070
    48
1040
0.1
1070
    73
1070
     0
1070
   140
1040
8.0
1070
   271
1070
     1
1070
   272
1070
     1
1070
   341
1005
2AF4
1070
   342
1005
2AF4
1002
}
  0
LWPOLYLINE
  5
4964
330
1A
100
AcDbEntity
  8
外形線
100
AcDbPolyline
 90
        4
 70
     0
 43
0.0
 10
220.553740587345
 20
390.214867613336
 10
241.803740587346
 20
390.214867613336
 10
241.803740587346
 20
411.714867613336
 10
220.553740587346
 20
411.714867613336
  0
LWPOLYLINE
  5
4965
330
1A
100
AcDbEntity
  8
外形線
100
AcDbPolyline
 90
        6
 70
     0
 43
0.0
 10
213.553740587346
 20
411.714867613336
 10
192.303740587346
 20
411.714867613336
 10
191.803740587346
 20
411.214867613336
 10
191.803740587346
 20
390.714867613336
 10
192.303740587346
 20
390.214867613336
 10
213.553740587345
 20
390.214867613336
  0
LWPOLYLINE
  5
4966
330
1A
100
AcDbEntity
  8
外形線
100
AcDbPolyline
 90
        6
 70
     0
 43
0.0
 10
288.303740587346
 20
411.714867613337
 10
242.303740587346
 20
411.714867613337
 10
241.803740587346
 20
411.214867613337
 10
241.803740587346
 20
390.714867613337
 10
242.303740587346
 20
390.214867613337
 10
288.303740587345
 20
390.214867613337
  0
ARC
  5
4967
330
1A
100
AcDbEntity
  8
細線
 48
10.0
100
AcDbCircle
 10
226.776396837345
 20
406.339867613336
 30
0.0
 40
8.222656249999796
100
AcDbArc
 50
139.180234332389
 51
220.819765667606
  0
ARC
  5
4968
330
1A
100
AcDbEntity
  8
細線
 48
10.0
100
AcDbCircle
 10
214.331084337346
 20
395.589867613337
 30
0.0
 40
8.222656249999796
100
AcDbArc
 50
319.180234332393
 51
40.819765667607
  0
ARC
  5
4969
330
1A
100
AcDbEntity
  8
細線
 48
10.0
100
AcDbCircle
 10
226.776396837345
 20
395.589867613337
 30
0.0
 40
8.222656249999796
100
AcDbArc
 50
139.180234332389
 51
220.819765667606
  0
ARC
  5
496A
330
1A
100
AcDbEntity
  8
細線
 48
10.0
100
AcDbCircle
 10
207.331084337346
 20
395.589867613337
 30
0.0
 40
8.222656249999796
100
AcDbArc
 50
319.180234332393
 51
40.819765667607
  0
ARC
  5
496B
330
1A
100
AcDbEntity
  8
細線
 48
10.0
100
AcDbCircle
 10
207.331084337346
 20
406.339867613337
 30
0.0
 40
8.222656249999796
100
AcDbArc
 50
319.180234332393
 51
40.819765667607
  0
ARC
  5
496C
330
1A
100
AcDbEntity
  8
細線
 48
10.0
100
AcDbCircle
 10
219.776396837345
 20
406.339867613336
 30
0.0
 40
8.222656249999796
100
AcDbArc
 50
139.180234332389
 51
220.819765667606
  0
ARC
  5
496D
330
1A
100
AcDbEntity
  8
細線
 48
10.0
100
AcDbCircle
 10
301.526396837345
 20
395.589867613337
 30
0.0
 40
8.222656249999796
100
AcDbArc
 50
139.180234332388
 51
220.819765667606
  0
ARC
  5
496E
330
1A
100
AcDbEntity
  8
細線
 48
10.0
100
AcDbCircle
 10
289.081084337346
 20
395.589867613337
 30
0.0
 40
8.222656249999796
100
AcDbArc
 50
319.180234332393
 51
40.819765667606
  0
ARC
  5
496F
330
1A
100
AcDbEntity
  8
細線
 48
10.0
100
AcDbCircle
 10
301.526396837345
 20
406.339867613337
 30
0.0
 40
8.222656249999796
100
AcDbArc
 50
139.180234332388
 51
220.819765667606
  0
ARC
  5
4970
330
1A
100
AcDbEntity
  8
細線
 48
10.0
100
AcDbCircle
 10
294.526396837345
 20
406.339867613336
 30
0.0
 40
8.222656249999796
100
AcDbArc
 50
139.180234332388
 51
220.819765667606
  0
ARC
  5
4971
330
1A
100
AcDbEntity
  8
細線
 48
10.0
100
AcDbCircle
 10
282.081084337346
 20
395.589867613337
 30
0.0
 40
8.222656249999796
100
AcDbArc
 50
319.180234332393
 51
40.819765667606
  0
ARC
  5
4972
330
1A
100
AcDbEntity
  8
細線
 48
10.0
100
AcDbCircle
 10
282.081084337346
 20
406.339867613337
 30
0.0
 40
8.222656249999796
100
AcDbArc
 50
319.180234332393
 51
40.819765667606
  0
DIMENSION
  5
4979
330
1A
100
AcDbEntity
  8
寸法線
 48
10.0
100
AcDbDimension
  2
*D12
 10
316.668518262253
 20
390.214867613336
 30
0.0
 11
316.668518262253
 21
430.705553038286
 31
0.0
 70
   160
  1
φ<>
  3
ISO-25
100
AcDbAlignedDimension
 13
328.33238442067
 23
411.714867613336
 33
0.0
 14
328.33238442067
 24
390.214867613336
 34
0.0
 50
90.0
100
AcDbRotatedDimension
1001
ACAD
1000
DSTYLE
1002
{
1070
     5
1000
OPEN30
1070
    76
1070
     1
1070
    75
1070
     1
1070
    41
1040
6.0
1070
    47
1040
0.1
1070
    48
1040
0.1
1070
    73
1070
     0
1070
   140
1040
8.0
1070
   271
1070
     1
1070
   272
1070
     1
1070
   341
1005
2AF4
1002
}
  0
LWPOLYLINE
  5
497A
330
1A
100
AcDbEntity
  8
外形線
100
AcDbPolyline
 90
        4
 70
     0
 43
0.0
 10
295.303740587345
 20
390.214867613337
 10
341.803740587346
 20
390.214867613337
 10
341.803740587346
 20
411.714867613337
 10
295.303740587346
 20
411.714867613337
  0
DIMENSION
  5
497B
330
1A
100
AcDbEntity
  8
寸法線
 48
10.0
100
AcDbDimension
  2
*D13
 10
229.165272331073
 20
390.214867613336
 30
0.0
 11
229.165272331073
 21
430.705553038286
 31
0.0
 70
   160
  1
φ<>
  3
ISO-25
100
AcDbAlignedDimension
 13
241.803740587346
 23
411.714867613336
 33
0.0
 14
241.803740587346
 24
390.214867613336
 34
0.0
 50
90.0
100
AcDbRotatedDimension
1001
ACAD
1000
DSTYLE
1002
{
1070
     5
1000
OPEN30
1070
    76
1070
     1
1070
    75
1070
     1
1070
   282
1070
     0
1070
   281
1070
     0
1070
    41
1040
6.0
1070
    47
1040
0.1
1070
    48
1040
0.1
1070
    73
1070
     0
1070
   140
1040
8.0
1070
   271
1070
     1
1070
   272
1070
     1
1070
   341
1005
2AF4
1002
}
  0
DIMENSION
  5
497C
330
1A
100
AcDbEntity
  8
寸法線
 48
10.0
100
AcDbDimension
  2
*D14
 10
191.803740587346
 20
306.462456237265
 30
0.0
 11
141.803740587346
 21
306.462456237265
 31
0.0
 70
    32
  1
 
  3
ISO-25
100
AcDbAlignedDimension
 13
91.803740587346
 23
393.964867613336
 33
0.0
 14
191.803740587346
 24
390.714867613336
 34
0.0
100
AcDbRotatedDimension
1001
ACAD
1000
DSTYLE
1002
{
1070
     5
1000
OPEN30
1070
    41
1040
6.0
1070
    47
1040
0.1
1070
    48
1040
0.1
1070
    73
1070
     0
1070
   140
1040
8.0
1070
   271
1070
     1
1070
   272
1070
     1
1070
   341
1005
2AF4
1002
}
  0
DIMENSION
  5
497D
330
1A
100
AcDbEntity
  8
寸法線
 48
10.0
100
AcDbDimension
  2
*D15
 10
241.803740587346
 20
306.462456237265
 30
0.0
 11
216.803740587346
 21
306.462456237265
 31
0.0
 70
    32
  1
 
  3
ISO-25
100
AcDbAlignedDimension
 13
191.803740587346
 23
390.714867613336
 33
0.0
 14
241.803740587346
 24
390.214867613336
 34
0.0
100
AcDbRotatedDimension
1001
ACAD
1000
DSTYLE
1002
{
1070
     5
1000
OPEN30
1070
    41
1040
6.0
1070
    47
1040
0.1
1070
    48
1040
0.1
1070
    73
1070
     0
1070
   140
1040
8.0
1070
   271
1070
     1
1070
   272
1070
     1
1070
   341
1005
2AF4
1002
}
  0
DIMENSION
  5
497E
330
1A
100
AcDbEntity
  8
寸法線
 48
10.0
100
AcDbDimension
  2
*D16
 10
341.803740587346
 20
306.462456237265
 30
0.0
 11
291.803740587346
 21
306.462456237265
 31
0.0
 70
    32
  1
 
  3
ISO-25
100
AcDbAlignedDimension
 13
241.803740587346
 23
390.214867613336
 33
0.0
 14
341.803740587346
 24
385.215367613336
 34
0.0
100
AcDbRotatedDimension
1001
ACAD
1000
DSTYLE
1002
{
1070
     5
1000
OPEN30
1070
    41
1040
6.0
1070
    47
1040
0.1
1070
    48
1040
0.1
1070
    73
1070
     0
1070
   140
1040
8.0
1070
   271
1070
     1
1070
   272
1070
     1
1070
   341
1005
2AF4
1002
}
  0
DIMENSION
  5
497F
330
1A
100
AcDbEntity
  8
寸法線
 48
10.0
100
AcDbDimension
  2
*D17
 10
341.803740587346
 20
286.462456237265
 30
0.0
 11
216.803740587346
 21
286.462456237265
 31
0.0
 70
    32
  1
 
  3
ISO-25
100
AcDbAlignedDimension
 13
91.803740587346
 23
393.964867613336
 33
0.0
 14
341.803740587346
 24
385.215367613336
 34
0.0
100
AcDbRotatedDimension
1001
ACAD
1000
DSTYLE
1002
{
1070
     5
1000
OPEN30
1070
    41
1040
6.0
1070
    47
1040
0.1
1070
    48
1040
0.1
1070
    73
1070
     0
1070
   140
1040
8.0
1070
   271
1070
     1
1070
   272
1070
     1
1070
   341
1005
2AF4
1002
}
  0
TEXT
  5
4980
330
1A
100
AcDbEntity
  8
寸法線
 48
10.0
100
AcDbText
 10
143.909583532092
 20
307.504334459057
 30
0.0
 40
6.0
  1
1
100
AcDbText
  0
SPLINE
  5
4981
330
1A
100
AcDbEntity
  8
寸法線
 48
10.0
100
AcDbSpline
210
0.0
220
0.0
230
1.0
 70
  1064
 71
     3
 72
    13
 73
     9
 74
     7
 42
0.000000001
 43
0.0000000001
 44
0.0000000001
 40
0.0
 40
0.0
 40
0.0
 40
0.0
 40
3.223685095176967
 40
8.435450993908002
 40
12.63609189519606
 40
15.54126966359024
 40
17.08609505184027
 40
18.20640635868928
 40
18.20640635868928
 40
18.20640635868928
 40
18.20640635868928
 10
137.8235530272779
 20
307.4554244874319
 30
0.0
 10
138.7822150900763
 20
307.8982687912538
 30
0.0
 10
141.2907562818181
 20
309.0570641799258
 30
0.0
 10
141.8952443785091
 20
317.1465704279425
 30
0.0
 10
138.3195143611031
 20
311.3283096789044
 30
0.0
 10
138.4760927212862
 20
308.3746573529331
 30
0.0
 10
140.3599851736946
 20
307.2175491012878
 30
0.0
 10
141.1932616084546
 20
307.6343828138964
 30
0.0
 10
141.5435359539728
 20
307.8096021646224
 30
0.0
 11
137.8235530272779
 21
307.4554244874319
 31
0.0
 11
140.3921125117768
 21
309.4034100539741
 31
0.0
 11
140.9678242328746
 21
314.5832806891701
 31
0.0
 11
138.7092638693671
 21
311.0414889016752
 31
0.0
 11
139.1078338570603
 21
308.1637815102119
 31
0.0
 11
140.4806833784791
 21
307.4554244874319
 31
0.0
 11
141.5435359539728
 21
307.8096021646224
 31
0.0
  0
TEXT
  5
4982
330
1A
100
AcDbEntity
  8
寸法線
 48
10.0
100
AcDbText
 10
218.912346479542
 20
307.504334459057
 30
0.0
 40
6.0
  1
2
100
AcDbText
  0
SPLINE
  5
4983
330
1A
100
AcDbEntity
  8
寸法線
 48
10.0
100
AcDbSpline
210
0.0
220
0.0
230
1.0
 70
  1064
 71
     3
 72
    13
 73
     9
 74
     7
 42
0.000000001
 43
0.0000000001
 44
0.0000000001
 40
0.0
 40
0.0
 40
0.0
 40
0.0
 40
3.223685095176967
 40
8.435450993908002
 40
12.63609189519606
 40
15.54126966359024
 40
17.08609505184027
 40
18.20640635868928
 40
18.20640635868928
 40
18.20640635868928
 40
18.20640635868928
 10
212.8263159747274
 20
307.4554244874319
 30
0.0
 10
213.7849780375259
 20
307.8982687912538
 30
0.0
 10
216.2935192292677
 20
309.0570641799258
 30
0.0
 10
216.8980073259587
 20
317.1465704279425
 30
0.0
 10
213.3222773085526
 20
311.3283096789044
 30
0.0
 10
213.4788556687358
 20
308.3746573529331
 30
0.0
 10
215.3627481211442
 20
307.2175491012878
 30
0.0
 10
216.1960245559041
 20
307.6343828138964
 30
0.0
 10
216.5462989014224
 20
307.8096021646224
 30
0.0
 11
212.8263159747274
 21
307.4554244874319
 31
0.0
 11
215.3948754592263
 21
309.4034100539741
 31
0.0
 11
215.9705871803242
 21
314.5832806891701
 31
0.0
 11
213.7120268168167
 21
311.0414889016752
 31
0.0
 11
214.1105968045098
 21
308.1637815102119
 31
0.0
 11
215.4834463259287
 21
307.4554244874319
 31
0.0
 11
216.5462989014224
 21
307.8096021646224
 31
0.0
  0
SPLINE
  5
4984
330
1A
100
AcDbEntity
  8
寸法線
 48
10.0
100
AcDbSpline
210
0.0
220
0.0
230
1.0
 70
  1064
 71
     3
 72
    13
 73
     9
 74
     7
 42
0.000000001
 43
0.0000000001
 44
0.0000000001
 40
0.0
 40
0.0
 40
0.0
 40
0.0
 40
3.223685095176967
 40
8.435450993908002
 40
12.63609189519606
 40
15.54126966359024
 40
17.08609505184027
 40
18.20640635868928
 40
18.20640635868928
 40
18.20640635868928
 40
18.20640635868928
 10
287.0298600178579
 20
307.4554244874319
 30
0.0
 10
287.9885220806564
 20
307.8982687912538
 30
0.0
 10
290.4970632723982
 20
309.0570641799258
 30
0.0
 10
291.1015513690892
 20
317.1465704279425
 30
0.0
 10
287.5258213516831
 20
311.3283096789044
 30
0.0
 10
287.6823997118662
 20
308.3746573529331
 30
0.0
 10
289.5662921642747
 20
307.2175491012878
 30
0.0
 10
290.3995685990346
 20
307.6343828138964
 30
0.0
 10
290.7498429445529
 20
307.8096021646224
 30
0.0
 11
287.0298600178579
 21
307.4554244874319
 31
0.0
 11
289.5984195023568
 21
309.4034100539741
 31
0.0
 11
290.1741312234547
 21
314.5832806891701
 31
0.0
 11
287.9155708599471
 21
311.0414889016752
 31
0.0
 11
288.3141408476403
 21
308.1637815102119
 31
0.0
 11
289.6869903690592
 21
307.4554244874319
 31
0.0
 11
290.7498429445529
 21
307.8096021646224
 31
0.0
  0
TEXT
  5
4985
330
1A
100
AcDbEntity
  8
寸法線
 48
10.0
100
AcDbText
 10
293.115890522672
 20
307.504334459057
 30
0.0
 40
6.0
  1
3
100
AcDbText
  0
SPLINE
  5
4986
330
1A
100
AcDbEntity
  8
寸法線
 48
10.0
100
AcDbSpline
210
0.0
220
0.0
230
1.0
 70
  1064
 71
     3
 72
    13
 73
     9
 74
     7
 42
0.000000001
 43
0.0000000001
 44
0.0000000001
 40
0.0
 40
0.0
 40
0.0
 40
0.0
 40
3.223685095176967
 40
8.435450993908116
 40
12.63609189519624
 40
15.54126966359041
 40
17.08609505184049
 40
18.20640635868945
 40
18.20640635868945
 40
18.20640635868945
 40
18.20640635868945
 10
215.5125415590089
 20
287.7746602911177
 30
0.0
 10
216.4712036218074
 20
288.2175045949397
 30
0.0
 10
218.9797448135492
 20
289.3762999836117
 30
0.0
 10
219.5842329102402
 20
297.4658062316286
 30
0.0
 10
216.0085028928342
 20
291.6475454825903
 30
0.0
 10
216.1650812530172
 20
288.693893156619
 30
0.0
 10
218.0489737054257
 20
287.5367849049736
 30
0.0
 10
218.8822501401857
 20
287.9536186175824
 30
0.0
 10
219.2325244857039
 20
288.1288379683083
 30
0.0
 11
215.5125415590089
 21
287.7746602911177
 31
0.0
 11
218.0811010435078
 21
289.7226458576599
 31
0.0
 11
218.6568127646057
 21
294.9025164928561
 31
0.0
 11
216.3982524010982
 21
291.360724705361
 31
0.0
 11
216.7968223887913
 21
288.4830173138978
 31
0.0
 11
218.1696719102102
 21
287.7746602911177
 31
0.0
 11
219.2325244857039
 21
288.1288379683083
 31
0.0
  0
LEADER
  5
4AAE
330
1A
100
AcDbEntity
  8
寸法線
 48
10.0
100
AcDbLeader
  3
ISO-25
 76
     3
 10
241.803740587346
 20
411.714867613336
 30
0.0
 10
276.454325909036
 20
483.943443870185
 30
0.0
 10
265.163237385536
 20
483.943443870185
 30
0.0
213
22.69443645724175
223
0.01558638966929493
233
0.0
1001
ACAD
1000
DSTYLE
1002
{
1070
     5
1000
OPEN30
1070
   147
1040
0.625
1070
    77
1070
     0
1070
    41
1040
6.0
1070
    47
1040
0.1
1070
    48
1040
0.1
1070
    73
1070
     0
1070
   140
1040
8.0
1070
   271
1070
     1
1070
   272
1070
     1
1070
   341
1005
2AF4
1070
   342
1005
2AF4
1002
}
  0
LINE
  5
4C1B
330
1A
100
AcDbEntity
  8
下書線
 48
10.0
100
AcDbLine
 10
43.897348293024
 20
483.943443870185
 30
0.0
 11
566.461753126437
 21
483.943443870185
 31
0.0
  0
LINE
  5
4D3B
330
1A
100
AcDbEntity
  8
寸法線
100
AcDbLine
 10
51.508469647672
 20
153.999822800805
 30
0.0
 11
623.246269360295
 21
153.999822800805
 31
0.0
  0
LINE
  5
4D3D
330
1A
100
AcDbEntity
  8
寸法線
100
AcDbLine
 10
51.508469647672
 20
245.368205553843
 30
0.0
 11
623.246269360295
 21
245.368205553843
 31
0.0
  0
LINE
  5
4D3E
330
1A
100
AcDbEntity
  8
寸法線
100
AcDbLine
 10
51.508469647672
 20
259.438205553843
 30
0.0
 11
623.246269360295
 21
259.438205553843
 31
0.0
  0
LINE
  5
4D3F
330
1A
100
AcDbEntity
  8
寸法線
100
AcDbLine
 10
51.508469647672
 20
140.947196693228
 30
0.0
 11
51.508469647672
 21
259.438205553843
 31
0.0
  0
LINE
  5
4D41
330
1A
100
AcDbEntity
  8
寸法線
100
AcDbLine
 10
51.508469647672
 20
219.26295333869
 30
0.0
 11
623.246269360295
 21
219.26295333869
 31
0.0
  0
LINE
  5
4D42
330
1A
100
AcDbEntity
  8
寸法線
100
AcDbLine
 10
51.508469647672
 20
206.210327231114
 30
0.0
 11
623.246269360295
 21
206.210327231114
 31
0.0
  0
LINE
  5
4D43
330
1A
100
AcDbEntity
  8
寸法線
100
AcDbLine
 10
51.508469647672
 20
193.157701123537
 30
0.0
 11
623.246269360295
 21
193.157701123537
 31
0.0
  0
LINE
  5
4D44
330
1A
100
AcDbEntity
  8
寸法線
100
AcDbLine
 10
51.508469647672
 20
180.105075015959
 30
0.0
 11
623.246269360295
 21
180.105075015959
 31
0.0
  0
LINE
  5
4D45
330
1A
100
AcDbEntity
  8
寸法線
100
AcDbLine
 10
51.508469647672
 20
167.052448908382
 30
0.0
 11
623.246269360295
 21
167.052448908382
 31
0.0
  0
LINE
  5
4D46
330
1A
100
AcDbEntity
  8
寸法線
100
AcDbLine
 10
336.110119479645
 20
140.947196693228
 30
0.0
 11
336.110119479646
 21
259.438205553843
 31
0.0
  0
LINE
  5
4D47
330
1A
100
AcDbEntity
  8
寸法線
100
AcDbLine
 10
51.508469647672
 20
232.315579446267
 30
0.0
 11
623.246269360295
 21
232.315579446267
 31
0.0
  0
MTEXT
  5
4D48
102
{ACAD_XDICTIONARY
360
4D49
102
}
330
1A
100
AcDbEntity
  8
寸法線
 48
10.0
100
AcDbMText
 10
86.970329482683
 20
256.581424522449
 30
0.0
 40
8.0
 41
63.841343128401
 71
     1
 72
     5
  1
\PTSS-A1SA-025\PTSS-A1SA-030\PTSS-A1SA-035\PTSS-A1SA-040\PTSS-A1SA-045\PTSS-A1SA-050\PTSS-A1SA-055\PTSS-A1SA-060
1001
ACADANNOTATIVE
1000
AnnotativeData
1002
{
1070
     1
1070
     0
1002
}
1001
ACAD
1000
MTEXTBEGIN
1070
    44
1040
0.99
1000
MTEXTEND
  0
LINE
  5
4D5F
330
1A
100
AcDbEntity
  8
寸法線
100
AcDbLine
 10
338.644619528322
 20
140.947196693228
 30
0.0
 11
338.644619528322
 21
259.438205553843
 31
0.0
  0
MTEXT
  5
4D61
102
{ACAD_XDICTIONARY
360
4D62
102
}
330
1A
100
AcDbEntity
  8
寸法線
 48
10.0
100
AcDbMText
 10
374.106479363333
 20
256.581424522449
 30
0.0
 40
8.0
 41
63.841343128401
 71
     1
 72
     5
  1
\PTSS-A1SA-065\PTSS-A1SA-070\PTSS-A1SA-075\PTSS-A1SA-080\PTSS-A1SA-085\PTSS-A1SA-090\PTSS-A1SA-095\PTSS-A1SA-100
1001
ACADANNOTATIVE
1000
AnnotativeData
1002
{
1070
     1
1070
     0
1002
}
1001
ACAD
1000
MTEXTBEGIN
1070
    44
1040
0.99
1000
MTEXTEND
  0
LINE
  5
4D7C
330
1A
100
AcDbEntity
  8
寸法線
100
AcDbLine
 10
51.508469647672
 20
140.947196693228
 30
0.0
 11
623.246269360295
 21
140.947196693228
 31
0.0
  0
MTEXT
  5
4E46
102
{ACAD_XDICTIONARY
360
4E47
102
}
330
1A
100
AcDbEntity
  8
寸法線
 48
10.0
100
AcDbMText
 10
175.156537543102
 20
242.629524661887
 30
0.0
 40
8.0
 41
23.854899029718
 71
     2
 72
     5
  1
250\P300\P350\P400\P450\P500\P550\P600
1001
ACADANNOTATIVE
1000
AnnotativeData
1002
{
1070
     1
1070
     0
1002
}
1001
ACAD
1000
MTEXTBEGIN
1070
    44
1040
0.98
1000
MTEXTEND
  0
MTEXT
  5
4E4A
102
{ACAD_XDICTIONARY
360
4E4B
102
}
330
1A
100
AcDbEntity
  8
寸法線
 48
10.0
100
AcDbMText
 10
201.374312774345
 20
242.629524661887
 30
0.0
 40
8.0
 41
23.854899029718
 71
     2
 72
     5
  1
100\P100\P100\P100\P100\P100\P150\P150
1001
ACADANNOTATIVE
1000
AnnotativeData
1002
{
1070
     1
1070
     0
1002
}
1001
ACAD
1000
MTEXTBEGIN
1070
    44
1040
0.98
1000
MTEXTEND
  0
MTEXT
  5
4E4E
102
{ACAD_XDICTIONARY
360
4E4F
102
}
330
1A
100
AcDbEntity
  8
寸法線
 48
10.0
100
AcDbMText
 10
227.356634319114
 20
242.629524661887
 30
0.0
 40
8.0
 41
23.854899029718
 71
     2
 72
     5
  1
50\P50\P50\P50\P50\P50\P50\P50
1001
ACADANNOTATIVE
1000
AnnotativeData
1002
{
1070
     1
1070
     0
1002
}
1001
ACAD
1000
MTEXTBEGIN
1070
    44
1040
0.98
1000
MTEXTEND
  0
MTEXT
  5
4E52
102
{ACAD_XDICTIONARY
360
4E53
102
}
330
1A
100
AcDbEntity
  8
寸法線
 48
10.0
100
AcDbMText
 10
252.456792598527
 20
242.629524661887
 30
0.0
 40
8.0
 41
23.854899029718
 71
     2
 72
     5
  1
100\P150\P200\P250\P300\P350\P350\P400
1001
ACADANNOTATIVE
1000
AnnotativeData
1002
{
1070
     1
1070
     0
1002
}
1001
ACAD
1000
MTEXTBEGIN
1070
    44
1040
0.98
1000
MTEXTEND
  0
MTEXT
  5
4E56
102
{ACAD_XDICTIONARY
360
4E57
102
}
330
1A
100
AcDbEntity
  8
寸法線
 48
10.0
100
AcDbMText
 10
489.500328945036
 20
242.629524661887
 30
0.0
 40
8.0
 41
23.854899029718
 71
     2
 72
     5
  1
150\P150\P150\P150\P150\P150\P150\P150
1001
ACADANNOTATIVE
1000
AnnotativeData
1002
{
1070
     1
1070
     0
1002
}
1001
ACAD
1000
MTEXTBEGIN
1070
    44
1040
0.98
1000
MTEXTEND
  0
MTEXT
  5
4E5A
102
{ACAD_XDICTIONARY
360
4E5B
102
}
330
1A
100
AcDbEntity
  8
寸法線
 48
10.0
100
AcDbMText
 10
514.900619390287
 20
242.629524661887
 30
0.0
 40
8.0
 41
23.854899029718
 71
     2
 72
     5
  1
50\P50\P50\P50\P50\P50\P50\P50
1001
ACADANNOTATIVE
1000
AnnotativeData
1002
{
1070
     1
1070
     0
1002
}
1001
ACAD
1000
MTEXTBEGIN
1070
    44
1040
0.98
1000
MTEXTEND
  0
MTEXT
  5
4E5E
102
{ACAD_XDICTIONARY
360
4E5F
102
}
330
1A
100
AcDbEntity
  8
寸法線
 48
10.0
100
AcDbMText
 10
539.575382290209
 20
242.629524661887
 30
0.0
 40
8.0
 41
23.854899029718
 71
     2
 72
     5
  1
450\P500\P550\P600\P650\P700\P750\P800
1001
ACADANNOTATIVE
1000
AnnotativeData
1002
{
1070
     1
1070
     0
1002
}
1001
ACAD
1000
MTEXTBEGIN
1070
    44
1040
0.98
1000
MTEXTEND
  0
MTEXT
  5
4E62
102
{ACAD_XDICTIONARY
360
4E63
102
}
330
1A
100
AcDbEntity
  8
寸法線
 48
10.0
100
AcDbMText
 10
463.280423906853
 20
242.629524661887
 30
0.0
 40
8.0
 41
23.854899029718
 71
     2
 72
     5
  1
650\P700\P750\P800\P850\P900\P950\P1000
1001
ACADANNOTATIVE
1000
AnnotativeData
1002
{
1070
     1
1070
     0
1002
}
1001
ACAD
1000
MTEXTBEGIN
1070
    44
1040
0.98
1000
MTEXTEND
  0
TEXT
  5
5010
330
1A
100
AcDbEntity
  8
寸法線
100
AcDbText
 10
470.186355805173
 20
534.041690831167
 30
0.0
 40
8.0
  1
COLOR：10YR7.5/14
100
AcDbText
  0
MTEXT
  5
506C
330
1A
100
AcDbEntity
  8
寸法線
 48
10.0
100
AcDbMText
 10
490.166237651879
 20
307.212605775691
 30
0.0
 40
8.0
 41
0.0
 71
     7
 72
     1
  1
CONDUIT\PG 1/2"
  0
LEADER
  5
506D
330
1A
100
AcDbEntity
  8
寸法線
 48
10.0
100
AcDbLeader
  3
ISO-25
 76
     3
 10
448.065183142841
 20
353.551934654101
 30
0.0
 10
488.153396721979
 20
306.462456237265
 30
0.0
 10
525.949927533477
 20
306.462456237265
 30
0.0
1001
ACAD
1000
DSTYLE
1002
{
1070
     5
1000
OPEN30
1070
   147
1040
0.625
1070
    77
1070
     0
1070
    41
1040
6.0
1070
    47
1040
0.1
1070
    48
1040
0.1
1070
    73
1070
     0
1070
   140
1040
8.0
1070
   271
1070
     1
1070
   272
1070
     1
1070
   341
1005
2AF4
1070
   342
1005
2AF4
1002
}
  0
MTEXT
  5
50A9
102
{ACAD_XDICTIONARY
360
50AA
102
}
330
1A
100
AcDbEntity
  8
寸法線
 48
10.0
100
AcDbMText
 10
120.003827990503
 20
256.581424522449
 30
0.0
 40
8.0
 41
72.990776685661
 71
     2
 72
     5
  1
MODEL
1001
ACADANNOTATIVE
1000
AnnotativeData
1002
{
1070
     1
1070
     0
1002
}
1001
ACAD
1000
MTEXTBEGIN
1070
    44
1040
0.99
1000
MTEXTEND
  0
LINE
  5
50B5
330
1A
100
AcDbEntity
  8
寸法線
 48
10.0
100
AcDbLine
 10
51.508469647672
 20
245.368205553844
 30
0.0
 11
83.508439647672
 21
259.438205553843
 31
0.0
  0
TEXT
  5
5189
330
1A
100
AcDbEntity
  8
寸法線
 48
10.0
100
AcDbText
 10
112.924208389396
 20
123.122095188083
 30
0.0
 40
8.0
  1
○（Required length）
100
AcDbText
  0
LEADER
  5
518A
330
1A
100
AcDbEntity
  8
寸法線
 48
10.0
100
AcDbLeader
  3
ISO-25
 76
     3
 10
67.800786802255
 20
139.616896818078
 30
0.0
 10
67.800786802255
 20
126.875363256028
 30
0.0
 10
109.148924227266
 20
126.875363256028
 30
0.0
1001
ACAD
1000
DSTYLE
1002
{
1070
     5
1000
OPEN30
1070
   147
1040
0.625
1070
    77
1070
     0
1070
    41
1040
6.0
1070
    47
1040
0.1
1070
    48
1040
0.1
1070
    73
1070
     0
1070
   140
1040
8.0
1070
   271
1070
     1
1070
   272
1070
     1
1070
   341
1005
2AF4
1070
   342
1005
2AF4
1002
}
  0
TEXT
  5
518B
330
1A
100
AcDbEntity
  8
寸法線
 48
10.0
100
AcDbText
 10
398.933499158326
 20
123.122095188083
 30
0.0
 40
8.0
  1
○（Required length）
100
AcDbText
  0
LEADER
  5
518C
330
1A
100
AcDbEntity
  8
寸法線
 48
10.0
100
AcDbLeader
  3
ISO-25
 76
     3
 10
353.810077571185
 20
139.616896818078
 30
0.0
 10
353.810077571185
 20
126.875363256028
 30
0.0
 10
395.158214996196
 20
126.875363256028
 30
0.0
1001
ACAD
1000
DSTYLE
1002
{
1070
     5
1000
OPEN30
1070
   147
1040
0.625
1070
    77
1070
     0
1070
    41
1040
6.0
1070
    47
1040
0.1
1070
    48
1040
0.1
1070
    73
1070
     0
1070
   140
1040
8.0
1070
   271
1070
     1
1070
   272
1070
     1
1070
   341
1005
2AF4
1070
   342
1005
2AF4
1002
}
  0
CIRCLE
  5
520D
330
1A
100
AcDbEntity
  8
寸法線
 48
10.0
100
AcDbCircle
 10
-38.182154110438
 20
188.518029914805
 30
0.0
 40
2.0
  0
CIRCLE
  5
520E
330
1A
100
AcDbEntity
  8
寸法線
 48
10.0
100
AcDbCircle
 10
-15.981714110438
 20
188.518029914805
 30
0.0
 40
2.0
  0
LINE
  5
520F
330
1A
100
AcDbEntity
  8
寸法線
 48
10.0
100
AcDbLine
 10
-49.582422110438
 20
174.517785914805
 30
0.0
 11
-46.582360110438
 21
169.717613914805
 31
0.0
  0
LINE
  5
5210
330
1A
100
AcDbEntity
  8
寸法線
 48
10.0
100
AcDbLine
 10
-46.582360110438
 20
169.717613914805
 30
0.0
 11
-7.581506110438
 21
169.717613914805
 31
0.0
  0
LINE
  5
5211
330
1A
100
AcDbEntity
  8
寸法線
 48
10.0
100
AcDbLine
 10
-7.581506110438
 20
169.717613914805
 30
0.0
 11
-4.581446110438
 21
174.517785914805
 31
0.0
  0
LINE
  5
5212
330
1A
100
AcDbEntity
  8
寸法線
 48
10.0
100
AcDbLine
 10
-50.38017615144
 20
207.269981914805
 30
0.0
 11
-2.275726216995
 21
207.269981914805
 31
0.0
  0
MTEXT
  5
5213
330
1A
100
AcDbEntity
  8
寸法線
 62
     1
 48
10.0
100
AcDbMText
 10
-48.716394153106
 20
217.926556538209
 30
0.0
 40
8.0
 41
55.39356842411
 71
     1
 72
     5
  1
TERMINAL
  0
MTEXT
  5
5214
330
1A
100
AcDbEntity
  8
寸法線
 62
     1
 48
10.0
100
AcDbMText
 10
-60.543508828233
 20
163.082413138186
 30
0.0
 40
8.0
 41
74.443410852713
 71
     1
 72
     5
  1
TO CONVERTER
  0
MTEXT
  5
5215
102
{ACAD_XDICTIONARY
360
5216
102
}
330
1A
100
AcDbEntity
  8
寸法線
 48
10.0
100
AcDbMText
 10
-38.182154110438
 20
183.396603945193
 30
0.0
 40
8.0
 41
5.580100571959
 71
     2
 72
     5
  1
P
1001
ACADANNOTATIVE
1000
AnnotativeData
1002
{
1070
     1
1070
     0
1002
}
  0
MTEXT
  5
5219
102
{ACAD_XDICTIONARY
360
521A
102
}
330
1A
100
AcDbEntity
  8
寸法線
 48
10.0
100
AcDbMText
 10
-15.981714110438
 20
183.396603945193
 30
0.0
 40
8.0
 41
5.580100571959
 71
     2
 72
     5
  1
E
1001
ACADANNOTATIVE
1000
AnnotativeData
1002
{
1070
     1
1070
     0
1002
}
  0
LINE
  5
55AD
330
1A
100
AcDbEntity
  8
寸法線
100
AcDbLine
 10
83.508439647672
 20
140.947196693228
 30
0.0
 11
83.508439647672
 21
259.438205553843
 31
0.0
  0
LINE
  5
55AE
330
1A
100
AcDbEntity
  8
寸法線
100
AcDbLine
 10
304.353800915357
 20
140.947196693228
 30
0.0
 11
304.353800915357
 21
259.438205553843
 31
0.0
  0
LINE
  5
55AF
330
1A
100
AcDbEntity
  8
寸法線
100
AcDbLine
 10
336.110119479645
 20
140.947196693228
 30
0.0
 11
336.110119479646
 21
259.438205553843
 31
0.0
  0
LINE
  5
55B0
330
1A
100
AcDbEntity
  8
寸法線
 48
10.0
100
AcDbLine
 10
162.406168445309
 20
259.438205553843
 30
0.0
 11
162.406168445309
 21
140.947196693228
 31
0.0
  0
LINE
  5
55B1
330
1A
100
AcDbEntity
  8
寸法線
 48
10.0
100
AcDbLine
 10
190.040302405039
 20
259.438205553843
 30
0.0
 11
190.040302405039
 21
140.947196693228
 31
0.0
  0
LINE
  5
55B2
330
1A
100
AcDbEntity
  8
寸法線
 48
10.0
100
AcDbLine
 10
215.890877522551
 20
259.438205553843
 30
0.0
 11
215.890877522551
 21
140.947196693228
 31
0.0
  0
LINE
  5
55B3
330
1A
100
AcDbEntity
  8
寸法線
 48
10.0
100
AcDbLine
 10
239.957893797845
 20
259.438205553843
 30
0.0
 11
239.957893797845
 21
140.947196693228
 31
0.0
  0
LINE
  5
55B4
330
1A
100
AcDbEntity
  8
寸法線
 48
10.0
100
AcDbLine
 10
265.808468915357
 20
259.438205553843
 30
0.0
 11
265.808468915357
 21
140.947196693228
 31
0.0
  0
SPLINE
  5
55B5
330
1A
100
AcDbEntity
  8
寸法線
 48
10.0
100
AcDbSpline
210
0.0
220
0.0
230
1.0
 70
  1064
 71
     3
 72
    13
 73
     9
 74
     7
 42
0.000000001
 43
0.0000000001
 44
0.0000000001
 40
0.0
 40
0.0
 40
0.0
 40
0.0
 40
3.546053604694681
 40
9.278996093298959
 40
13.89970108471588
 40
17.09539662994944
 40
18.79470455702454
 40
20.0270469945584
 40
20.0270469945584
 40
20.0270469945584
 40
20.0270469945584
 10
173.5527835265588
 20
248.5569812458303
 30
0.0
 10
174.6073117956372
 20
249.0441099800344
 30
0.0
 10
177.3667071065531
 20
250.3187849075736
 30
0.0
 10
178.0316440129132
 20
259.2172417803921
 30
0.0
 10
174.0983409937669
 20
252.8171549564501
 30
0.0
 10
174.2705771899679
 20
249.5681373978816
 30
0.0
 10
176.3428588876173
 20
248.2953183210717
 30
0.0
 10
177.2594629658532
 20
248.7538354049413
 30
0.0
 10
177.6447647459233
 20
248.94657669074
 30
0.0
 11
173.5527835265588
 21
248.5569812458303
 31
0.0
 11
176.3781989595076
 21
250.6997653690267
 31
0.0
 11
177.0114818527153
 21
256.3976230677425
 31
0.0
 11
174.5270654528571
 21
252.5016521014979
 31
0.0
 11
174.9654924393195
 21
249.3361739708884
 31
0.0
 11
176.4756269128803
 21
248.5569812458303
 31
0.0
 11
177.6447647459233
 21
248.94657669074
 31
0.0
  0
SPLINE
  5
55B6
330
1A
100
AcDbEntity
  8
寸法線
 48
10.0
100
AcDbSpline
210
0.0
220
0.0
230
1.0
 70
  1064
 71
     3
 72
    13
 73
     9
 74
     7
 42
0.000000001
 43
0.0000000001
 44
0.0000000001
 40
0.0
 40
0.0
 40
0.0
 40
0.0
 40
3.546053604694681
 40
9.278996093298959
 40
13.89970108471588
 40
17.09539662994944
 40
18.79470455702454
 40
20.0270469945584
 40
20.0270469945584
 40
20.0270469945584
 40
20.0270469945584
 10
199.575235472997
 20
248.5569812458303
 30
0.0
 10
200.6297637420753
 20
249.0441099800344
 30
0.0
 10
203.3891590529913
 20
250.3187849075736
 30
0.0
 10
204.0540959593514
 20
259.2172417803921
 30
0.0
 10
200.1207929402051
 20
252.8171549564501
 30
0.0
 10
200.2930291364061
 20
249.5681373978816
 30
0.0
 10
202.3653108340555
 20
248.2953183210717
 30
0.0
 10
203.2819149122914
 20
248.7538354049413
 30
0.0
 10
203.6672166923615
 20
248.94657669074
 30
0.0
 11
199.575235472997
 21
248.5569812458303
 31
0.0
 11
202.4006509059458
 21
250.6997653690267
 31
0.0
 11
203.0339337991535
 21
256.3976230677425
 31
0.0
 11
200.5495173992953
 21
252.5016521014979
 31
0.0
 11
200.9879443857577
 21
249.3361739708884
 31
0.0
 11
202.4980788593185
 21
248.5569812458303
 31
0.0
 11
203.6672166923615
 21
248.94657669074
 31
0.0
  0
TEXT
  5
55B7
330
1A
100
AcDbEntity
  8
寸法線
 48
10.0
100
AcDbText
 10
206.033264270481
 20
248.641308985174
 30
0.0
 40
5.2
  1
1
100
AcDbText
  0
SPLINE
  5
55B8
330
1A
100
AcDbEntity
  8
寸法線
 48
10.0
100
AcDbSpline
210
0.0
220
0.0
230
1.0
 70
  1064
 71
     3
 72
    13
 73
     9
 74
     7
 42
0.000000001
 43
0.0000000001
 44
0.0000000001
 40
0.0
 40
0.0
 40
0.0
 40
0.0
 40
3.546053604694681
 40
9.278996093298959
 40
13.89970108471588
 40
17.09539662994944
 40
18.79470455702454
 40
20.0270469945584
 40
20.0270469945584
 40
20.0270469945584
 40
20.0270469945584
 10
223.6422517482906
 20
248.5569812458303
 30
0.0
 10
224.6967800173689
 20
249.0441099800344
 30
0.0
 10
227.4561753282849
 20
250.3187849075736
 30
0.0
 10
228.1211122346449
 20
259.2172417803921
 30
0.0
 10
224.1878092154986
 20
252.8171549564501
 30
0.0
 10
224.3600454116997
 20
249.5681373978816
 30
0.0
 10
226.432327109349
 20
248.2953183210717
 30
0.0
 10
227.348931187585
 20
248.7538354049413
 30
0.0
 10
227.734232967655
 20
248.94657669074
 30
0.0
 11
223.6422517482906
 21
248.5569812458303
 31
0.0
 11
226.4676671812394
 21
250.6997653690267
 31
0.0
 11
227.1009500744471
 21
256.3976230677425
 31
0.0
 11
224.6165336745889
 21
252.5016521014979
 31
0.0
 11
225.0549606610512
 21
249.3361739708884
 31
0.0
 11
226.565095134612
 21
248.5569812458303
 31
0.0
 11
227.734232967655
 21
248.94657669074
 31
0.0
  0
TEXT
  5
55B9
330
1A
100
AcDbEntity
  8
寸法線
 48
10.0
100
AcDbText
 10
230.100280545775
 20
248.641308985174
 30
0.0
 40
5.2
  1
2
100
AcDbText
  0
TEXT
  5
55BA
330
1A
100
AcDbEntity
  8
寸法線
 48
10.0
100
AcDbText
 10
255.950855663287
 20
248.641308985174
 30
0.0
 40
5.2
  1
3
100
AcDbText
  0
SPLINE
  5
55BB
330
1A
100
AcDbEntity
  8
寸法線
 48
10.0
100
AcDbSpline
210
0.0
220
0.0
230
1.0
 70
  1064
 71
     3
 72
    13
 73
     9
 74
     7
 42
0.000000001
 43
0.0000000001
 44
0.0000000001
 40
0.0
 40
0.0
 40
0.0
 40
0.0
 40
3.546053604694681
 40
9.278996093298959
 40
13.89970108471594
 40
17.09539662994952
 40
18.79470455702462
 40
20.02704699455848
 40
20.02704699455848
 40
20.02704699455848
 40
20.02704699455848
 10
249.4928268658024
 20
248.5569812458303
 30
0.0
 10
250.5473551348807
 20
249.0441099800344
 30
0.0
 10
253.3067504457966
 20
250.3187849075735
 30
0.0
 10
253.971687352157
 20
259.2172417803922
 30
0.0
 10
250.0383843330102
 20
252.8171549564501
 30
0.0
 10
250.2106205292116
 20
249.5681373978816
 30
0.0
 10
252.2829022268608
 20
248.2953183210717
 30
0.0
 10
253.1995063050969
 20
248.7538354049413
 30
0.0
 10
253.5848080851669
 20
248.94657669074
 30
0.0
 11
249.4928268658024
 21
248.5569812458303
 31
0.0
 11
252.3182422987513
 21
250.6997653690267
 31
0.0
 11
252.951525191959
 21
256.3976230677425
 31
0.0
 11
250.4671087921006
 21
252.5016521014979
 31
0.0
 11
250.9055357785631
 21
249.3361739708884
 31
0.0
 11
252.4156702521239
 21
248.5569812458303
 31
0.0
 11
253.5848080851669
 21
248.94657669074
 31
0.0
  0
MTEXT
  5
55C0
102
{ACAD_XDICTIONARY
360
55C1
102
}
330
1A
100
AcDbEntity
  8
寸法線
 48
10.0
100
AcDbMText
 10
319.9521835431
 20
256.748902888195
 30
0.0
 40
8.0
 41
31.756318564289
 71
     2
 72
     5
  1
Q'ty
1001
ACADANNOTATIVE
1000
AnnotativeData
1002
{
1070
     1
1070
     0
1002
}
  0
MTEXT
  5
55C4
102
{ACAD_XDICTIONARY
360
55C5
102
}
330
1A
100
AcDbEntity
  8
寸法線
 48
10.0
100
AcDbMText
 10
284.801358260956
 20
255.693172028355
 30
0.0
 40
8.0
 41
38.545332
 71
     2
 72
     5
  1
NOTE
1001
ACADANNOTATIVE
1000
AnnotativeData
1002
{
1070
     1
1070
     0
1002
}
  0
LINE
  5
565E
330
1A
100
AcDbEntity
  8
寸法線
100
AcDbLine
 10
338.644619528322
 20
140.947196693228
 30
0.0
 11
338.644619528322
 21
259.438205553843
 31
0.0
  0
MTEXT
  5
565F
102
{ACAD_XDICTIONARY
360
5660
102
}
330
1A
100
AcDbEntity
  8
寸法線
 48
10.0
100
AcDbMText
 10
407.139977871152
 20
256.581424522449
 30
0.0
 40
8.0
 41
72.990776685661
 71
     2
 72
     5
  1
MODEL
1001
ACADANNOTATIVE
1000
AnnotativeData
1002
{
1070
     1
1070
     0
1002
}
1001
ACAD
1000
MTEXTBEGIN
1070
    44
1040
0.99
1000
MTEXTEND
  0
LINE
  5
5663
330
1A
100
AcDbEntity
  8
寸法線
 48
10.0
100
AcDbLine
 10
338.644619528322
 20
245.368205553844
 30
0.0
 11
370.644589528322
 21
259.438205553843
 31
0.0
  0
LINE
  5
5664
330
1A
100
AcDbEntity
  8
寸法線
100
AcDbLine
 10
370.644589528322
 20
140.947196693228
 30
0.0
 11
370.644589528322
 21
259.438205553843
 31
0.0
  0
LINE
  5
5665
330
1A
100
AcDbEntity
  8
寸法線
100
AcDbLine
 10
591.489950796006
 20
140.947196693228
 30
0.0
 11
591.489950796006
 21
259.438205553843
 31
0.0
  0
LINE
  5
5666
330
1A
100
AcDbEntity
  8
寸法線
100
AcDbLine
 10
623.246269360295
 20
140.947196693228
 30
0.0
 11
623.246269360295
 21
259.438205553843
 31
0.0
  0
LINE
  5
5667
330
1A
100
AcDbEntity
  8
寸法線
 48
10.0
100
AcDbLine
 10
449.542318325959
 20
259.438205553843
 30
0.0
 11
449.542318325959
 21
140.947196693228
 31
0.0
  0
LINE
  5
5668
330
1A
100
AcDbEntity
  8
寸法線
 48
10.0
100
AcDbLine
 10
477.176452285689
 20
259.438205553843
 30
0.0
 11
477.176452285689
 21
140.947196693228
 31
0.0
  0
LINE
  5
5669
330
1A
100
AcDbEntity
  8
寸法線
 48
10.0
100
AcDbLine
 10
503.027027403201
 20
259.438205553843
 30
0.0
 11
503.027027403201
 21
140.947196693228
 31
0.0
  0
LINE
  5
566A
330
1A
100
AcDbEntity
  8
寸法線
 48
10.0
100
AcDbLine
 10
527.094043678494
 20
259.438205553843
 30
0.0
 11
527.094043678494
 21
140.947196693228
 31
0.0
  0
LINE
  5
566B
330
1A
100
AcDbEntity
  8
寸法線
 48
10.0
100
AcDbLine
 10
552.944618796006
 20
259.438205553843
 30
0.0
 11
552.944618796006
 21
140.947196693228
 31
0.0
  0
SPLINE
  5
566C
330
1A
100
AcDbEntity
  8
寸法線
 48
10.0
100
AcDbSpline
210
0.0
220
0.0
230
1.0
 70
  1064
 71
     3
 72
    13
 73
     9
 74
     7
 42
0.000000001
 43
0.0000000001
 44
0.0000000001
 40
0.0
 40
0.0
 40
0.0
 40
0.0
 40
3.546053604694681
 40
9.278996093298959
 40
13.89970108471588
 40
17.09539662994944
 40
18.79470455702454
 40
20.0270469945584
 40
20.0270469945584
 40
20.0270469945584
 40
20.0270469945584
 10
460.6889334072083
 20
248.5569812458303
 30
0.0
 10
461.7434616762866
 20
249.0441099800344
 30
0.0
 10
464.5028569872026
 20
250.3187849075736
 30
0.0
 10
465.1677938935626
 20
259.2172417803921
 30
0.0
 10
461.2344908744162
 20
252.8171549564501
 30
0.0
 10
461.4067270706175
 20
249.5681373978816
 30
0.0
 10
463.4790087682666
 20
248.2953183210717
 30
0.0
 10
464.3956128465026
 20
248.7538354049413
 30
0.0
 10
464.7809146265727
 20
248.94657669074
 30
0.0
 11
460.6889334072083
 21
248.5569812458303
 31
0.0
 11
463.5143488401571
 21
250.6997653690267
 31
0.0
 11
464.1476317333648
 21
256.3976230677425
 31
0.0
 11
461.6632153335066
 21
252.5016521014979
 31
0.0
 11
462.1016423199689
 21
249.3361739708884
 31
0.0
 11
463.6117767935297
 21
248.5569812458303
 31
0.0
 11
464.7809146265727
 21
248.94657669074
 31
0.0
  0
SPLINE
  5
566D
330
1A
100
AcDbEntity
  8
寸法線
 48
10.0
100
AcDbSpline
210
0.0
220
0.0
230
1.0
 70
  1064
 71
     3
 72
    13
 73
     9
 74
     7
 42
0.000000001
 43
0.0000000001
 44
0.0000000001
 40
0.0
 40
0.0
 40
0.0
 40
0.0
 40
3.546053604694681
 40
9.278996093298959
 40
13.89970108471588
 40
17.09539662994944
 40
18.79470455702454
 40
20.0270469945584
 40
20.0270469945584
 40
20.0270469945584
 40
20.0270469945584
 10
486.7113853536464
 20
248.5569812458303
 30
0.0
 10
487.7659136227248
 20
249.0441099800344
 30
0.0
 10
490.5253089336406
 20
250.3187849075736
 30
0.0
 10
491.1902458400007
 20
259.2172417803921
 30
0.0
 10
487.2569428208546
 20
252.8171549564501
 30
0.0
 10
487.4291790170554
 20
249.5681373978816
 30
0.0
 10
489.501460714705
 20
248.2953183210717
 30
0.0
 10
490.4180647929408
 20
248.7538354049413
 30
0.0
 10
490.8033665730109
 20
248.94657669074
 30
0.0
 11
486.7113853536464
 21
248.5569812458303
 31
0.0
 11
489.5368007865953
 21
250.6997653690267
 31
0.0
 11
490.170083679803
 21
256.3976230677425
 31
0.0
 11
487.6856672799448
 21
252.5016521014979
 31
0.0
 11
488.1240942664071
 21
249.3361739708884
 31
0.0
 11
489.6342287399679
 21
248.5569812458303
 31
0.0
 11
490.8033665730109
 21
248.94657669074
 31
0.0
  0
TEXT
  5
566E
330
1A
100
AcDbEntity
  8
寸法線
 48
10.0
100
AcDbText
 10
493.169414151131
 20
248.641308985174
 30
0.0
 40
5.2
  1
1
100
AcDbText
  0
SPLINE
  5
566F
330
1A
100
AcDbEntity
  8
寸法線
 48
10.0
100
AcDbSpline
210
0.0
220
0.0
230
1.0
 70
  1064
 71
     3
 72
    13
 73
     9
 74
     7
 42
0.000000001
 43
0.0000000001
 44
0.0000000001
 40
0.0
 40
0.0
 40
0.0
 40
0.0
 40
3.546053604694636
 40
9.278996093298913
 40
13.89970108471581
 40
17.09539662994938
 40
18.79470455702447
 40
20.02704699455822
 40
20.02704699455822
 40
20.02704699455822
 40
20.02704699455822
 10
510.77840162894
 20
248.5569812458303
 30
0.0
 10
511.8329298980184
 20
249.0441099800344
 30
0.0
 10
514.5923252089345
 20
250.3187849075737
 30
0.0
 10
515.2572621152943
 20
259.2172417803922
 30
0.0
 10
511.3239590961481
 20
252.8171549564501
 30
0.0
 10
511.4961952923492
 20
249.5681373978817
 30
0.0
 10
513.5684769899984
 20
248.2953183210717
 30
0.0
 10
514.4850810682343
 20
248.7538354049413
 30
0.0
 10
514.8703828483044
 20
248.94657669074
 30
0.0
 11
510.77840162894
 21
248.5569812458303
 31
0.0
 11
513.6038170618888
 21
250.6997653690267
 31
0.0
 11
514.2370999550965
 21
256.3976230677425
 31
0.0
 11
511.7526835552383
 21
252.5016521014979
 31
0.0
 11
512.1911105417007
 21
249.3361739708884
 31
0.0
 11
513.7012450152615
 21
248.5569812458303
 31
0.0
 11
514.8703828483044
 21
248.94657669074
 31
0.0
  0
TEXT
  5
5670
330
1A
100
AcDbEntity
  8
寸法線
 48
10.0
100
AcDbText
 10
517.236430426424
 20
248.641308985174
 30
0.0
 40
5.2
  1
2
100
AcDbText
  0
TEXT
  5
5671
330
1A
100
AcDbEntity
  8
寸法線
 48
10.0
100
AcDbText
 10
543.087005543936
 20
248.641308985174
 30
0.0
 40
5.2
  1
3
100
AcDbText
  0
SPLINE
  5
5672
330
1A
100
AcDbEntity
  8
寸法線
 48
10.0
100
AcDbSpline
210
0.0
220
0.0
230
1.0
 70
  1064
 71
     3
 72
    13
 73
     9
 74
     7
 42
0.000000001
 43
0.0000000001
 44
0.0000000001
 40
0.0
 40
0.0
 40
0.0
 40
0.0
 40
3.546053604694681
 40
9.278996093298959
 40
13.89970108471588
 40
17.09539662994946
 40
18.79470455702456
 40
20.02704699455831
 40
20.02704699455831
 40
20.02704699455831
 40
20.02704699455831
 10
536.6289767464518
 20
248.5569812458303
 30
0.0
 10
537.6835050155302
 20
249.0441099800344
 30
0.0
 10
540.442900326446
 20
250.3187849075736
 30
0.0
 10
541.1078372328063
 20
259.2172417803922
 30
0.0
 10
537.1745342136599
 20
252.8171549564501
 30
0.0
 10
537.346770409861
 20
249.5681373978816
 30
0.0
 10
539.4190521075102
 20
248.2953183210716
 30
0.0
 10
540.3356561857463
 20
248.7538354049413
 30
0.0
 10
540.7209579658163
 20
248.94657669074
 30
0.0
 11
536.6289767464518
 21
248.5569812458303
 31
0.0
 11
539.4543921794007
 21
250.6997653690267
 31
0.0
 11
540.0876750726084
 21
256.3976230677425
 31
0.0
 11
537.6032586727501
 21
252.5016521014979
 31
0.0
 11
538.0416856592126
 21
249.3361739708884
 31
0.0
 11
539.5518201327734
 21
248.5569812458303
 31
0.0
 11
540.7209579658163
 21
248.94657669074
 31
0.0
  0
MTEXT
  5
5673
102
{ACAD_XDICTIONARY
360
5674
102
}
330
1A
100
AcDbEntity
  8
寸法線
 48
10.0
100
AcDbMText
 10
607.08833342375
 20
256.748902888195
 30
0.0
 40
8.0
 41
31.756318564289
 71
     2
 72
     5
  1
Q'ty
1001
ACADANNOTATIVE
1000
AnnotativeData
1002
{
1070
     1
1070
     0
1002
}
  0
MTEXT
  5
5677
102
{ACAD_XDICTIONARY
360
5678
102
}
330
1A
100
AcDbEntity
  8
寸法線
 48
10.0
100
AcDbMText
 10
571.937508141605
 20
255.693172028355
 30
0.0
 40
8.0
 41
38.545332
 71
     2
 72
     5
  1
NOTE
1001
ACADANNOTATIVE
1000
AnnotativeData
1002
{
1070
     1
1070
     0
1002
}
  0
DIMENSION
  5
5B1C
330
1A
100
AcDbEntity
  8
寸法線
 48
10.0
100
AcDbDimension
  2
*D20
 10
79.165272331073
 20
390.214867613336
 30
0.0
 11
79.165272331073
 21
430.27320094667
 31
0.0
 70
   160
  1
φ<>
  3
ISO-25
100
AcDbAlignedDimension
 13
92.803740587346
 23
411.714867613336
 33
0.0
 14
92.803740587346
 24
390.214867613336
 34
0.0
 50
90.0
100
AcDbRotatedDimension
1001
ACAD
1000
DSTYLE
1002
{
1070
     5
1000
OPEN30
1070
    41
1040
6.0
1070
    47
1040
0.1
1070
    48
1040
0.1
1070
    73
1070
     0
1070
   140
1040
8.0
1070
   271
1070
     1
1070
   272
1070
     1
1070
   341
1005
2AF4
1002
}
  0
LINE
  5
5B1D
330
1A
100
AcDbEntity
  8
外形線
100
AcDbLine
 10
191.803740587346
 20
390.214867613336
 30
0.0
 11
191.803740587346
 21
411.714867613336
 31
0.0
  0
LINE
  5
5B1E
330
1A
100
AcDbEntity
  8
外形線
100
AcDbLine
 10
191.803740587346
 20
411.714867613336
 30
0.0
 11
145.303740587345
 21
411.714867613336
 31
0.0
  0
LINE
  5
5B1F
330
1A
100
AcDbEntity
  8
外形線
100
AcDbLine
 10
92.803740587346
 20
411.714867613336
 30
0.0
 11
91.803740587346
 21
410.714867613336
 31
0.0
  0
LINE
  5
5B20
330
1A
100
AcDbEntity
  8
外形線
100
AcDbLine
 10
91.803740587346
 20
410.714867613336
 30
0.0
 11
91.803740587346
 21
391.214867613336
 31
0.0
  0
LINE
  5
5B21
330
1A
100
AcDbEntity
  8
外形線
100
AcDbLine
 10
92.803740587346
 20
390.214867613336
 30
0.0
 11
91.803740587346
 21
391.214867613336
 31
0.0
  0
LINE
  5
5B22
330
1A
100
AcDbEntity
  8
外形線
100
AcDbLine
 10
191.803740587346
 20
390.214867613336
 30
0.0
 11
145.303740587345
 21
390.214867613336
 31
0.0
  0
ARC
  5
5B23
330
1A
100
AcDbEntity
  8
細線
 48
10.0
100
AcDbCircle
 10
132.081084337346
 20
406.339867613337
 30
0.0
 40
8.222656249999796
100
AcDbArc
 50
319.180234332391
 51
40.819765667609
  0
ARC
  5
5B24
330
1A
100
AcDbEntity
  8
細線
 48
10.0
100
AcDbCircle
 10
132.081084337346
 20
395.589867613337
 30
0.0
 40
8.222656249999796
100
AcDbArc
 50
319.180234332391
 51
40.819765667609
  0
ARC
  5
5B25
330
1A
100
AcDbEntity
  8
細線
 48
10.0
100
AcDbCircle
 10
144.526396837345
 20
406.339867613336
 30
0.0
 40
8.222656249999796
100
AcDbArc
 50
139.180234332391
 51
220.819765667608
  0
ARC
  5
5B26
330
1A
100
AcDbEntity
  8
細線
 48
10.0
100
AcDbCircle
 10
151.526396837345
 20
406.339867613337
 30
0.0
 40
8.222656249999796
100
AcDbArc
 50
139.180234332391
 51
220.819765667608
  0
ARC
  5
5B27
330
1A
100
AcDbEntity
  8
細線
 48
10.0
100
AcDbCircle
 10
139.081084337346
 20
395.589867613337
 30
0.0
 40
8.222656249999796
100
AcDbArc
 50
319.180234332391
 51
40.819765667609
  0
ARC
  5
5B28
330
1A
100
AcDbEntity
  8
細線
 48
10.0
100
AcDbCircle
 10
151.526396837345
 20
395.589867613337
 30
0.0
 40
8.222656249999796
100
AcDbArc
 50
139.180234332391
 51
220.819765667608
  0
LINE
  5
5B29
330
1A
100
AcDbEntity
  8
外形線
100
AcDbLine
 10
138.303740587346
 20
411.714867613336
 30
0.0
 11
92.803740587346
 21
411.714867613336
 31
0.0
  0
LINE
  5
5B2A
330
1A
100
AcDbEntity
  8
外形線
100
AcDbLine
 10
138.303740587345
 20
390.214867613336
 30
0.0
 11
92.803740587346
 21
390.214867613336
 31
0.0
  0
VIEWPORT
  5
2902
330
28FB
100
AcDbEntity
 67
     1
  8
0
 48
10.0
100
AcDbViewport
 10
0.0
 20
0.0
 30
0.0
 40
528.349942987457
 41
300.3
 68
     1
 69
     1
1001
ACAD
1000
MVIEW
1002
{
1070
    16
1010
0.0
1020
0.0
1030
0.0
1010
0.0
1020
0.0
1030
1.0
1040
0.0
1040
300.3
1040
205.756503333333
1040
143.551503333333
1040
50.0
1040
0.0
1040
0.0
1070
    16
1070
   100
1070
     0
1070
     1
1070
     0
1070
     0
1070
     0
1070
     0
1040
0.0
1040
0.0
1040
0.0
1040
10.0
1040
10.0
1040
10.0
1040
10.0
1070
     0
1002
{
1002
}
1002
}
  0
VIEWPORT
  5
2904
330
28FB
100
AcDbEntity
 67
     1
  8
図枠太線
 48
10.0
100
AcDbViewport
 10
203.099713723288
 20
162.43561776385
 30
0.0
 40
400.0
 41
240.0
 68
     2
 69
     2
1001
ACAD
1000
MVIEW
1002
{
1070
    16
1010
0.0
1020
0.0
1030
0.0
1010
0.0
1020
0.0
1030
1.0
1040
0.0
1040
480.000004183857
1040
274.691896024352
1040
325.486083795753
1040
50.0
1040
0.0
1040
0.0
1070
     0
1070
   100
1070
     0
1070
     0
1070
     0
1070
     0
1070
     0
1070
     0
1040
0.0
1040
0.0
1040
0.0
1040
1.0
1040
1.0
1040
0.0
1040
0.0
1070
     0
1002
{
1002
}
1002
}
  0
INSERT
  5
2A59
330
28FB
100
AcDbEntity
 67
     1
  8
図枠太線
100
AcDbBlockReference
  2
A3横用_タイトル
 10
-1.998700812505
 20
-1.090341989677
 30
0.0
  0
MTEXT
  5
2E81
102
{ACAD_XDICTIONARY
360
578F
102
}
330
28FB
100
AcDbEntity
 67
     1
  8
寸法線
 48
10.0
100
AcDbMText
 10
306.22532643314
 20
33.453378914614
 30
0.0
 40
6.0
 41
45.0
 71
     1
 72
     5
  1
TSS-A1SA-□
1001
ACADANNOTATIVE
1000
AnnotativeData
1002
{
1070
     1
1070
     0
1002
}
  0
MTEXT
  5
2E85
330
28FB
100
AcDbEntity
 67
     1
  8
寸法線
 48
10.0
100
AcDbMText
 10
147.479525332934
 20
15.294217331132
 30
0.0
 40
5.0
 41
11.452149180996
 71
     1
 72
     5
  1
{\H1.4x;1:2}
  0
MTEXT
  5
4EF3
102
{ACAD_XDICTIONARY
360
4FCE
102
}
330
28FB
100
AcDbEntity
 67
     1
  8
下書線
 48
10.0
100
AcDbMText
 10
24.118784967979
 20
202.535050154984
 30
0.0
 40
10.0
 41
175.933723286424
 71
     1
 72
     1
  1
HP用図面、\P追記・変更\P不可
1001
ACADANNOTATIVE
1000
AnnotativeData
1002
{
1070
     1
1070
     0
1002
}
  0
LWPOLYLINE
  5
4EF4
330
28FB
100
AcDbEntity
 67
     1
  8
下書線
 48
10.0
100
AcDbPolyline
 90
        4
 70
     1
 43
0.0
 10
16.069529654221
 20
208.28451823624
 10
90.422030061454
 20
208.28451823624
 10
90.422030061454
 20
153.870118496869
 10
16.069529654221
 20
153.870118496869
  0
MTEXT
  5
4F81
102
{ACAD_XDICTIONARY
360
4F82
102
}
330
28FB
100
AcDbEntity
 67
     1
  8
寸法線
 48
10.0
100
AcDbMText
 10
339.508721705044
 20
16.532905427859
 30
0.0
 40
8.0
 41
33.206594841881
 71
     1
 72
     5
  1
HE-13015
1001
ACADANNOTATIVE
1000
AnnotativeData
1002
{
1070
     1
1070
     0
1002
}
  0
MTEXT
  5
4FC4
102
{ACAD_XDICTIONARY
360
4FC5
102
}
330
28FB
100
AcDbEntity
 67
     1
  8
寸法線
 48
10.0
100
AcDbMText
 10
186.399713723288
 20
34.325492789162
 30
0.0
 40
5.0
 41
33.4
 71
     2
 72
     5
  1
takahashi
1001
ACADANNOTATIVE
1000
AnnotativeData
1002
{
1070
     1
1070
     0
1002
}
  0
MTEXT
  5
4FC8
102
{ACAD_XDICTIONARY
360
4FC9
102
}
330
28FB
100
AcDbEntity
 67
     1
  8
寸法線
 48
10.0
100
AcDbMText
 10
376.274265302751
 20
51.67319623105
 30
0.0
 40
5.0
 41
21.364427237501
 71
     1
 72
     5
  1
Q'ty: 
1001
ACADANNOTATIVE
1000
AnnotativeData
1002
{
1070
     1
1070
     0
1002
}
  0
MTEXT
  5
4FCC
330
28FB
100
AcDbEntity
 67
     1
  8
寸法線
 48
10.0
100
AcDbMText
 10
208.902086335169
 20
52.224651438548
 30
0.0
 40
5.0
 41
106.699923235854
 71
     1
 72
     5
  1
a reduced drawing（A3size～）
  0
LINE
  5
4FCD
330
28FB
100
AcDbEntity
 67
     1
  8
寸法線
 48
10.0
100
AcDbLine
 10
205.188108341028
 20
45.369263857222
 30
0.0
 11
301.841226681538
 21
45.369263857222
 31
0.0
  0
MTEXT
  5
52A8
330
28FB
100
AcDbEntity
 67
     1
  8
寸法線
 48
10.0
100
AcDbMText
 10
359.902906425682
 20
36.109049918924
 30
0.0
 40
3.5
 41
59.837375094616
 71
     1
 72
     5
  1
CAPACITANCE TYPE\PLEVEL SENSOR
  0
MTEXT
  5
5C7F
102
{ACAD_XDICTIONARY
360
5C80
102
}
330
28FB
100
AcDbEntity
 67
     1
  8
寸法線
 48
10.0
100
AcDbMText
 10
186.399713723288
 20
13.662816102789
 30
0.0
 40
5.0
 41
33.4
 71
     2
 72
     5
  1
\H0.9x;Sep.14.2016
1001
ACADANNOTATIVE
1000
AnnotativeData
1002
{
1070
     1
1070
     0
1002
}
  0
ENDSEC
  0
SECTION
  2
OBJECTS
  0
DICTIONARY
  5
C
330
0
100
AcDbDictionary
  3
ACAD_COLOR
350
2948
  3
ACAD_GROUP
350
D
  3
ACAD_LAYOUT
350
2816
  3
ACAD_MATERIAL
350
2947
  3
ACAD_MLEADERSTYLE
350
4CC9
  3
ACAD_MLINESTYLE
350
E
  3
ACAD_PLOTSETTINGS
350
2817
  3
ACAD_SCALELIST
350
4CA2
  3
ACAD_VISUALSTYLE
350
4C89
  3
ACADDIM
350
474F
  3
ACDBHEADERROUNDTRIPXREC
350
5CDF
  3
ACDBVARIABLEDICTIONARY
350
4696
  3
DWGPROPS
350
5D03
  0
DICTIONARY
  5
5D04
330
8
100
AcDbDictionary
280
     1
  3
ACAD_XREC_ROUNDTRIP
360
5D05
  0
DICTIONARY
  5
29EA
330
2
100
AcDbDictionary
280
     1
  3
ACAD_LAYERFILTERS
360
2B0C
  3
ACAD_LAYERSTATES
360
29EB
  0
DICTIONARY
  5
4506
330
1A
100
AcDbDictionary
280
     1
  3
ACAD_SORTENTS
360
4507
  0
DICTIONARY
  5
4FDD
330
3E9C
100
AcDbDictionary
280
     1
  3
ACDBCONTEXTDATAMANAGER
360
4FDE
  0
DICTIONARY
  5
4FDA
330
428B
100
AcDbDictionary
280
     1
  3
ACDBCONTEXTDATAMANAGER
360
4FDB
  0
DICTIONARY
  5
4FD7
330
428E
100
AcDbDictionary
280
     1
  3
ACDBCONTEXTDATAMANAGER
360
4FD8
  0
DICTIONARY
  5
4FD4
330
4290
100
AcDbDictionary
280
     1
  3
ACDBCONTEXTDATAMANAGER
360
4FD5
  0
DICTIONARY
  5
4FD1
330
4292
100
AcDbDictionary
280
     1
  3
ACDBCONTEXTDATAMANAGER
360
4FD2
  0
DICTIONARY
  5
4FE0
330
456E
100
AcDbDictionary
280
     1
  3
ACDBCONTEXTDATAMANAGER
360
4FE1
  0
DICTIONARY
  5
4D49
330
4D48
100
AcDbDictionary
280
     1
  3
ACDBCONTEXTDATAMANAGER
360
4D4A
  0
DICTIONARY
  5
4D62
330
4D61
100
AcDbDictionary
280
     1
  3
ACDBCONTEXTDATAMANAGER
360
4D63
  0
DICTIONARY
  5
4E47
330
4E46
100
AcDbDictionary
280
     1
  3
ACDBCONTEXTDATAMANAGER
360
4E48
  0
DICTIONARY
  5
4E4B
330
4E4A
100
AcDbDictionary
280
     1
  3
ACDBCONTEXTDATAMANAGER
360
4E4C
  0
DICTIONARY
  5
4E4F
330
4E4E
100
AcDbDictionary
280
     1
  3
ACDBCONTEXTDATAMANAGER
360
4E50
  0
DICTIONARY
  5
4E53
330
4E52
100
AcDbDictionary
280
     1
  3
ACDBCONTEXTDATAMANAGER
360
4E54
  0
DICTIONARY
  5
4E57
330
4E56
100
AcDbDictionary
280
     1
  3
ACDBCONTEXTDATAMANAGER
360
4E58
  0
DICTIONARY
  5
4E5B
330
4E5A
100
AcDbDictionary
280
     1
  3
ACDBCONTEXTDATAMANAGER
360
4E5C
  0
DICTIONARY
  5
4E5F
330
4E5E
100
AcDbDictionary
280
     1
  3
ACDBCONTEXTDATAMANAGER
360
4E60
  0
DICTIONARY
  5
4E63
330
4E62
100
AcDbDictionary
280
     1
  3
ACDBCONTEXTDATAMANAGER
360
4E64
  0
DICTIONARY
  5
50AA
330
50A9
100
AcDbDictionary
280
     1
  3
ACDBCONTEXTDATAMANAGER
360
50AB
  0
DICTIONARY
  5
5216
330
5215
100
AcDbDictionary
280
     1
  3
ACDBCONTEXTDATAMANAGER
360
5217
  0
DICTIONARY
  5
521A
330
5219
100
AcDbDictionary
280
     1
  3
ACDBCONTEXTDATAMANAGER
360
521B
  0
DICTIONARY
  5
55C1
330
55C0
100
AcDbDictionary
280
     1
  3
ACDBCONTEXTDATAMANAGER
360
55C2
  0
DICTIONARY
  5
55C5
330
55C4
100
AcDbDictionary
280
     1
  3
ACDBCONTEXTDATAMANAGER
360
55C6
  0
DICTIONARY
  5
5660
330
565F
100
AcDbDictionary
280
     1
  3
ACDBCONTEXTDATAMANAGER
360
5661
  0
DICTIONARY
  5
5674
330
5673
100
AcDbDictionary
280
     1
  3
ACDBCONTEXTDATAMANAGER
360
5675
  0
DICTIONARY
  5
5678
330
5677
100
AcDbDictionary
280
     1
  3
ACDBCONTEXTDATAMANAGER
360
5679
  0
DICTIONARY
  5
578F
330
2E81
100
AcDbDictionary
280
     1
  3
ACDBCONTEXTDATAMANAGER
360
5790
  0
DICTIONARY
  5
4FCE
330
4EF3
100
AcDbDictionary
280
     1
  3
ACDBCONTEXTDATAMANAGER
360
4FCF
  0
DICTIONARY
  5
4F82
330
4F81
100
AcDbDictionary
280
     1
  3
ACDBCONTEXTDATAMANAGER
360
4F83
  0
DICTIONARY
  5
4FC5
330
4FC4
100
AcDbDictionary
280
     1
  3
ACDBCONTEXTDATAMANAGER
360
4FC6
  0
DICTIONARY
  5
4FC9
330
4FC8
100
AcDbDictionary
280
     1
  3
ACDBCONTEXTDATAMANAGER
360
4FCA
  0
DICTIONARY
  5
5C80
330
5C7F
100
AcDbDictionary
280
     1
  3
ACDBCONTEXTDATAMANAGER
360
5C81
  0
DICTIONARY
  5
2948
102
{ACAD_REACTORS
330
C
102
}
330
C
100
AcDbDictionary
  0
DICTIONARY
  5
D
102
{ACAD_REACTORS
330
C
102
}
330
C
100
AcDbDictionary
  3
*A1
350
44D9
  3
*A2
350
44DC
  3
*A3
350
45E2
  0
DICTIONARY
  5
2816
102
{ACAD_REACTORS
330
C
102
}
330
C
100
AcDbDictionary
  0
DICTIONARY
  5
2947
102
{ACAD_REACTORS
330
C
102
}
330
C
100
AcDbDictionary
  3
BYBLOCK
350
4CC5
  3
BYLAYER
350
4CC4
  3
GLOBAL
350
4CC6
  0
DICTIONARY
  5
4CC9
102
{ACAD_REACTORS
330
C
102
}
330
C
100
AcDbDictionary
  3
STANDARD
350
4CCA
  0
DICTIONARY
  5
E
102
{ACAD_REACTORS
330
C
102
}
330
C
100
AcDbDictionary
  3
STANDARD
350
13
  0
DICTIONARY
  5
2817
102
{ACAD_REACTORS
330
C
102
}
330
C
100
AcDbDictionary
  0
DICTIONARY
  5
4CA2
102
{ACAD_REACTORS
330
C
102
}
330
C
100
AcDbDictionary
  3
A0
350
4CA3
  3
A1
350
4CA4
  3
A2
350
4CA5
  3
A3
350
4CA6
  3
A4
350
4CA7
  3
A5
350
4CA8
  3
A6
350
4CA9
  3
A7
350
4CAA
  3
A8
350
4CAB
  3
A9
350
4CAC
  3
B0
350
4CAD
  3
B1
350
4CAE
  3
B2
350
4CAF
  3
B3
350
4CB0
  3
B4
350
4CB1
  3
B5
350
4CB2
  3
B6
350
4CB3
  3
B7
350
4CB4
  3
B8
350
4CB5
  3
B9
350
4CB6
  3
C0
350
4CB7
  3
C1
350
4CB8
  3
C2
350
4CB9
  3
C3
350
4CBA
  3
C4
350
4CBB
  3
C5
350
4CBC
  3
C6
350
4CBD
  3
C7
350
4CBE
  3
C8
350
4CBF
  3
C9
350
4CC0
  3
D0
350
4CC1
  3
D1
350
4CC2
  3
D2
350
4CC3
  0
DICTIONARY
  5
4C89
102
{ACAD_REACTORS
330
C
102
}
330
C
100
AcDbDictionary
  3
2DWIREFRAME
350
4C8E
  3
BASIC
350
4C91
  3
BRIGHTEN
350
4C95
  3
COLORCHANGE
350
4C99
  3
CONCEPTUAL
350
4C93
  3
DIM
350
4C94
  3
EDGECOLOROFF
350
4C9C
  3
FACEPATTERN
350
4C98
  3
FLAT
350
4C8A
  3
FLATWITHEDGES
350
4C8B
  3
GOURAUD
350
4C8C
  3
GOURAUDWITHEDGES
350
4C8D
  3
HIDDEN
350
4C90
  3
JITTEROFF
350
4C9A
  3
LINEPATTERN
350
4C97
  3
MODELING
350
4F4F
  3
OVERHANGOFF
350
4C9B
  3
REALISTIC
350
4C92
  3
SHADED
350
4CA1
  3
SHADED_WITH_EDGES
350
4CA0
  3
SHADES_OF_GRAY
350
4C9D
  3
SKETCHY
350
4C9E
  3
THICKEN
350
4C96
  3
WIREFRAME
350
4C8F
  3
X-RAY
350
4C9F
  0
XRECORD
  5
474F
102
{ACAD_REACTORS
330
C
102
}
330
C
100
AcDbXrecord
 90
   990106
  3

 60
     0
 61
     0
 62
     4
 63
     4
 64
     0
 65
     0
 66
     0
 67
     3
 68
     1
 69
     0
 70
     0
 71
     0
 72
     0
 40
0.0
170
     2
340
456E
  0
DICTIONARY
  5
5CDF
102
{ACAD_REACTORS
330
C
102
}
330
C
100
AcDbDictionary
  3
CEPSNID
350
5CE9
  3
CEPSNTYPE
350
5CE8
  3
COLORDICT
350
5D01
  3
DIMSTYLEDATA
350
5CFF
  3
FINGERPRINTGUID
350
5CEA
  3
HYPERLINKBASE
350
5CE2
  3
INSUNITS
350
5CE7
  3
LAYOUTDICT
350
5CE4
  3
LWETCUNION
350
5CE6
  3
MATERIALDICT
350
5D02
  3
PLOTSETDICT
350
5CE5
  3
PSVPSCALE
350
5CEC
  3
PUCSBASE
350
5CEF
  3
PUCSORGBACK
350
5CF5
  3
PUCSORGBOTTOM
350
5CF1
  3
PUCSORGFRONT
350
5CF4
  3
PUCSORGLEFT
350
5CF2
  3
PUCSORGRIGHT
350
5CF3
  3
PUCSORGTOP
350
5CF0
  3
PUCSORTHOREF
350
5CED
  3
PUCSORTHOVIEW
350
5CEE
  3
STYLESHEET
350
5CE3
  3
TSTACKALIGN
350
5CE0
  3
TSTACKSIZE
350
5CE1
  3
UCSBASE
350
5CF8
  3
UCSORGBACK
350
5CFE
  3
UCSORGBOTTOM
350
5CFA
  3
UCSORGFRONT
350
5CFD
  3
UCSORGLEFT
350
5CFB
  3
UCSORGRIGHT
350
5CFC
  3
UCSORGTOP
350
5CF9
  3
UCSORTHOREF
350
5CF6
  3
UCSORTHOVIEW
350
5CF7
  3
VERSIONGUID
350
5CEB
  0
DICTIONARY
  5
4696
102
{ACAD_REACTORS
330
C
102
}
330
C
100
AcDbDictionary
  3
CANNOSCALE
350
4D81
  3
CMLEADERSTYLE
350
4D83
  3
CTABLESTYLE
350
4D82
  3
DIMASSOC
350
4697
  3
HIDETEXT
350
5D00
  3
MSLTSCALE
350
4D84
  3
PROJECTNAME
350
4698
  3
XCLIPFRAME
350
4D85
  0
XRECORD
  5
5D03
102
{ACAD_REACTORS
330
C
102
}
330
C
100
AcDbXrecord
  1
DWGPROPS COOKIE
  2

  3

  4

  6

  7

  8
takahashi
  9

300
=
301
=
302
=
303
=
304
=
305
=
306
=
307
=
308
=
309
=
 40
0.0
 41
2450576.222302431
 42
2457658.402201887
  1

 90
        0
  0
XRECORD
  5
5D05
102
{ACAD_REACTORS
330
5D04
102
}
330
5D04
100
AcDbXrecord
102
VTR_0.000_0.000_1.000_1.000_VISUALSTYLE
340
4C8E
102
VTR_0.000_0.000_1.000_1.000_GRIDDISPLAY
 70
     3
102
VTR_0.000_0.000_1.000_1.000_GRIDMAJOR
 70
     5
102
VTR_0.000_0.000_1.000_1.000_DEFAULTLIGHTING
280
     1
102
VTR_0.000_0.000_1.000_1.000_DEFAULTLIGHTINGTYPE
 70
     1
102
VTR_0.000_0.000_1.000_1.000_BRIGHTNESS
141
0.0
102
VTR_0.000_0.000_1.000_1.000_CONTRAST
142
0.0
  0
DICTIONARY
  5
2B0C
102
{ACAD_REACTORS
330
29EA
102
}
330
29EA
100
AcDbDictionary
  0
DICTIONARY
  5
29EB
102
{ACAD_REACTORS
330
29EA
102
}
330
29EA
100
AcDbDictionary
  0
SORTENTSTABLE
  5
4507
102
{ACAD_REACTORS
330
4506
102
}
330
4506
100
AcDbSortentsTable
330
1A
331
0
  5
3E9C
331
31A0
  5
376D
331
3E9C
  5
4029
331
4029
  5
402A
331
402A
  5
4031
331
4031
  5
4032
331
4032
  5
4033
331
4033
  5
4034
331
4034
  5
4035
331
4035
  5
4036
331
4036
  5
408F
331
408F
  5
4255
331
4255
  5
4256
331
4256
  5
4259
331
4259
  5
425A
331
425A
  5
425B
331
425B
  5
425C
331
425C
  5
428B
331
428B
  5
428E
331
428E
  5
4290
331
4290
  5
4292
331
4292
  5
436B
331
436B
  5
4378
331
4378
  5
4423
331
4423
  5
4424
331
4424
  5
4425
331
4425
  5
4428
331
4428
  5
4429
331
4429
  5
442A
331
442A
  5
442B
331
442B
  5
442C
331
442C
  5
442D
331
442D
  5
442E
331
442E
  5
442F
331
442F
  5
4431
331
4431
  5
4432
331
4432
  5
4433
331
4433
  5
4434
331
4434
  5
4435
331
4435
  5
4438
331
4438
  5
4439
331
4439
  5
443B
331
443B
  5
443C
331
443C
  5
4440
331
4440
  5
4441
331
4441
  5
4442
331
4442
  5
4443
331
4443
  5
4444
331
4444
  5
4445
331
4445
  5
4446
331
4446
  5
4456
331
4456
  5
4459
331
4459
  5
4463
331
4463
  5
448E
331
448E
  5
448F
331
448F
  5
44D5
331
44D5
  5
44D6
331
44D6
  5
44D7
331
44D7
  5
44D8
331
44D8
  5
44EC
331
44EC
  5
44F9
331
44F9
  5
456E
331
456E
  5
4589
331
45ED
  5
474E
331
474E
  5
4750
331
4750
  5
4751
331
4751
  5
475A
331
475A
  5
475B
331
475B
  5
4961
331
4964
  5
4965
331
4965
  5
4966
331
4966
  5
4967
331
4967
  5
4968
331
4968
  5
4969
331
4969
  5
496A
331
496A
  5
496B
331
496B
  5
496C
331
496C
  5
496D
331
496D
  5
496E
331
496E
  5
496F
331
496F
  5
4970
331
4970
  5
4971
331
4971
  5
4972
331
4972
  5
4973
331
4979
  5
497A
331
497A
  5
497B
331
497B
  5
497C
331
497C
  5
497D
331
497D
  5
497E
331
497E
  5
497F
331
497F
  5
4980
331
4980
  5
4981
331
4981
  5
4982
331
4982
  5
4983
331
4983
  5
4984
331
4984
  5
4985
331
4985
  5
4986
331
4986
  5
4AAE
331
4AAE
  5
4C1B
331
4C1B
  5
376C
  0
DICTIONARY
  5
4FDE
102
{ACAD_REACTORS
330
4FDD
102
}
330
4FDD
100
AcDbDictionary
  3
ACDB_ANNOTATIONSCALES
350
4FDF
  0
DICTIONARY
  5
4FDB
102
{ACAD_REACTORS
330
4FDA
102
}
330
4FDA
100
AcDbDictionary
  3
ACDB_ANNOTATIONSCALES
350
4FDC
  0
DICTIONARY
  5
4FD8
102
{ACAD_REACTORS
330
4FD7
102
}
330
4FD7
100
AcDbDictionary
  3
ACDB_ANNOTATIONSCALES
350
4FD9
  0
DICTIONARY
  5
4FD5
102
{ACAD_REACTORS
330
4FD4
102
}
330
4FD4
100
AcDbDictionary
  3
ACDB_ANNOTATIONSCALES
350
4FD6
  0
DICTIONARY
  5
4FD2
102
{ACAD_REACTORS
330
4FD1
102
}
330
4FD1
100
AcDbDictionary
  3
ACDB_ANNOTATIONSCALES
350
4FD3
  0
DICTIONARY
  5
4FE1
102
{ACAD_REACTORS
330
4FE0
102
}
330
4FE0
100
AcDbDictionary
  3
ACDB_ANNOTATIONSCALES
350
4FE2
  0
DICTIONARY
  5
4D4A
102
{ACAD_REACTORS
330
4D49
102
}
330
4D49
100
AcDbDictionary
  3
ACDB_ANNOTATIONSCALES
350
4D4B
  0
DICTIONARY
  5
4D63
102
{ACAD_REACTORS
330
4D62
102
}
330
4D62
100
AcDbDictionary
  3
ACDB_ANNOTATIONSCALES
350
4D64
  0
DICTIONARY
  5
4E48
102
{ACAD_REACTORS
330
4E47
102
}
330
4E47
100
AcDbDictionary
  3
ACDB_ANNOTATIONSCALES
350
4E49
  0
DICTIONARY
  5
4E4C
102
{ACAD_REACTORS
330
4E4B
102
}
330
4E4B
100
AcDbDictionary
  3
ACDB_ANNOTATIONSCALES
350
4E4D
  0
DICTIONARY
  5
4E50
102
{ACAD_REACTORS
330
4E4F
102
}
330
4E4F
100
AcDbDictionary
  3
ACDB_ANNOTATIONSCALES
350
4E51
  0
DICTIONARY
  5
4E54
102
{ACAD_REACTORS
330
4E53
102
}
330
4E53
100
AcDbDictionary
  3
ACDB_ANNOTATIONSCALES
350
4E55
  0
DICTIONARY
  5
4E58
102
{ACAD_REACTORS
330
4E57
102
}
330
4E57
100
AcDbDictionary
  3
ACDB_ANNOTATIONSCALES
350
4E59
  0
DICTIONARY
  5
4E5C
102
{ACAD_REACTORS
330
4E5B
102
}
330
4E5B
100
AcDbDictionary
  3
ACDB_ANNOTATIONSCALES
350
4E5D
  0
DICTIONARY
  5
4E60
102
{ACAD_REACTORS
330
4E5F
102
}
330
4E5F
100
AcDbDictionary
  3
ACDB_ANNOTATIONSCALES
350
4E61
  0
DICTIONARY
  5
4E64
102
{ACAD_REACTORS
330
4E63
102
}
330
4E63
100
AcDbDictionary
  3
ACDB_ANNOTATIONSCALES
350
4E65
  0
DICTIONARY
  5
50AB
102
{ACAD_REACTORS
330
50AA
102
}
330
50AA
100
AcDbDictionary
  3
ACDB_ANNOTATIONSCALES
350
50AC
  0
DICTIONARY
  5
5217
102
{ACAD_REACTORS
330
5216
102
}
330
5216
100
AcDbDictionary
  3
ACDB_ANNOTATIONSCALES
350
5218
  0
DICTIONARY
  5
521B
102
{ACAD_REACTORS
330
521A
102
}
330
521A
100
AcDbDictionary
  3
ACDB_ANNOTATIONSCALES
350
521C
  0
DICTIONARY
  5
55C2
102
{ACAD_REACTORS
330
55C1
102
}
330
55C1
100
AcDbDictionary
  3
ACDB_ANNOTATIONSCALES
350
55C3
  0
DICTIONARY
  5
55C6
102
{ACAD_REACTORS
330
55C5
102
}
330
55C5
100
AcDbDictionary
  3
ACDB_ANNOTATIONSCALES
350
55C7
  0
DICTIONARY
  5
5661
102
{ACAD_REACTORS
330
5660
102
}
330
5660
100
AcDbDictionary
  3
ACDB_ANNOTATIONSCALES
350
5662
  0
DICTIONARY
  5
5675
102
{ACAD_REACTORS
330
5674
102
}
330
5674
100
AcDbDictionary
  3
ACDB_ANNOTATIONSCALES
350
5676
  0
DICTIONARY
  5
5679
102
{ACAD_REACTORS
330
5678
102
}
330
5678
100
AcDbDictionary
  3
ACDB_ANNOTATIONSCALES
350
567A
  0
DICTIONARY
  5
5790
102
{ACAD_REACTORS
330
578F
102
}
330
578F
100
AcDbDictionary
  3
ACDB_ANNOTATIONSCALES
350
5791
  0
DICTIONARY
  5
4FCF
102
{ACAD_REACTORS
330
4FCE
102
}
330
4FCE
100
AcDbDictionary
  3
ACDB_ANNOTATIONSCALES
350
4FD0
  0
DICTIONARY
  5
4F83
102
{ACAD_REACTORS
330
4F82
102
}
330
4F82
100
AcDbDictionary
  3
ACDB_ANNOTATIONSCALES
350
4F84
  0
DICTIONARY
  5
4FC6
102
{ACAD_REACTORS
330
4FC5
102
}
330
4FC5
100
AcDbDictionary
  3
ACDB_ANNOTATIONSCALES
350
4FC7
  0
DICTIONARY
  5
4FCA
102
{ACAD_REACTORS
330
4FC9
102
}
330
4FC9
100
AcDbDictionary
  3
ACDB_ANNOTATIONSCALES
350
4FCB
  0
DICTIONARY
  5
5C81
102
{ACAD_REACTORS
330
5C80
102
}
330
5C80
100
AcDbDictionary
  3
ACDB_ANNOTATIONSCALES
350
5C82
  0
GROUP
  5
44D9
102
{ACAD_REACTORS
330
D
102
}
330
D
100
AcDbGroup
300

 70
     1
 71
     1
340
448F
340
4463
340
443B
340
4440
340
443C
340
448E
340
4446
340
4445
340
4444
340
4443
340
4442
340
4441
  0
GROUP
  5
44DC
102
{ACAD_REACTORS
330
D
102
}
330
D
100
AcDbGroup
300

 70
     1
 71
     1
340
442D
340
442C
340
442E
340
442B
340
44D8
340
44D7
340
44D6
340
44D5
340
4439
340
4438
340
4435
340
4434
340
4433
340
442A
340
4429
340
4428
340
4425
340
4424
340
4423
340
4456
340
4432
340
4431
340
442F
340
4459
  0
GROUP
  5
45E2
102
{ACAD_REACTORS
330
D
102
}
330
D
100
AcDbGroup
300

 70
     1
 71
     1
340
425A
340
425B
340
425C
340
4259
340
4255
340
4256
340
4029
340
402A
340
4031
340
4036
340
4035
340
4034
340
4033
340
4032
  0
MATERIAL
  5
4CC5
102
{ACAD_REACTORS
330
2947
102
}
102
{ACAD_XDICTIONARY
360
5D08
102
}
330
2947
100
AcDbMaterial
  1
BYBLOCK
  0
MATERIAL
  5
4CC4
102
{ACAD_REACTORS
330
2947
102
}
102
{ACAD_XDICTIONARY
360
5D06
102
}
330
2947
100
AcDbMaterial
  1
BYLAYER
  0
MATERIAL
  5
4CC6
102
{ACAD_REACTORS
330
2947
102
}
102
{ACAD_XDICTIONARY
360
5D0A
102
}
330
2947
100
AcDbMaterial
  1
GLOBAL
  0
ACAD_PROXY_OBJECT
  5
4CCA
102
{ACAD_REACTORS
330
4CC9
102
}
330
4CC9
100
AcDbProxyObject
 90
      499
 91
      509
 93
      610
310
40901902A4063FBFFFFFE0000000000000020400000000000020404214DD185B99185C990000000000000104090141901A00000000000004100000000000000041025764000000000000039000
340
14
340
0
340
10
340
0
 94
        0
1001
ACAD_MLEADERVER
1070
     2
  0
MLINESTYLE
  5
13
102
{ACAD_REACTORS
330
E
102
}
330
E
100
AcDbMlineStyle
  2
STANDARD
 70
     0
  3

 62
     0
 51
90.0
 52
90.0
 71
     2
 49
0.5
 62
   256
  6
BYLAYER
 49
-0.5
 62
   256
  6
BYLAYER
  0
ACAD_PROXY_OBJECT
  5
4CA3
102
{ACAD_REACTORS
330
4CA2
102
}
330
4CA2
100
AcDbProxyObject
 90
      499
 91
      506
 93
       41
310
903313A31580
  0
ACAD_PROXY_OBJECT
  5
4CA4
102
{ACAD_REACTORS
330
4CA2
102
}
330
4CA2
100
AcDbProxyObject
 90
      499
 91
      506
 93
      105
310
903313A324000000000000004000
  0
ACAD_PROXY_OBJECT
  5
4CA5
102
{ACAD_REACTORS
330
4CA2
102
}
330
4CA2
100
AcDbProxyObject
 90
      499
 91
      506
 93
      105
310
903313A344000000000000104000
  0
ACAD_PROXY_OBJECT
  5
4CA6
102
{ACAD_REACTORS
330
4CA2
102
}
330
4CA2
100
AcDbProxyObject
 90
      499
 91
      506
 93
      105
310
903313A354000000000000144000
  0
ACAD_PROXY_OBJECT
  5
4CA7
102
{ACAD_REACTORS
330
4CA2
102
}
330
4CA2
100
AcDbProxyObject
 90
      499
 91
      506
 93
      105
310
903313A384000000000000204000
  0
ACAD_PROXY_OBJECT
  5
4CA8
102
{ACAD_REACTORS
330
4CA2
102
}
330
4CA2
100
AcDbProxyObject
 90
      499
 91
      506
 93
      113
310
904313A31304000000000000244000
  0
ACAD_PROXY_OBJECT
  5
4CA9
102
{ACAD_REACTORS
330
4CA2
102
}
330
4CA2
100
AcDbProxyObject
 90
      499
 91
      506
 93
      113
310
904313A31364000000000000304000
  0
ACAD_PROXY_OBJECT
  5
4CAA
102
{ACAD_REACTORS
330
4CA2
102
}
330
4CA2
100
AcDbProxyObject
 90
      499
 91
      506
 93
      113
310
904313A32304000000000000344000
  0
ACAD_PROXY_OBJECT
  5
4CAB
102
{ACAD_REACTORS
330
4CA2
102
}
330
4CA2
100
AcDbProxyObject
 90
      499
 91
      506
 93
      113
310
904313A333040000000000003E4000
  0
ACAD_PROXY_OBJECT
  5
4CAC
102
{ACAD_REACTORS
330
4CA2
102
}
330
4CA2
100
AcDbProxyObject
 90
      499
 91
      506
 93
      113
310
904313A34304000000000000444000
  0
ACAD_PROXY_OBJECT
  5
4CAD
102
{ACAD_REACTORS
330
4CA2
102
}
330
4CA2
100
AcDbProxyObject
 90
      499
 91
      506
 93
      113
310
904313A35304000000000000494000
  0
ACAD_PROXY_OBJECT
  5
4CAE
102
{ACAD_REACTORS
330
4CA2
102
}
330
4CA2
100
AcDbProxyObject
 90
      499
 91
      506
 93
      121
310
905313A3130304000000000000594000
  0
ACAD_PROXY_OBJECT
  5
4CAF
102
{ACAD_REACTORS
330
4CA2
102
}
330
4CA2
100
AcDbProxyObject
 90
      499
 91
      506
 93
      105
310
903323A310000000000000010100
  0
ACAD_PROXY_OBJECT
  5
4CB0
102
{ACAD_REACTORS
330
4CA2
102
}
330
4CA2
100
AcDbProxyObject
 90
      499
 91
      506
 93
      105
310
903343A310000000000000410100
  0
ACAD_PROXY_OBJECT
  5
4CB1
102
{ACAD_REACTORS
330
4CA2
102
}
330
4CA2
100
AcDbProxyObject
 90
      499
 91
      506
 93
      105
310
903383A310000000000000810100
  0
ACAD_PROXY_OBJECT
  5
4CB2
102
{ACAD_REACTORS
330
4CA2
102
}
330
4CA2
100
AcDbProxyObject
 90
      499
 91
      506
 93
      113
310
90431303A310000000000000910100
  0
ACAD_PROXY_OBJECT
  5
4CB3
102
{ACAD_REACTORS
330
4CA2
102
}
330
4CA2
100
AcDbProxyObject
 90
      499
 91
      506
 93
      121
310
9053130303A310000000000001650100
  0
ACAD_PROXY_OBJECT
  5
4CB4
102
{ACAD_REACTORS
330
4CA2
102
}
330
4CA2
100
AcDbProxyObject
 90
      499
 91
      506
 93
      257
310
90E312F31323822203D2031272D3022000000000000200FC000000000000284000
  0
ACAD_PROXY_OBJECT
  5
4CB5
102
{ACAD_REACTORS
330
4CA2
102
}
330
4CA2
100
AcDbProxyObject
 90
      499
 91
      506
 93
      249
310
90D312F363422203D2031272D3022000000000000240FC000000000000284000
  0
ACAD_PROXY_OBJECT
  5
4CB6
102
{ACAD_REACTORS
330
4CA2
102
}
330
4CA2
100
AcDbProxyObject
 90
      499
 91
      506
 93
      249
310
90D312F333222203D2031272D3022000000000000280FC000000000000284000
  0
ACAD_PROXY_OBJECT
  5
4CB7
102
{ACAD_REACTORS
330
4CA2
102
}
330
4CA2
100
AcDbProxyObject
 90
      499
 91
      506
 93
      249
310
90D312F313622203D2031272D30220000000000002C0FC000000000000284000
  0
ACAD_PROXY_OBJECT
  5
4CB8
102
{ACAD_REACTORS
330
4CA2
102
}
330
4CA2
100
AcDbProxyObject
 90
      499
 91
      506
 93
      249
310
90D332F333222203D2031272D30220000000000002E0FC000000000000284000
  0
ACAD_PROXY_OBJECT
  5
4CB9
102
{ACAD_REACTORS
330
4CA2
102
}
330
4CA2
100
AcDbProxyObject
 90
      499
 91
      506
 93
      241
310
90C312F3822203D2031272D3022000000000000300FC000000000000284000
  0
ACAD_PROXY_OBJECT
  5
4CBA
102
{ACAD_REACTORS
330
4CA2
102
}
330
4CA2
100
AcDbProxyObject
 90
      499
 91
      506
 93
      249
310
90D332F313622203D2031272D3022000000000000320FC000000000000284000
  0
ACAD_PROXY_OBJECT
  5
4CBB
102
{ACAD_REACTORS
330
4CA2
102
}
330
4CA2
100
AcDbProxyObject
 90
      499
 91
      506
 93
      241
310
90C312F3422203D2031272D3022000000000000340FC000000000000284000
  0
ACAD_PROXY_OBJECT
  5
4CBC
102
{ACAD_REACTORS
330
4CA2
102
}
330
4CA2
100
AcDbProxyObject
 90
      499
 91
      506
 93
      241
310
90C332F3822203D2031272D3022000000000000360FC000000000000284000
  0
ACAD_PROXY_OBJECT
  5
4CBD
102
{ACAD_REACTORS
330
4CA2
102
}
330
4CA2
100
AcDbProxyObject
 90
      499
 91
      506
 93
      241
310
90C312F3222203D2031272D3022000000000000380FC000000000000284000
  0
ACAD_PROXY_OBJECT
  5
4CBE
102
{ACAD_REACTORS
330
4CA2
102
}
330
4CA2
100
AcDbProxyObject
 90
      499
 91
      506
 93
      241
310
90C332F3422203D2031272D30220000000000003A0FC000000000000284000
  0
ACAD_PROXY_OBJECT
  5
4CBF
102
{ACAD_REACTORS
330
4CA2
102
}
330
4CA2
100
AcDbProxyObject
 90
      499
 91
      506
 93
      161
310
90A3122203D2031272D30224000000000000284000
  0
ACAD_PROXY_OBJECT
  5
4CC0
102
{ACAD_REACTORS
330
4CA2
102
}
330
4CA2
100
AcDbProxyObject
 90
      499
 91
      506
 93
      257
310
90E312D312F3222203D2031272D30220000000000003E0FC000000000000284000
  0
ACAD_PROXY_OBJECT
  5
4CC1
102
{ACAD_REACTORS
330
4CA2
102
}
330
4CA2
100
AcDbProxyObject
 90
      499
 91
      506
 93
      225
310
90A3322203D2031272D302200000000000002100000000000000284000
  0
ACAD_PROXY_OBJECT
  5
4CC2
102
{ACAD_REACTORS
330
4CA2
102
}
330
4CA2
100
AcDbProxyObject
 90
      499
 91
      506
 93
      225
310
90A3622203D2031272D302200000000000006100000000000000284000
  0
ACAD_PROXY_OBJECT
  5
4CC3
102
{ACAD_REACTORS
330
4CA2
102
}
330
4CA2
100
AcDbProxyObject
 90
      499
 91
      506
 93
      249
310
90D31272D3022203D2031272D30220000000000000A100000000000000284000
  0
ACAD_PROXY_OBJECT
  5
4C8E
102
{ACAD_REACTORS
330
4C89
102
}
330
4C89
100
AcDbProxyObject
 90
      499
 91
      505
 93
      436
310
42CC9915DA5C99599C985B595049028333333333333E33F0000000000000F90107901411070040501600405405064090741402480A0340
1001
ACAD
1000
AcDbSavedByObjectVersion
1070
     0
  0
ACAD_PROXY_OBJECT
  5
4C91
102
{ACAD_REACTORS
330
4C89
102
}
330
4C89
100
AcDbProxyObject
 90
      499
 91
      505
 93
      388
310
4150985CDA58D07406404333333333333E33F0000000000000F90107A41107004050150841D405064090741402480A0350
1001
ACAD
1000
AcDbSavedByObjectVersion
1070
     0
  0
ACAD_PROXY_OBJECT
  5
4C95
102
{ACAD_REACTORS
330
4C89
102
}
330
4C89
100
AcDbProxyObject
 90
      499
 91
      505
 93
      428
310
42109C9A59DA1D195B90C409028333333333333E33F0000000000000F9010790141107004050150841D405064090741402480A029950
1001
ACAD
1000
AcDbSavedByObjectVersion
1070
     0
  0
ACAD_PROXY_OBJECT
  5
4C99
102
{ACAD_REACTORS
330
4C89
102
}
330
4C89
100
AcDbProxyObject
 90
      499
 91
      505
 93
      452
310
42D0DBDB1BDC90DA185B99D95104090240C333333333333E33F0000000000000F90108901411070040501508421405064090741402480A0350
1001
ACAD
1000
AcDbSavedByObjectVersion
1070
     0
  0
ACAD_PROXY_OBJECT
  5
4C93
102
{ACAD_REACTORS
330
4C89
102
}
330
4C89
100
AcDbProxyObject
 90
      499
 91
      505
 93
      500
310
4290DBDB98D95C1D1D585B10940D028333333333333E33F0000000000000F90107902409070040501000000000018199010841D405064090740C02480A0340
1001
ACAD
1000
AcDbSavedByObjectVersion
1070
     0
  0
ACAD_PROXY_OBJECT
  5
4C94
102
{ACAD_REACTORS
330
4C89
102
}
330
4C89
100
AcDbProxyObject
 90
      499
 91
      505
 93
      412
310
40D11A5B50B409028333333333333E33F0000000000000F9010790141107004050150841D405064090741402480A02677FFFFFD0
1001
ACAD
1000
AcDbSavedByObjectVersion
1070
     0
  0
ACAD_PROXY_OBJECT
  5
4C9C
102
{ACAD_REACTORS
330
4C89
102
}
330
4C89
100
AcDbProxyObject
 90
      499
 91
      505
 93
      452
310
43115919D950DBDB1BDC93D999916409028333333333333E33F0000000000000F9010790141107004050150841D405064090741402480A0350
1001
ACAD
1000
AcDbSavedByObjectVersion
1070
     0
  0
ACAD_PROXY_OBJECT
  5
4C98
102
{ACAD_REACTORS
330
4C89
102
}
330
4C89
100
AcDbProxyObject
 90
      499
 91
      505
 93
      444
310
42D19858D95C185D1D195C9B90F409028333333333333E33F0000000000000F9010790141107004050150841D405064090741402480A0350
1001
ACAD
1000
AcDbSavedByObjectVersion
1070
     0
  0
ACAD_PROXY_OBJECT
  5
4C8A
102
{ACAD_REACTORS
330
4C89
102
}
330
4C89
100
AcDbProxyObject
 90
      499
 91
      505
 93
      380
310
41119B185D240901404333333333333E33F0000000000000F9010740A907004050150841D405064090741402480A1B50
1001
ACAD
1000
AcDbSavedByObjectVersion
1070
     0
  0
ACAD_PROXY_OBJECT
  5
4C8B
102
{ACAD_REACTORS
330
4C89
102
}
330
4C89
100
AcDbProxyObject
 90
      499
 91
      505
 93
      468
310
43519B185D15DA5D1A115919D95CD0140901404333333333333E33F0000000000000F90107409019070040501600405405064090741402480A1B50
1001
ACAD
1000
AcDbSavedByObjectVersion
1070
     0
  0
ACAD_PROXY_OBJECT
  5
4C8C
102
{ACAD_REACTORS
330
4C89
102
}
330
4C89
100
AcDbProxyObject
 90
      499
 91
      505
 93
      404
310
41D1DBDD5C985D5910240902404333333333333E33F0000000000000F9010740A9070040501641D405064090741402480A1B50
1001
ACAD
1000
AcDbSavedByObjectVersion
1070
     0
  0
ACAD_PROXY_OBJECT
  5
4C8D
102
{ACAD_REACTORS
330
4C89
102
}
330
4C89
100
AcDbProxyObject
 90
      499
 91
      505
 93
      492
310
4411DBDD5C985D5915DA5D1A115919D95CD0340902404333333333333E33F0000000000000F90107409019070040501600405405064090741402480A1B50
1001
ACAD
1000
AcDbSavedByObjectVersion
1070
     0
  0
ACAD_PROXY_OBJECT
  5
4C90
102
{ACAD_REACTORS
330
4C89
102
}
330
4C89
100
AcDbProxyObject
 90
      499
 91
      505
 93
      476
310
41921A5919195B90640502408333333333333E33F0000000000000F901079024090700405020000000000001110200405405064090740C02480A0340
1001
ACAD
1000
AcDbSavedByObjectVersion
1070
     0
  0
ACAD_PROXY_OBJECT
  5
4C9A
102
{ACAD_REACTORS
330
4C89
102
}
330
4C89
100
AcDbProxyObject
 90
      499
 91
      505
 93
      428
310
42529A5D1D195C93D999914409028333333333333E33F0000000000000F9010790141107004050150A41D405064090741402480A0350
1001
ACAD
1000
AcDbSavedByObjectVersion
1070
     0
  0
ACAD_PROXY_OBJECT
  5
4C97
102
{ACAD_REACTORS
330
4C89
102
}
330
4C89
100
AcDbProxyObject
 90
      499
 91
      505
 93
      444
310
42D31A5B995C185D1D195C9B90E409028333333333333E33F0000000000000F9010790141107004050750841D405064090741402483A0350
1001
ACAD
1000
AcDbSavedByObjectVersion
1070
     0
  0
ACAD_PROXY_OBJECT
  5
4F4F
102
{ACAD_REACTORS
330
4C89
102
}
330
4C89
100
AcDbProxyObject
 90
      499
 91
      505
 93
      412
310
90A409038333333333333E33F0000000000000F901074090290700405010000000000201990108421405064090741402480A1B40
1001
ACAD
1000
AcDbSavedByObjectVersion
1070
     0
  0
ACAD_PROXY_OBJECT
  5
4C9B
102
{ACAD_REACTORS
330
4C89
102
}
330
4C89
100
AcDbProxyObject
 90
      499
 91
      505
 93
      444
310
42D3DD995C9A185B99D3D999915409028333333333333E33F0000000000000F9010790141107004050150941D405064090741402480A0350
1001
ACAD
1000
AcDbSavedByObjectVersion
1070
     0
  0
ACAD_PROXY_OBJECT
  5
4C92
102
{ACAD_REACTORS
330
4C89
102
}
330
4C89
100
AcDbProxyObject
 90
      499
 91
      505
 93
      428
310
425499585B1A5CDD1A58D08409038333333333333E33F0000000000000F9010740A907004050150800405405064090740C02480A1B40
1001
ACAD
1000
AcDbSavedByObjectVersion
1070
     0
  0
ACAD_PROXY_OBJECT
  5
4CA1
102
{ACAD_REACTORS
330
4C89
102
}
330
4C89
100
AcDbProxyObject
 90
      499
 91
      505
 93
      420
310
4194DA1859195911B40902404333333333333E33F0000000000000F9010740A41107004050150800405405064090840C02480A0B40
1001
ACAD
1000
AcDbSavedByObjectVersion
1070
     0
  0
ACAD_PROXY_OBJECT
  5
4CA0
102
{ACAD_REACTORS
330
4C89
102
}
330
4C89
100
AcDbProxyObject
 90
      499
 91
      505
 93
      516
310
4454DA18591959081DDA5D1A08195919D95CD1A40902404333333333333E33F0000000000000F901074090142907004050250800405405064090740C02480A0B40
1001
ACAD
1000
AcDbSavedByObjectVersion
1070
     0
  0
ACAD_PROXY_OBJECT
  5
4C9D
102
{ACAD_REACTORS
330
4C89
102
}
330
4C89
100
AcDbProxyObject
 90
      499
 91
      505
 93
      532
310
4394DA1859195CC81BD98811DC985E5174090240C333333333333E33F0000000000000F901079024090741D01000000000000111010841D405064090740C02480A0340
1001
ACAD
1000
AcDbSavedByObjectVersion
1070
     0
  0
ACAD_PROXY_OBJECT
  5
4C9E
102
{ACAD_REACTORS
330
4C89
102
}
330
4C89
100
AcDbProxyObject
 90
      499
 91
      505
 93
      476
310
41D4DAD95D18DA1E51840502408333333333333E33F0000000000000F901079024090741D01000000000000111010B41D405064090741802480A0340
1001
ACAD
1000
AcDbSavedByObjectVersion
1070
     0
  0
ACAD_PROXY_OBJECT
  5
4C96
102
{ACAD_REACTORS
330
4C89
102
}
330
4C89
100
AcDbProxyObject
 90
      499
 91
      505
 93
      412
310
41D51A1A58DAD95B90D409028333333333333E33F0000000000000F9010790141107004050150C41D405064090741402480A0350
1001
ACAD
1000
AcDbSavedByObjectVersion
1070
     0
  0
ACAD_PROXY_OBJECT
  5
4C8F
102
{ACAD_REACTORS
330
4C89
102
}
330
4C89
100
AcDbProxyObject
 90
      499
 91
      505
 93
      420
310
4255DA5C99599C985B595059028333333333333E33F0000000000000F90107901411070040501600405405064090740C02480A0340
1001
ACAD
1000
AcDbSavedByObjectVersion
1070
     0
  0
ACAD_PROXY_OBJECT
  5
4C9F
102
{ACAD_REACTORS
330
4C89
102
}
330
4C89
100
AcDbProxyObject
 90
      499
 91
      505
 93
      404
310
41560B54985E51940902404000000000000E03F0000000000000F9010740501907004050150841D405064090740C02480A1B40
1001
ACAD
1000
AcDbSavedByObjectVersion
1070
     0
  0
XRECORD
  5
5CE9
102
{ACAD_REACTORS
330
5CDF
102
}
330
5CDF
100
AcDbXrecord
340
0
  0
XRECORD
  5
5CE8
102
{ACAD_REACTORS
330
5CDF
102
}
330
5CDF
100
AcDbXrecord
 90
        0
  0
XRECORD
  5
5D01
102
{ACAD_REACTORS
330
5CDF
102
}
330
5CDF
100
AcDbXrecord
340
2948
  0
XRECORD
  5
5CFF
102
{ACAD_REACTORS
330
5CDF
102
}
330
5CDF
100
AcDbXrecord
1000
DSTYLE
1002
{
1070
   171
 70
     2
1070
   143
 40
0.0394
1070
   274
 70
     2
1070
    41
 40
6.0
1070
   342
340
2AF4
1070
   271
 70
     1
1070
   278
 70
    46
1070
   341
340
2AF4
1070
   272
 70
     1
1070
    48
 40
0.1
1070
   283
 70
     1
1070
    47
 40
0.1
1070
   145
 40
1.0
1070
   340
340
10
1070
   140
 40
8.0
1070
   284
 70
     0
1002
}
  0
XRECORD
  5
5CEA
102
{ACAD_REACTORS
330
5CDF
102
}
330
5CDF
100
AcDbXrecord
  1
{23698909-1D67-4744-B0E2-8DE11E3ED422}
  0
XRECORD
  5
5CE2
102
{ACAD_REACTORS
330
5CDF
102
}
330
5CDF
100
AcDbXrecord
  1

  0
XRECORD
  5
5CE7
102
{ACAD_REACTORS
330
5CDF
102
}
330
5CDF
100
AcDbXrecord
 90
        0
  0
XRECORD
  5
5CE4
102
{ACAD_REACTORS
330
5CDF
102
}
330
5CDF
100
AcDbXrecord
340
2816
  0
XRECORD
  5
5CE6
102
{ACAD_REACTORS
330
5CDF
102
}
330
5CDF
100
AcDbXrecord
 90
    10781
  0
XRECORD
  5
5D02
102
{ACAD_REACTORS
330
5CDF
102
}
330
5CDF
100
AcDbXrecord
340
2947
  0
XRECORD
  5
5CE5
102
{ACAD_REACTORS
330
5CDF
102
}
330
5CDF
100
AcDbXrecord
340
2817
  0
XRECORD
  5
5CEC
102
{ACAD_REACTORS
330
5CDF
102
}
330
5CDF
100
AcDbXrecord
 40
0.25
  0
XRECORD
  5
5CEF
102
{ACAD_REACTORS
330
5CDF
102
}
330
5CDF
100
AcDbXrecord
340
0
  0
XRECORD
  5
5CF5
102
{ACAD_REACTORS
330
5CDF
102
}
330
5CDF
100
AcDbXrecord
 10
0.0
 20
0.0
 30
0.0
  0
XRECORD
  5
5CF1
102
{ACAD_REACTORS
330
5CDF
102
}
330
5CDF
100
AcDbXrecord
 10
0.0
 20
0.0
 30
0.0
  0
XRECORD
  5
5CF4
102
{ACAD_REACTORS
330
5CDF
102
}
330
5CDF
100
AcDbXrecord
 10
0.0
 20
0.0
 30
0.0
  0
XRECORD
  5
5CF2
102
{ACAD_REACTORS
330
5CDF
102
}
330
5CDF
100
AcDbXrecord
 10
0.0
 20
0.0
 30
0.0
  0
XRECORD
  5
5CF3
102
{ACAD_REACTORS
330
5CDF
102
}
330
5CDF
100
AcDbXrecord
 10
0.0
 20
0.0
 30
0.0
  0
XRECORD
  5
5CF0
102
{ACAD_REACTORS
330
5CDF
102
}
330
5CDF
100
AcDbXrecord
 10
0.0
 20
0.0
 30
0.0
  0
XRECORD
  5
5CED
102
{ACAD_REACTORS
330
5CDF
102
}
330
5CDF
100
AcDbXrecord
340
0
  0
XRECORD
  5
5CEE
102
{ACAD_REACTORS
330
5CDF
102
}
330
5CDF
100
AcDbXrecord
 70
     0
  0
XRECORD
  5
5CE3
102
{ACAD_REACTORS
330
5CDF
102
}
330
5CDF
100
AcDbXrecord
  1

  0
XRECORD
  5
5CE0
102
{ACAD_REACTORS
330
5CDF
102
}
330
5CDF
100
AcDbXrecord
 90
        1
  0
XRECORD
  5
5CE1
102
{ACAD_REACTORS
330
5CDF
102
}
330
5CDF
100
AcDbXrecord
 90
       70
  0
XRECORD
  5
5CF8
102
{ACAD_REACTORS
330
5CDF
102
}
330
5CDF
100
AcDbXrecord
340
0
  0
XRECORD
  5
5CFE
102
{ACAD_REACTORS
330
5CDF
102
}
330
5CDF
100
AcDbXrecord
 10
0.0
 20
0.0
 30
0.0
  0
XRECORD
  5
5CFA
102
{ACAD_REACTORS
330
5CDF
102
}
330
5CDF
100
AcDbXrecord
 10
0.0
 20
0.0
 30
0.0
  0
XRECORD
  5
5CFD
102
{ACAD_REACTORS
330
5CDF
102
}
330
5CDF
100
AcDbXrecord
 10
0.0
 20
0.0
 30
0.0
  0
XRECORD
  5
5CFB
102
{ACAD_REACTORS
330
5CDF
102
}
330
5CDF
100
AcDbXrecord
 10
0.0
 20
0.0
 30
0.0
  0
XRECORD
  5
5CFC
102
{ACAD_REACTORS
330
5CDF
102
}
330
5CDF
100
AcDbXrecord
 10
0.0
 20
0.0
 30
0.0
  0
XRECORD
  5
5CF9
102
{ACAD_REACTORS
330
5CDF
102
}
330
5CDF
100
AcDbXrecord
 10
0.0
 20
0.0
 30
0.0
  0
XRECORD
  5
5CF6
102
{ACAD_REACTORS
330
5CDF
102
}
330
5CDF
100
AcDbXrecord
340
0
  0
XRECORD
  5
5CF7
102
{ACAD_REACTORS
330
5CDF
102
}
330
5CDF
100
AcDbXrecord
 70
     0
  0
XRECORD
  5
5CEB
102
{ACAD_REACTORS
330
5CDF
102
}
330
5CDF
100
AcDbXrecord
  1
{F8836BED-0BD2-4D5A-A913-6E57D3586747}
  0
DICTIONARYVAR
  5
4D81
102
{ACAD_REACTORS
330
4696
102
}
330
4696
100
DictionaryVariables
280
     0
  1
1:1
  0
DICTIONARYVAR
  5
4D83
102
{ACAD_REACTORS
330
4696
102
}
330
4696
100
DictionaryVariables
280
     0
  1
Standard
  0
DICTIONARYVAR
  5
4D82
102
{ACAD_REACTORS
330
4696
102
}
330
4696
100
DictionaryVariables
280
     0
  1
Standard
  0
DICTIONARYVAR
  5
4697
102
{ACAD_REACTORS
330
4696
102
}
330
4696
100
DictionaryVariables
280
     0
  1
1
  0
DICTIONARYVAR
  5
5D00
102
{ACAD_REACTORS
330
4696
102
}
330
4696
100
DictionaryVariables
280
     0
  1
0
  0
DICTIONARYVAR
  5
4D84
102
{ACAD_REACTORS
330
4696
102
}
330
4696
100
DictionaryVariables
280
     0
  1
0
  0
DICTIONARYVAR
  5
4698
102
{ACAD_REACTORS
330
4696
102
}
330
4696
100
DictionaryVariables
280
     0
  1

  0
DICTIONARYVAR
  5
4D85
102
{ACAD_REACTORS
330
4696
102
}
330
4696
100
DictionaryVariables
280
     0
  1
0
  0
DICTIONARY
  5
4FDF
102
{ACAD_REACTORS
330
4FDE
102
}
330
4FDE
100
AcDbDictionary
  0
DICTIONARY
  5
4FDC
102
{ACAD_REACTORS
330
4FDB
102
}
330
4FDB
100
AcDbDictionary
  0
DICTIONARY
  5
4FD9
102
{ACAD_REACTORS
330
4FD8
102
}
330
4FD8
100
AcDbDictionary
  0
DICTIONARY
  5
4FD6
102
{ACAD_REACTORS
330
4FD5
102
}
330
4FD5
100
AcDbDictionary
  0
DICTIONARY
  5
4FD3
102
{ACAD_REACTORS
330
4FD2
102
}
330
4FD2
100
AcDbDictionary
  0
DICTIONARY
  5
4FE2
102
{ACAD_REACTORS
330
4FE1
102
}
330
4FE1
100
AcDbDictionary
  0
DICTIONARY
  5
4D4B
102
{ACAD_REACTORS
330
4D4A
102
}
330
4D4A
100
AcDbDictionary
  0
DICTIONARY
  5
4D64
102
{ACAD_REACTORS
330
4D63
102
}
330
4D63
100
AcDbDictionary
  0
DICTIONARY
  5
4E49
102
{ACAD_REACTORS
330
4E48
102
}
330
4E48
100
AcDbDictionary
  0
DICTIONARY
  5
4E4D
102
{ACAD_REACTORS
330
4E4C
102
}
330
4E4C
100
AcDbDictionary
  0
DICTIONARY
  5
4E51
102
{ACAD_REACTORS
330
4E50
102
}
330
4E50
100
AcDbDictionary
  0
DICTIONARY
  5
4E55
102
{ACAD_REACTORS
330
4E54
102
}
330
4E54
100
AcDbDictionary
  0
DICTIONARY
  5
4E59
102
{ACAD_REACTORS
330
4E58
102
}
330
4E58
100
AcDbDictionary
  0
DICTIONARY
  5
4E5D
102
{ACAD_REACTORS
330
4E5C
102
}
330
4E5C
100
AcDbDictionary
  0
DICTIONARY
  5
4E61
102
{ACAD_REACTORS
330
4E60
102
}
330
4E60
100
AcDbDictionary
  0
DICTIONARY
  5
4E65
102
{ACAD_REACTORS
330
4E64
102
}
330
4E64
100
AcDbDictionary
  0
DICTIONARY
  5
50AC
102
{ACAD_REACTORS
330
50AB
102
}
330
50AB
100
AcDbDictionary
  0
DICTIONARY
  5
5218
102
{ACAD_REACTORS
330
5217
102
}
330
5217
100
AcDbDictionary
  0
DICTIONARY
  5
521C
102
{ACAD_REACTORS
330
521B
102
}
330
521B
100
AcDbDictionary
  0
DICTIONARY
  5
55C3
102
{ACAD_REACTORS
330
55C2
102
}
330
55C2
100
AcDbDictionary
  0
DICTIONARY
  5
55C7
102
{ACAD_REACTORS
330
55C6
102
}
330
55C6
100
AcDbDictionary
  0
DICTIONARY
  5
5662
102
{ACAD_REACTORS
330
5661
102
}
330
5661
100
AcDbDictionary
  0
DICTIONARY
  5
5676
102
{ACAD_REACTORS
330
5675
102
}
330
5675
100
AcDbDictionary
  0
DICTIONARY
  5
567A
102
{ACAD_REACTORS
330
5679
102
}
330
5679
100
AcDbDictionary
  0
DICTIONARY
  5
5791
102
{ACAD_REACTORS
330
5790
102
}
330
5790
100
AcDbDictionary
  0
DICTIONARY
  5
4FD0
102
{ACAD_REACTORS
330
4FCF
102
}
330
4FCF
100
AcDbDictionary
  0
DICTIONARY
  5
4F84
102
{ACAD_REACTORS
330
4F83
102
}
330
4F83
100
AcDbDictionary
  0
DICTIONARY
  5
4FC7
102
{ACAD_REACTORS
330
4FC6
102
}
330
4FC6
100
AcDbDictionary
  0
DICTIONARY
  5
4FCB
102
{ACAD_REACTORS
330
4FCA
102
}
330
4FCA
100
AcDbDictionary
  0
DICTIONARY
  5
5C82
102
{ACAD_REACTORS
330
5C81
102
}
330
5C81
100
AcDbDictionary
  0
DICTIONARY
  5
5D08
330
4CC5
100
AcDbDictionary
280
     1
  3
ACAD_XREC_ROUNDTRIP
360
5D09
  0
DICTIONARY
  5
5D06
330
4CC4
100
AcDbDictionary
280
     1
  3
ACAD_XREC_ROUNDTRIP
360
5D07
  0
DICTIONARY
  5
5D0A
330
4CC6
100
AcDbDictionary
280
     1
  3
ACAD_XREC_ROUNDTRIP
360
5D0B
  0
XRECORD
  5
5D09
102
{ACAD_REACTORS
330
5D08
102
}
330
5D08
100
AcDbXrecord
102
MATERIAL
148
0.0
149
0.0
149
0.0
 93
        0
 94
      127
282
     0
 72
     1
 77
     1
171
     1
175
     1
179
     1
273
     0
  0
XRECORD
  5
5D07
102
{ACAD_REACTORS
330
5D06
102
}
330
5D06
100
AcDbXrecord
102
MATERIAL
148
0.0
149
0.0
149
0.0
 93
        0
 94
      127
282
     0
 72
     1
 77
     1
171
     1
175
     1
179
     1
273
     0
  0
XRECORD
  5
5D0B
102
{ACAD_REACTORS
330
5D0A
102
}
330
5D0A
100
AcDbXrecord
102
MATERIAL
148
0.0
149
0.0
149
0.0
 93
        0
 94
      127
282
     0
 72
     1
 77
     1
171
     1
175
     1
179
     1
273
     0
  0
ENDSEC
  0
EOF
