  0
SECTION
  2
HEADER
  9
$ACADVER
  1
AC1014
  9
$ACADMAINTVER
 70
     9
  9
$DWGCODEPAGE
  3
ANSI_932
  9
$INSBASE
 10
0.0
 20
0.0
 30
0.0
  9
$EXTMIN
 10
-112.068873143486
 20
75.153144313715
 30
0.0
  9
$EXTMAX
 10
662.598062821636
 20
511.372453443407
 30
0.0
  9
$LIMMIN
 10
-360.747566795242
 20
4.457354754526
  9
$LIMMAX
 10
-162.153696144267
 20
287.675440264018
  9
$ORTHOMODE
 70
     0
  9
$REGENMODE
 70
     1
  9
$FILLMODE
 70
     1
  9
$QTEXTMODE
 70
     0
  9
$MIRRTEXT
 70
     1
  9
$DRAGMODE
 70
     2
  9
$LTSCALE
 40
1.0
  9
$OSMODE
 70
   935
  9
$ATTMODE
 70
     1
  9
$TEXTSIZE
 40
4.0
  9
$TRACEWID
 40
1.0
  9
$TEXTSTYLE
  7
STANDARD
  9
$CLAYER
  8
寸法線
  9
$CELTYPE
  6
BYLAYER
  9
$CECOLOR
 62
   256
  9
$CELTSCALE
 40
10.0
  9
$DELOBJ
 70
     1
  9
$DISPSILH
 70
     0
  9
$DIMSCALE
 40
1.0
  9
$DIMASZ
 40
6.0
  9
$DIMEXO
 40
0.625
  9
$DIMDLI
 40
3.75
  9
$DIMRND
 40
0.0
  9
$DIMDLE
 40
0.0
  9
$DIMEXE
 40
1.25
  9
$DIMTP
 40
0.1
  9
$DIMTM
 40
0.1
  9
$DIMTXT
 40
8.0
  9
$DIMCEN
 40
2.5
  9
$DIMTSZ
 40
0.0
  9
$DIMTOL
 70
     0
  9
$DIMLIM
 70
     0
  9
$DIMTIH
 70
     0
  9
$DIMTOH
 70
     0
  9
$DIMSE1
 70
     0
  9
$DIMSE2
 70
     0
  9
$DIMTAD
 70
     1
  9
$DIMZIN
 70
     8
  9
$DIMBLK
  1
OPEN30
  9
$DIMASO
 70
     1
  9
$DIMSHO
 70
     1
  9
$DIMPOST
  1

  9
$DIMAPOST
  1

  9
$DIMALT
 70
     0
  9
$DIMALTD
 70
     2
  9
$DIMALTF
 40
0.0394
  9
$DIMLFAC
 40
1.0
  9
$DIMTOFL
 70
     1
  9
$DIMTVP
 40
1.0
  9
$DIMTIX
 70
     0
  9
$DIMSOXD
 70
     0
  9
$DIMSAH
 70
     0
  9
$DIMBLK1
  1

  9
$DIMBLK2
  1

  9
$DIMSTYLE
  2
ISO-25
  9
$DIMCLRD
 70
     0
  9
$DIMCLRE
 70
     0
  9
$DIMCLRT
 70
     0
  9
$DIMTFAC
 40
1.0
  9
$DIMGAP
 40
0.625
  9
$DIMJUST
 70
     0
  9
$DIMSD1
 70
     0
  9
$DIMSD2
 70
     0
  9
$DIMTOLJ
 70
     1
  9
$DIMTZIN
 70
     0
  9
$DIMALTZ
 70
     0
  9
$DIMALTTZ
 70
     0
  9
$DIMFIT
 70
     3
  9
$DIMUPT
 70
     0
  9
$DIMUNIT
 70
     2
  9
$DIMDEC
 70
     1
  9
$DIMTDEC
 70
     1
  9
$DIMALTU
 70
     2
  9
$DIMALTTD
 70
     2
  9
$DIMTXSTY
  7
STANDARD
  9
$DIMAUNIT
 70
     0
  9
$LUNITS
 70
     2
  9
$LUPREC
 70
     4
  9
$SKETCHINC
 40
1.0
  9
$FILLETRAD
 40
11.0
  9
$AUNITS
 70
     0
  9
$AUPREC
 70
     0
  9
$MENU
  1
.
  9
$ELEVATION
 40
0.0
  9
$PELEVATION
 40
0.0
  9
$THICKNESS
 40
0.0
  9
$LIMCHECK
 70
     0
  9
$CHAMFERA
 40
0.5
  9
$CHAMFERB
 40
0.5
  9
$CHAMFERC
 40
20.0
  9
$CHAMFERD
 40
0.0
  9
$SKPOLY
 70
     0
  9
$TDCREATE
 40
2450576.597302431
  9
$TDUPDATE
 40
2457661.616099305
  9
$TDINDWG
 40
1.468312338
  9
$TDUSRTIMER
 40
1.468312338
  9
$USRTIMER
 70
     1
  9
$ANGBASE
 50
0.0
  9
$ANGDIR
 70
     0
  9
$PDMODE
 70
     0
  9
$PDSIZE
 40
0.0
  9
$PLINEWID
 40
0.0
  9
$COORDS
 70
     1
  9
$SPLFRAME
 70
     0
  9
$SPLINETYPE
 70
     6
  9
$SPLINESEGS
 70
     8
  9
$ATTDIA
 70
     0
  9
$ATTREQ
 70
     1
  9
$HANDLING
 70
     1
  9
$HANDSEED
  5
60A3
  9
$SURFTAB1
 70
     6
  9
$SURFTAB2
 70
     6
  9
$SURFTYPE
 70
     6
  9
$SURFU
 70
     6
  9
$SURFV
 70
     6
  9
$UCSNAME
  2

  9
$UCSORG
 10
0.0
 20
0.0
 30
0.0
  9
$UCSXDIR
 10
1.0
 20
0.0
 30
0.0
  9
$UCSYDIR
 10
0.0
 20
1.0
 30
0.0
  9
$PUCSNAME
  2

  9
$PUCSORG
 10
0.0
 20
0.0
 30
0.0
  9
$PUCSXDIR
 10
1.0
 20
0.0
 30
0.0
  9
$PUCSYDIR
 10
0.0
 20
1.0
 30
0.0
  9
$USERI1
 70
     0
  9
$USERI2
 70
     0
  9
$USERI3
 70
     0
  9
$USERI4
 70
     0
  9
$USERI5
 70
     0
  9
$USERR1
 40
0.0
  9
$USERR2
 40
0.0
  9
$USERR3
 40
0.0
  9
$USERR4
 40
0.0
  9
$USERR5
 40
0.0
  9
$WORLDVIEW
 70
     1
  9
$SHADEDGE
 70
     3
  9
$SHADEDIF
 70
    70
  9
$TILEMODE
 70
     0
  9
$MAXACTVP
 70
    16
  9
$PINSBASE
 10
0.0
 20
0.0
 30
0.0
  9
$PLIMCHECK
 70
     0
  9
$PEXTMIN
 10
4.746305129083
 20
2.478723388613
 30
0.0
  9
$PEXTMAX
 10
404.746305129083
 20
282.478723388613
 30
0.0
  9
$PLIMMIN
 10
-7.007122192383
 20
-7.007118782997
  9
$PLIMMAX
 10
417.718108215332
 20
293.315290427208
  9
$UNITMODE
 70
     0
  9
$VISRETAIN
 70
     0
  9
$PLINEGEN
 70
     0
  9
$PSLTSCALE
 70
     1
  9
$TREEDEPTH
 70
  3020
  9
$PICKSTYLE
 70
     1
  9
$CMLSTYLE
  2
STANDARD
  9
$CMLJUST
 70
     0
  9
$CMLSCALE
 40
1.0
  9
$PROXYGRAPHICS
 70
     1
  9
$MEASUREMENT
 70
     1
  0
ENDSEC
  0
SECTION
  2
CLASSES
  0
CLASS
  1
ACDBDICTIONARYWDFLT
  2
AcDbDictionaryWithDefault
  3
ObjectDBX Classes
 90
        0
280
     0
281
     0
  0
CLASS
  1
ACDBPLACEHOLDER
  2
AcDbPlaceHolder
  3
ObjectDBX Classes
 90
        0
280
     0
281
     0
  0
CLASS
  1
LAYOUT
  2
AcDbLayout
  3
ObjectDBX Classes
 90
        0
280
     0
281
     0
  0
CLASS
  1
SORTENTSTABLE
  2
AcDbSortentsTable
  3
ObjectDBX Classes
 90
        0
280
     0
281
     0
  0
CLASS
  1
VISUALSTYLE
  2
AcDbVisualStyle
  3
ObjectDBX Classes
 90
     4095
280
     0
281
     0
  0
CLASS
  1
SCALE
  2
AcDbScale
  3
ObjectDBX Classes
 90
     1153
280
     0
281
     0
  0
CLASS
  1
MATERIAL
  2
AcDbMaterial
  3
ObjectDBX Classes
 90
     1153
280
     0
281
     0
  0
CLASS
  1
TABLESTYLE
  2
AcDbTableStyle
  3
ObjectDBX Classes
 90
     4095
280
     0
281
     0
  0
CLASS
  1
MLEADERSTYLE
  2
AcDbMLeaderStyle
  3
ACDB_MLEADERSTYLE_CLASS
 90
     4095
280
     0
281
     0
  0
CLASS
  1
SUN
  2
AcDbSun
  3
SCENEOE
 90
     1153
280
     0
281
     0
  0
CLASS
  1
DICTIONARYVAR
  2
AcDbDictionaryVar
  3
ObjectDBX Classes
 90
        0
280
     0
281
     0
  0
CLASS
  1
CELLSTYLEMAP
  2
AcDbCellStyleMap
  3
ObjectDBX Classes
 90
     1152
280
     0
281
     0
  0
CLASS
  1
XRECORD
  2
AcDbXrecord
  3
ObjectDBX Classes
 90
        0
280
     0
281
     0
  0
CLASS
  1
LWPOLYLINE
  2
AcDbPolyline
  3
ObjectDBX Classes
 90
        0
280
     0
281
     1
  0
CLASS
  1
HATCH
  2
AcDbHatch
  3
ObjectDBX Classes
 90
        0
280
     0
281
     1
  0
ENDSEC
  0
SECTION
  2
TABLES
  0
TABLE
  2
VPORT
  5
8
102
{ACAD_XDICTIONARY
360
609B
102
}
330
0
100
AcDbSymbolTable
 70
     2
  0
VPORT
  5
4C26
330
8
100
AcDbSymbolTableRecord
100
AcDbViewportTableRecord
  2
*ACTIVE
 70
     0
 10
0.0
 20
0.0
 11
1.0
 21
1.0
 12
275.264594839075
 22
293.262798878561
 13
0.0
 23
0.0
 14
1.0
 24
1.0
 15
0.0
 25
0.0
 16
0.0
 26
0.0
 36
1.0
 17
0.0
 27
0.0
 37
0.0
 40
449.106001878315
 41
1.759407069555
 42
50.0
 43
0.0
 44
0.0
 50
0.0
 51
0.0
 71
    16
 72
   100
 73
     1
 74
     0
 75
     0
 76
     0
 77
     0
 78
     0
  0
ENDTAB
  0
TABLE
  2
LTYPE
  5
5
330
0
100
AcDbSymbolTable
 70
     6
  0
LTYPE
  5
14
330
5
100
AcDbSymbolTableRecord
100
AcDbLinetypeTableRecord
  2
BYBLOCK
 70
     0
  3

 72
    65
 73
     0
 40
0.0
  0
LTYPE
  5
15
330
5
100
AcDbSymbolTableRecord
100
AcDbLinetypeTableRecord
  2
BYLAYER
 70
     0
  3

 72
    65
 73
     0
 40
0.0
  0
LTYPE
  5
16
330
5
100
AcDbSymbolTableRecord
100
AcDbLinetypeTableRecord
  2
CONTINUOUS
 70
     0
  3
Solid line
 72
    65
 73
     0
 40
0.0
  0
LTYPE
  5
1EC
330
5
100
AcDbSymbolTableRecord
100
AcDbLinetypeTableRecord
  2
CENTER
 70
     0
  3
____ _ ____ _ ____ _ ____ _ ____ _ ____ _ ____ 
 72
    65
 73
     4
 40
2.0
 49
1.25
 74
     0
 49
-0.25
 74
     0
 49
0.25
 74
     0
 49
-0.25
 74
     0
  0
LTYPE
  5
1ED
330
5
100
AcDbSymbolTableRecord
100
AcDbLinetypeTableRecord
  2
DASHED
 70
     0
  3
__ __ __ __ __ __ __ __ __ __ __ __ __ __ __ __
 72
    65
 73
     2
 40
0.75
 49
0.5
 74
     0
 49
-0.25
 74
     0
  0
LTYPE
  5
2B1F
330
5
100
AcDbSymbolTableRecord
100
AcDbLinetypeTableRecord
  2
DASHDOT
 70
     0
  3
一点鎖線
 72
    65
 73
     4
 40
25.6
 49
20.0
 74
     0
 49
-2.0
 74
     0
 49
1.6
 74
     0
 49
-2.0
 74
     0
  0
LTYPE
  5
31A1
330
5
100
AcDbSymbolTableRecord
100
AcDbLinetypeTableRecord
  2
CENTER2
 70
     0
  3
Center (.5x) ___ _ ___ _ ___ _ ___ _ ___ _ ___
 72
    65
 73
     4
 40
28.575
 49
19.05
 74
     0
 49
-3.175
 74
     0
 49
3.175
 74
     0
 49
-3.175
 74
     0
  0
LTYPE
  5
4002
330
5
100
AcDbSymbolTableRecord
100
AcDbLinetypeTableRecord
  2
DASHED2
 70
     0
  3
Dashed (.5x) _ _ _ _ _ _ _ _ _ _ _ _ _ _ _ _ _
 72
    65
 73
     2
 40
9.525
 49
6.35
 74
     0
 49
-3.175
 74
     0
  0
ENDTAB
  0
TABLE
  2
LAYER
  5
2
102
{ACAD_XDICTIONARY
360
29EA
102
}
330
0
100
AcDbSymbolTable
 70
    12
  0
LAYER
  5
F
330
2
100
AcDbSymbolTableRecord
100
AcDbLayerTableRecord
  2
0
 70
     0
 62
     7
  6
CONTINUOUS
  0
LAYER
  5
61
330
2
100
AcDbSymbolTableRecord
100
AcDbLayerTableRecord
  2
図枠太線
 70
     0
 62
   251
  6
CONTINUOUS
  0
LAYER
  5
62
330
2
100
AcDbSymbolTableRecord
100
AcDbLayerTableRecord
  2
図枠細線
 70
     0
 62
   252
  6
CONTINUOUS
  0
LAYER
  5
63
330
2
100
AcDbSymbolTableRecord
100
AcDbLayerTableRecord
  2
図枠ロゴマーク
 70
     0
 62
   253
  6
CONTINUOUS
  0
LAYER
  5
1EF
330
2
100
AcDbSymbolTableRecord
100
AcDbLayerTableRecord
  2
外形線
 70
     0
 62
     7
  6
CONTINUOUS
  0
LAYER
  5
1F0
330
2
100
AcDbSymbolTableRecord
100
AcDbLayerTableRecord
  2
寸法線
 70
     0
 62
     1
  6
CONTINUOUS
  0
LAYER
  5
1F1
330
2
100
AcDbSymbolTableRecord
100
AcDbLayerTableRecord
  2
中心線
 70
     0
 62
     4
  6
CENTER
  0
LAYER
  5
1F4
330
2
100
AcDbSymbolTableRecord
100
AcDbLayerTableRecord
  2
DEFPOINTS
 70
     0
 62
     7
  6
CONTINUOUS
  0
LAYER
  5
2AA2
330
2
100
AcDbSymbolTableRecord
100
AcDbLayerTableRecord
  2
下書線
 70
     0
 62
     2
  6
CONTINUOUS
  0
LAYER
  5
2AA3
330
2
100
AcDbSymbolTableRecord
100
AcDbLayerTableRecord
  2
隠れ線
 70
     0
 62
     3
  6
DASHED
  0
LAYER
  5
2AA4
330
2
100
AcDbSymbolTableRecord
100
AcDbLayerTableRecord
  2
細線
 70
     0
 62
     6
  6
CONTINUOUS
  0
LAYER
  5
2AA5
330
2
100
AcDbSymbolTableRecord
100
AcDbLayerTableRecord
  2
太線
 70
     0
 62
   190
  6
CONTINUOUS
  0
ENDTAB
  0
TABLE
  2
STYLE
  5
3
330
0
100
AcDbSymbolTable
 70
     2
  0
STYLE
  5
10
330
3
100
AcDbSymbolTableRecord
100
AcDbTextStyleTableRecord
  2
STANDARD
 70
     0
 40
0.0
 41
1.0
 50
0.0
 71
     0
 42
4.0
  3
ISOCP
  4
bigfont.shx
  0
STYLE
  5
64
330
3
100
AcDbSymbolTableRecord
100
AcDbTextStyleTableRecord
  2
EXCADSTD
 70
     0
 40
0.0
 41
1.0
 50
0.0
 71
     0
 42
0.2
  3
monotxt
  4
bigfont
  0
ENDTAB
  0
TABLE
  2
VIEW
  5
6
330
0
100
AcDbSymbolTable
 70
     0
  0
ENDTAB
  0
TABLE
  2
UCS
  5
7
330
0
100
AcDbSymbolTable
 70
     0
  0
ENDTAB
  0
TABLE
  2
APPID
  5
9
330
0
100
AcDbSymbolTable
 70
     6
  0
APPID
  5
11
330
9
100
AcDbSymbolTableRecord
100
AcDbRegAppTableRecord
  2
ACAD
 70
     0
  0
APPID
  5
3507
330
9
100
AcDbSymbolTableRecord
100
AcDbRegAppTableRecord
  2
ACAD_DIMASSOC_CALC_DIMLFAC
 70
     0
  0
APPID
  5
3508
330
9
100
AcDbSymbolTableRecord
100
AcDbRegAppTableRecord
  2
ACAD_DIMASSOC_DIMLFAC
 70
     0
  0
APPID
  5
3509
330
9
100
AcDbSymbolTableRecord
100
AcDbRegAppTableRecord
  2
ACAD_DIMASSOC_OVERRIDDEN_D
 70
     0
  0
APPID
  5
4DC8
330
9
100
AcDbSymbolTableRecord
100
AcDbRegAppTableRecord
  2
ACADANNOTATIVE
 70
     0
  0
APPID
  5
526C
330
9
100
AcDbSymbolTableRecord
100
AcDbRegAppTableRecord
  2
ACAD_MLEADERVER
 70
     0
  0
ENDTAB
  0
TABLE
  2
DIMSTYLE
  5
A
330
0
100
AcDbSymbolTable
 70
     2
  0
DIMSTYLE
105
1D
330
A
100
AcDbSymbolTableRecord
100
AcDbDimStyleTableRecord
  2
STANDARD
 70
     0
  3

  4

  5

  6

  7

 40
1.0
 41
0.18
 42
0.0625
 43
0.38
 44
0.18
 45
0.0
 46
0.0
 47
0.0
 48
0.0
140
0.18
141
0.09
142
0.0
143
25.4
144
1.0
145
0.0
146
1.0
147
0.09
 71
     0
 72
     0
 73
     1
 74
     1
 75
     0
 76
     0
 77
     0
 78
     0
170
     0
171
     2
172
     0
173
     0
174
     0
175
     0
176
     0
177
     0
178
     0
270
     2
271
     4
272
     4
273
     2
274
     2
340
10
275
     0
280
     0
281
     0
282
     0
283
     1
284
     0
285
     0
286
     0
287
     3
288
     0
  0
DIMSTYLE
105
24
102
{ACAD_REACTORS
330
4604
330
4611
330
461E
330
462B
330
48D4
330
48E1
330
48EE
330
48FB
330
4908
330
4D94
330
4D95
102
}
330
A
100
AcDbSymbolTableRecord
100
AcDbDimStyleTableRecord
  2
ISO-25
 70
     0
  3

  4

  5

  6

  7

 40
1.0
 41
2.5
 42
0.625
 43
3.75
 44
1.25
 45
0.0
 46
0.0
 47
0.0
 48
0.0
140
2.5
141
2.5
142
0.0
143
0.0394
144
1.0
145
1.0
146
1.0
147
0.625
 71
     0
 72
     0
 73
     1
 74
     0
 75
     0
 76
     0
 77
     1
 78
     8
170
     0
171
     2
172
     1
173
     0
174
     0
175
     0
176
     0
177
     0
178
     0
270
     2
271
     4
272
     4
273
     2
274
     2
340
10
275
     0
280
     0
281
     0
282
     0
283
     1
284
     0
285
     0
286
     0
287
     3
288
     0
  0
ENDTAB
  0
TABLE
  2
BLOCK_RECORD
  5
1
330
0
100
AcDbSymbolTable
 70
    24
  0
BLOCK_RECORD
  5
1A
330
1
100
AcDbSymbolTableRecord
100
AcDbBlockTableRecord
  2
*MODEL_SPACE
  0
BLOCK_RECORD
  5
28FB
330
1
100
AcDbSymbolTableRecord
100
AcDbBlockTableRecord
  2
*PAPER_SPACE
  0
BLOCK_RECORD
  5
65
330
1
100
AcDbSymbolTableRecord
100
AcDbBlockTableRecord
  2
A$C3392
  0
BLOCK_RECORD
  5
29BF
330
1
100
AcDbSymbolTableRecord
100
AcDbBlockTableRecord
  2
A4横用_タイトル
1001
ACAD
1000
DesignCenter Data
1002
{
1070
     1
1070
     4
1002
}
  0
BLOCK_RECORD
  5
29F4
330
1
100
AcDbSymbolTableRecord
100
AcDbBlockTableRecord
  2
A4縦用_タイトル
1001
ACAD
1000
DesignCenter Data
1002
{
1070
     1
1070
     4
1002
}
  0
BLOCK_RECORD
  5
2A32
330
1
100
AcDbSymbolTableRecord
100
AcDbBlockTableRecord
  2
A3横用_タイトル
1001
ACAD
1000
DesignCenter Data
1002
{
1070
     1
1070
     4
1002
}
  0
BLOCK_RECORD
  5
2A6C
330
1
100
AcDbSymbolTableRecord
100
AcDbBlockTableRecord
  2
A3縦用_タイトル
1001
ACAD
1000
DesignCenter Data
1002
{
1070
     1
1070
     4
1002
}
  0
BLOCK_RECORD
  5
2AF4
330
1
100
AcDbSymbolTableRecord
100
AcDbBlockTableRecord
  2
_OPEN30
  0
BLOCK_RECORD
  5
4547
330
1
100
AcDbSymbolTableRecord
100
AcDbBlockTableRecord
  2
_DOTSMALL
  0
BLOCK_RECORD
  5
4605
330
1
100
AcDbSymbolTableRecord
100
AcDbBlockTableRecord
  2
*D9
  0
BLOCK_RECORD
  5
4612
330
1
100
AcDbSymbolTableRecord
100
AcDbBlockTableRecord
  2
*D10
  0
BLOCK_RECORD
  5
461F
330
1
100
AcDbSymbolTableRecord
100
AcDbBlockTableRecord
  2
*D11
  0
BLOCK_RECORD
  5
462C
330
1
100
AcDbSymbolTableRecord
100
AcDbBlockTableRecord
  2
*D12
  0
BLOCK_RECORD
  5
48D5
330
1
100
AcDbSymbolTableRecord
100
AcDbBlockTableRecord
  2
*D13
  0
BLOCK_RECORD
  5
48E2
330
1
100
AcDbSymbolTableRecord
100
AcDbBlockTableRecord
  2
*D14
  0
BLOCK_RECORD
  5
48EF
330
1
100
AcDbSymbolTableRecord
100
AcDbBlockTableRecord
  2
*D15
  0
BLOCK_RECORD
  5
48FC
330
1
100
AcDbSymbolTableRecord
100
AcDbBlockTableRecord
  2
*D16
  0
BLOCK_RECORD
  5
4909
330
1
100
AcDbSymbolTableRecord
100
AcDbBlockTableRecord
  2
*D17
  0
BLOCK_RECORD
  5
491F
330
1
100
AcDbSymbolTableRecord
100
AcDbBlockTableRecord
  2
静電容量センサ
  0
BLOCK_RECORD
  5
4D9A
330
1
100
AcDbSymbolTableRecord
100
AcDbBlockTableRecord
  2
*D22
  0
BLOCK_RECORD
  5
4DA7
330
1
100
AcDbSymbolTableRecord
100
AcDbBlockTableRecord
  2
*D23
  0
ENDTAB
  0
ENDSEC
  0
SECTION
  2
BLOCKS
  0
BLOCK
  5
1B
330
1A
100
AcDbEntity
  8
0
100
AcDbBlockBegin
  2
*MODEL_SPACE
 70
     0
 10
0.0
 20
0.0
 30
0.0
  3
*MODEL_SPACE
  1

  0
ENDBLK
  5
1C
330
1A
100
AcDbEntity
  8
0
100
AcDbBlockEnd
  0
BLOCK
  5
28FD
330
28FB
100
AcDbEntity
 67
     1
  8
0
 48
10.0
100
AcDbBlockBegin
  2
*PAPER_SPACE
 70
     0
 10
0.0
 20
0.0
 30
0.0
  3
*PAPER_SPACE
  1

  0
ENDBLK
  5
28FE
330
28FB
100
AcDbEntity
 67
     1
  8
0
 48
10.0
100
AcDbBlockEnd
  0
BLOCK
  5
93
330
65
100
AcDbEntity
  8
0
100
AcDbBlockBegin
  2
A$C3392
 70
     0
 10
0.0
 20
0.0
 30
0.0
  3
A$C3392
  1

  0
LINE
  5
66
330
65
100
AcDbEntity
  8
図枠太線
  6
CONTINUOUS
100
AcDbLine
 10
211.858584505185
 20
30.927375675439
 30
0.0
 11
211.858584505185
 21
0.927375675439
 31
0.0
  0
LINE
  5
67
330
65
100
AcDbEntity
  8
図枠細線
  6
CONTINUOUS
100
AcDbLine
 10
231.858592505185
 20
15.927377675439
 30
0.0
 11
287.858592505185
 21
15.927375675439
 31
0.0
  0
LINE
  5
68
330
65
100
AcDbEntity
  8
図枠細線
  6
CONTINUOUS
100
AcDbLine
 10
211.858592505185
 20
15.927377675439
 30
0.0
 11
231.858592505185
 21
15.927377675439
 31
0.0
  0
LINE
  5
69
330
65
100
AcDbEntity
  8
図枠太線
  6
CONTINUOUS
 62
   251
100
AcDbLine
 10
1.858584505185
 20
0.927375675439
 30
0.0
 11
1.858584505185
 21
275.927375675439
 31
0.0
  0
TEXT
  5
6A
330
65
100
AcDbEntity
  8
図枠細線
  6
CONTINUOUS
 62
   252
100
AcDbText
 10
351.358592505185
 20
28.427377675439
 30
0.0
 40
2.0
  1
ＴＩＴＬＥ
 41
0.903614457831
  7
EXCADSTD
 72
     5
 11
361.358592505185
 21
28.427377675439
 31
0.0
100
AcDbText
  0
TEXT
  5
6B
330
65
100
AcDbEntity
  8
図枠細線
  6
CONTINUOUS
 62
   252
100
AcDbText
 10
345.358592505185
 20
28.427377675439
 30
0.0
 40
2.0
  1
名称
 41
1.171875
  7
EXCADSTD
 72
     5
 11
350.358592505185
 21
28.427377675439
 31
0.0
100
AcDbText
  0
TEXT
  5
6C
330
65
100
AcDbEntity
  8
図枠細線
  6
CONTINUOUS
 62
   252
100
AcDbText
 10
274.358592505185
 20
25.927377675439
 30
0.0
 40
2.0
  1
ＤＲＡＷＮ
 41
0.882352941176
  7
EXCADSTD
 72
     5
 11
284.358592505185
 21
25.927377675439
 31
0.0
100
AcDbText
  0
TEXT
  5
6D
330
65
100
AcDbEntity
  8
図枠細線
  6
CONTINUOUS
 62
   252
100
AcDbText
 10
260.358592505185
 20
25.927377675439
 30
0.0
 40
2.0
  1
ＤＥＳＩＧＮＥＤ
 41
0.713043472041
  7
EXCADSTD
 72
     5
 11
273.478592390744
 21
25.927377675439
 31
0.0
100
AcDbText
  0
TEXT
  5
6E
330
65
100
AcDbEntity
  8
図枠細線
  6
CONTINUOUS
 62
   252
100
AcDbText
 10
246.358592505185
 20
25.927377675439
 30
0.0
 40
2.0
  1
ＣＨＥＣＫＥＤ
 41
0.831249989569
  7
EXCADSTD
 72
     5
 11
259.658592338292
 21
25.927377675439
 31
0.0
100
AcDbText
  0
TEXT
  5
6F
330
65
100
AcDbEntity
  8
図枠細線
  6
CONTINUOUS
 62
   252
100
AcDbText
 10
274.358592505185
 20
28.427377675439
 30
0.0
 40
2.0
  1
製図
 41
1.209677419355
  7
EXCADSTD
 72
     5
 11
279.358592505185
 21
28.427377675439
 31
0.0
100
AcDbText
  0
TEXT
  5
70
330
65
100
AcDbEntity
  8
図枠細線
  6
CONTINUOUS
 62
   252
100
AcDbText
 10
260.358592505185
 20
28.427377675439
 30
0.0
 40
2.0
  1
設計
 41
1.171875
  7
EXCADSTD
 72
     5
 11
265.358592505185
 21
28.427377675439
 31
0.0
100
AcDbText
  0
TEXT
  5
71
330
65
100
AcDbEntity
  8
図枠細線
  6
CONTINUOUS
 62
   252
100
AcDbText
 10
246.358592505185
 20
28.427377675439
 30
0.0
 40
2.0
  1
検図
 41
1.209677419355
  7
EXCADSTD
 72
     5
 11
251.358592505185
 21
28.427377675439
 31
0.0
100
AcDbText
  0
TEXT
  5
72
330
65
100
AcDbEntity
  8
図枠細線
  6
CONTINUOUS
 62
   252
100
AcDbText
 10
232.358592505185
 20
25.927377675439
 30
0.0
 40
2.0
  1
ＡＰＰＲＯＶＥＤ
 41
0.695652184279
  7
EXCADSTD
 72
     5
 11
245.15859269592
 21
25.927377675439
 31
0.0
100
AcDbText
  0
TEXT
  5
73
330
65
100
AcDbEntity
  8
図枠細線
  6
CONTINUOUS
 62
   252
100
AcDbText
 10
232.358592505185
 20
28.427377675439
 30
0.0
 40
2.0
  1
承認
 41
1.171875
  7
EXCADSTD
 72
     5
 11
237.358592505185
 21
28.427377675439
 31
0.0
100
AcDbText
  0
TEXT
  5
74
330
65
100
AcDbEntity
  8
図枠細線
  6
CONTINUOUS
 62
   252
100
AcDbText
 10
290.069888505185
 20
2.574868675439
 30
0.0
 40
3.5
  1
ＴＯＷＡ　ＳＥＩＤＥＮ　ＩＮＤＵＳＴＲＩＡＬ　ＣＯ．，ＬＴＤ．
 41
0.414568012377
  7
EXCADSTD
 72
     5
 11
342.692388209546
 21
2.574868675439
 31
0.0
100
AcDbText
  0
TEXT
  5
75
330
65
100
AcDbEntity
  8
図枠ロゴマーク
  6
CONTINUOUS
 62
   253
100
AcDbText
 10
290.107348505185
 20
7.519769675439
 30
0.0
 40
7.0
  1
東和制電工業株式会社
 41
0.639204545455
  7
EXCADSTD
 72
     5
 11
342.607348505185
 21
7.519769675439
 31
0.0
100
AcDbText
  0
TEXT
  5
76
330
65
100
AcDbEntity
  8
図枠細線
  6
CONTINUOUS
 62
   252
100
AcDbText
 10
232.499705505185
 20
5.759088675439
 30
0.0
 40
2.0
  1
ＰＲＯＪＥＣＴＩＯＮ
 41
0.754285710199
  7
EXCADSTD
 72
     5
 11
250.099705409817
 21
5.759088675439
 31
0.0
100
AcDbText
  0
TEXT
  5
77
330
65
100
AcDbEntity
  8
図枠細線
  6
CONTINUOUS
 62
   252
100
AcDbText
 10
232.574629505185
 20
8.681077675439
 30
0.0
 40
2.0
  1
ＴＨＩＲＤ　ＡＮＧＬＥ
 41
0.691099486738
  7
EXCADSTD
 72
     5
 11
250.174629767445
 21
8.681077675439
 31
0.0
100
AcDbText
  0
TEXT
  5
78
330
65
100
AcDbEntity
  8
図枠細線
  6
CONTINUOUS
 62
   252
100
AcDbText
 10
256.823999505185
 20
13.427377675439
 30
0.0
 40
2.0
  1
ＳＣＡＬＥ
 41
0.903614457831
  7
EXCADSTD
 72
     5
 11
266.823999505185
 21
13.427377675439
 31
0.0
100
AcDbText
  0
TEXT
  5
79
330
65
100
AcDbEntity
  8
図枠細線
  6
CONTINUOUS
 62
   252
100
AcDbText
 10
274.858592505185
 20
13.427377675439
 30
0.0
 40
2.0
  1
ＤＡＴＥ
 41
0.923076923077
  7
EXCADSTD
 72
     5
 11
282.858592505185
 21
13.427377675439
 31
0.0
100
AcDbText
  0
TEXT
  5
7A
330
65
100
AcDbEntity
  8
図枠細線
  6
CONTINUOUS
 62
   252
100
AcDbText
 10
356.358592505185
 20
13.427377675439
 30
0.0
 40
2.0
  1
ＤＲＧ．ＮＯ．
 41
0.9375
  7
EXCADSTD
 72
     5
 11
370.358592505185
 21
13.427377675439
 31
0.0
100
AcDbText
  0
TEXT
  5
7B
330
65
100
AcDbEntity
  8
図枠細線
  6
CONTINUOUS
 62
   252
100
AcDbText
 10
345.358592505185
 20
13.427377675439
 30
0.0
 40
2.0
  1
図面番号
 41
1.102941176471
  7
EXCADSTD
 72
     5
 11
355.358592505185
 21
13.427377675439
 31
0.0
100
AcDbText
  0
TEXT
  5
7C
330
65
100
AcDbEntity
  8
図枠細線
  6
CONTINUOUS
 62
   252
100
AcDbText
 10
269.358592505185
 20
13.427377675439
 30
0.0
 40
2.0
  1
日付
 41
1.171875
  7
EXCADSTD
 72
     5
 11
274.358592505185
 21
13.427377675439
 31
0.0
100
AcDbText
  0
TEXT
  5
7D
330
65
100
AcDbEntity
  8
図枠細線
  6
CONTINUOUS
 62
   252
100
AcDbText
 10
251.451512505185
 20
13.427377675439
 30
0.0
 40
2.0
  1
尺度
 41
1.171875
  7
EXCADSTD
 72
     5
 11
256.451512505185
 21
13.427377675439
 31
0.0
100
AcDbText
  0
TEXT
  5
7E
330
65
100
AcDbEntity
  8
図枠細線
  6
CONTINUOUS
 62
   252
100
AcDbText
 10
232.358592505185
 20
13.427377675439
 30
0.0
 40
2.0
  1
第三角法
 41
1.102941176471
  7
EXCADSTD
 72
     5
 11
242.358592505185
 21
13.427377675439
 31
0.0
100
AcDbText
  0
TEXT
  5
7F
330
65
100
AcDbEntity
  8
図枠細線
  6
CONTINUOUS
 62
   252
100
AcDbText
 10
212.358592505185
 20
28.427377675439
 30
0.0
 40
2.0
  1
ＮＯＴＥ
 41
0.923076923077
  7
EXCADSTD
 72
     5
 11
220.358592505185
 21
28.427377675439
 31
0.0
100
AcDbText
  0
LINE
  5
80
330
65
100
AcDbEntity
  8
図枠細線
  6
CONTINUOUS
 62
   252
100
AcDbLine
 10
287.858592505185
 20
23.427375675439
 30
0.0
 11
344.858592505185
 21
23.427375675439
 31
0.0
  0
LINE
  5
81
330
65
100
AcDbEntity
  8
図枠太線
  6
CONTINUOUS
 62
   251
100
AcDbLine
 10
287.858584505185
 20
15.927375675439
 30
0.0
 11
344.858592505185
 21
15.927375675439
 31
0.0
  0
LINE
  5
82
330
65
100
AcDbEntity
  8
図枠細線
  6
CONTINUOUS
 62
   252
100
AcDbLine
 10
344.858592505185
 20
15.927375675439
 30
0.0
 11
401.858584505185
 21
15.927375675439
 31
0.0
  0
LINE
  5
83
330
65
100
AcDbEntity
  8
図枠太線
  6
CONTINUOUS
 62
   251
100
AcDbLine
 10
344.858592505185
 20
0.927377675439
 30
0.0
 11
344.858592505185
 21
30.927375675439
 31
0.0
  0
LINE
  5
84
330
65
100
AcDbEntity
  8
図枠太線
  6
CONTINUOUS
 62
   251
100
AcDbLine
 10
287.858592505185
 20
0.927377675439
 30
0.0
 11
287.858592505185
 21
30.927375675439
 31
0.0
  0
LINE
  5
85
330
65
100
AcDbEntity
  8
図枠細線
  6
CONTINUOUS
 62
   252
100
AcDbLine
 10
268.858592505185
 20
0.927377675439
 30
0.0
 11
268.858592505185
 21
15.927375675439
 31
0.0
  0
LINE
  5
86
330
65
100
AcDbEntity
  8
図枠細線
  6
CONTINUOUS
 62
   252
100
AcDbLine
 10
250.858592505185
 20
0.927377675439
 30
0.0
 11
250.858592505185
 21
15.927375675439
 31
0.0
  0
LINE
  5
87
330
65
100
AcDbEntity
  8
図枠細線
  6
CONTINUOUS
 62
   252
100
AcDbLine
 10
273.858592505185
 20
30.927375675439
 30
0.0
 11
273.858592505185
 21
15.927375675439
 31
0.0
  0
LINE
  5
88
330
65
100
AcDbEntity
  8
図枠細線
  6
CONTINUOUS
 62
   252
100
AcDbLine
 10
259.858592505185
 20
30.927375675439
 30
0.0
 11
259.858592505185
 21
15.927375675439
 31
0.0
  0
LINE
  5
89
330
65
100
AcDbEntity
  8
図枠細線
  6
CONTINUOUS
 62
   252
100
AcDbLine
 10
245.858592505185
 20
30.927375675439
 30
0.0
 11
245.858592505185
 21
15.927375675439
 31
0.0
  0
LINE
  5
8A
330
65
100
AcDbEntity
  8
図枠太線
  6
CONTINUOUS
 62
   251
100
AcDbLine
 10
231.858592505185
 20
0.927377675439
 30
0.0
 11
231.858592505185
 21
30.927375675439
 31
0.0
  0
LINE
  5
8B
330
65
100
AcDbEntity
  8
図枠細線
  6
CONTINUOUS
 62
   252
100
AcDbLine
 10
211.858592505185
 20
25.927375675439
 30
0.0
 11
231.858592505185
 21
25.927375675439
 31
0.0
  0
LINE
  5
8C
330
65
100
AcDbEntity
  8
図枠細線
  6
CONTINUOUS
 62
   252
100
AcDbLine
 10
211.858592505185
 20
20.927375675439
 30
0.0
 11
231.858592505185
 21
20.927375675439
 31
0.0
  0
LINE
  5
8D
330
65
100
AcDbEntity
  8
図枠細線
  6
CONTINUOUS
 62
   252
100
AcDbLine
 10
211.858592505185
 20
10.927375675439
 30
0.0
 11
231.858592505185
 21
10.927375675439
 31
0.0
  0
LINE
  5
8E
330
65
100
AcDbEntity
  8
図枠細線
  6
CONTINUOUS
 62
   252
100
AcDbLine
 10
211.858592505185
 20
5.927377675439
 30
0.0
 11
231.858592505185
 21
5.927377675439
 31
0.0
  0
LINE
  5
8F
330
65
100
AcDbEntity
  8
図枠太線
  6
CONTINUOUS
 62
   251
100
AcDbLine
 10
211.858592505185
 20
30.927375675439
 30
0.0
 11
401.858584505185
 21
30.927375675439
 31
0.0
  0
LINE
  5
90
330
65
100
AcDbEntity
  8
図枠太線
  6
CONTINUOUS
 62
   251
100
AcDbLine
 10
1.858584505185
 20
275.927375675439
 30
0.0
 11
401.858584505185
 21
275.927375675439
 31
0.0
  0
LINE
  5
91
330
65
100
AcDbEntity
  8
図枠太線
  6
CONTINUOUS
 62
   251
100
AcDbLine
 10
401.858584505185
 20
0.927375675439
 30
0.0
 11
401.858584505185
 21
275.927375675439
 31
0.0
  0
LINE
  5
92
330
65
100
AcDbEntity
  8
図枠太線
  6
CONTINUOUS
 62
   251
100
AcDbLine
 10
1.858584505185
 20
0.927375675439
 30
0.0
 11
401.858584505185
 21
0.927375675439
 31
0.0
  0
ENDBLK
  5
94
330
65
100
AcDbEntity
  8
0
100
AcDbBlockEnd
  0
BLOCK
  5
29C0
330
29BF
100
AcDbEntity
  8
0
100
AcDbBlockBegin
  2
A4横用_タイトル
 70
     0
 10
0.0
 20
0.0
 30
0.0
  3
A4横用_タイトル
  1

  0
LINE
  5
29C1
330
29BF
100
AcDbEntity
  8
図枠細線
  6
CONTINUOUS
100
AcDbLine
 10
75.061011071051
 20
16.806607253358
 30
0.0
 11
144.061011071051
 21
16.806604789072
 31
0.0
  0
LINE
  5
29C2
330
29BF
100
AcDbEntity
  8
図枠細線
  6
CONTINUOUS
 62
   252
100
AcDbLine
 10
4.061011071051
 20
11.806606253358
 30
0.0
 11
75.061011071051
 21
11.806606253358
 31
0.0
  0
LINE
  5
29C3
330
29BF
100
AcDbEntity
  8
図枠細線
  6
CONTINUOUS
 62
   252
100
AcDbLine
 10
4.061011071051
 20
21.806606253358
 30
0.0
 11
75.061011071051
 21
21.806606253358
 31
0.0
  0
LINE
  5
29C4
330
29BF
100
AcDbEntity
  8
図枠細線
  6
CONTINUOUS
 62
   252
100
AcDbLine
 10
4.061011071051
 20
26.806606253358
 30
0.0
 11
75.061011071051
 21
26.806606253358
 31
0.0
  0
LINE
  5
29C5
330
29BF
100
AcDbEntity
  8
図枠細線
  6
CONTINUOUS
100
AcDbLine
 10
4.061011071051
 20
16.806608253358
 30
0.0
 11
75.061011071051
 21
16.806608253358
 31
0.0
  0
TEXT
  5
29C6
330
29BF
100
AcDbEntity
  8
図枠細線
  6
CONTINUOUS
 62
   252
100
AcDbText
 10
76.405475827713
 20
9.560308253358
 30
0.0
 40
2.0
  1
ＴＨＩＲＤ　ＡＮＧＬＥ
 41
0.691099486738
  7
EXCADSTD
 72
     5
 11
94.005476089973
 21
9.560308253358
 31
0.0
100
AcDbText
  0
TEXT
  5
29C7
330
29BF
100
AcDbEntity
  8
図枠細線
  6
CONTINUOUS
 62
   252
100
AcDbText
 10
76.705775880921
 20
14.306608253358
 30
0.0
 40
2.0
  1
第三角法
 41
1.102941176471
  7
EXCADSTD
 72
     5
 11
86.705775880921
 21
14.306608253358
 31
0.0
100
AcDbText
  0
TEXT
  5
29C8
330
29BF
100
AcDbEntity
  8
図枠細線
  6
CONTINUOUS
 62
   252
100
AcDbText
 10
76.705775880921
 20
26.806608253358
 30
0.0
 40
2.0
  1
ＡＰＰＲＯＶＥＤ
 41
0.695652184279
  7
EXCADSTD
 72
     5
 11
89.505776071656
 21
26.806608253358
 31
0.0
100
AcDbText
  0
TEXT
  5
29C9
330
29BF
100
AcDbEntity
  8
図枠細線
  6
CONTINUOUS
 62
   252
100
AcDbText
 10
76.705775880921
 20
29.306608253358
 30
0.0
 40
2.0
  1
承認
 41
1.171875
  7
EXCADSTD
 72
     5
 11
81.705775880921
 21
29.306608253358
 31
0.0
100
AcDbText
  0
LINE
  5
29CA
330
29BF
100
AcDbEntity
  8
図枠細線
  6
CONTINUOUS
 62
   252
100
AcDbLine
 10
98.061011071051
 20
31.806606253358
 30
0.0
 11
98.061011071051
 21
16.806606253358
 31
0.0
  0
TEXT
  5
29CB
330
29BF
100
AcDbEntity
  8
図枠細線
  6
CONTINUOUS
 62
   252
100
AcDbText
 10
104.216531119804
 20
14.306608253358
 30
0.0
 40
2.0
  1
ＳＣＡＬＥ
 41
0.903614457831
  7
EXCADSTD
 72
     5
 11
114.216531119804
 21
14.306608253358
 31
0.0
100
AcDbText
  0
TEXT
  5
29CC
330
29BF
100
AcDbEntity
  8
図枠細線
  6
CONTINUOUS
 62
   252
100
AcDbText
 10
98.844044119804
 20
14.306608253358
 30
0.0
 40
2.0
  1
尺度
 41
1.171875
  7
EXCADSTD
 72
     5
 11
103.844044119804
 21
14.306608253358
 31
0.0
100
AcDbText
  0
TEXT
  5
29CD
330
29BF
100
AcDbEntity
  8
図枠細線
  6
CONTINUOUS
 62
   252
100
AcDbText
 10
98.968727707497
 20
26.806608253358
 30
0.0
 40
2.0
  1
ＣＨＥＣＫＥＤ
 41
0.831249989569
  7
EXCADSTD
 72
     5
 11
112.268727540604
 21
26.806608253358
 31
0.0
100
AcDbText
  0
TEXT
  5
29CE
330
29BF
100
AcDbEntity
  8
図枠細線
  6
CONTINUOUS
 62
   252
100
AcDbText
 10
98.968727707497
 20
29.306608253358
 30
0.0
 40
2.0
  1
検図
 41
1.209677419355
  7
EXCADSTD
 72
     5
 11
103.968727707497
 21
29.306608253358
 31
0.0
100
AcDbText
  0
LINE
  5
29CF
330
29BF
100
AcDbEntity
  8
図枠細線
  6
CONTINUOUS
 62
   252
100
AcDbLine
 10
121.061011071051
 20
31.806606253358
 30
0.0
 11
121.061011071051
 21
16.806606253358
 31
0.0
  0
TEXT
  5
29D0
330
29BF
100
AcDbEntity
  8
図枠細線
  6
CONTINUOUS
 62
   252
100
AcDbText
 10
128.001465247253
 20
14.306608253358
 30
0.0
 40
2.0
  1
ＤＡＴＥ
 41
0.923076923077
  7
EXCADSTD
 72
     5
 11
136.001465247253
 21
14.306608253358
 31
0.0
100
AcDbText
  0
TEXT
  5
29D1
330
29BF
100
AcDbEntity
  8
図枠細線
  6
CONTINUOUS
 62
   252
100
AcDbText
 10
122.066415498841
 20
14.306608253358
 30
0.0
 40
2.0
  1
日付
 41
1.171875
  7
EXCADSTD
 72
     5
 11
127.066415498841
 21
14.306608253358
 31
0.0
100
AcDbText
  0
TEXT
  5
29D2
330
29BF
100
AcDbEntity
  8
図枠細線
  6
CONTINUOUS
 62
   252
100
AcDbText
 10
121.59429406571
 20
29.306608253358
 30
0.0
 40
2.0
  1
製図
 41
1.209677419355
  7
EXCADSTD
 72
     5
 11
126.59429406571
 21
29.306608253358
 31
0.0
100
AcDbText
  0
TEXT
  5
29D3
330
29BF
100
AcDbEntity
  8
図枠細線
  6
CONTINUOUS
 62
   252
100
AcDbText
 10
121.59429406571
 20
26.806608253358
 30
0.0
 40
2.0
  1
ＤＲＡＷＮ
 41
0.882352941176
  7
EXCADSTD
 72
     5
 11
131.59429406571
 21
26.806608253358
 31
0.0
100
AcDbText
  0
TEXT
  5
29D4
330
29BF
100
AcDbEntity
  8
図枠細線
  6
CONTINUOUS
 62
   252
100
AcDbText
 10
226.591229661348
 20
14.306608253358
 30
0.0
 40
2.0
  1
ＤＲＧ．ＮＯ．
 41
0.9375
  7
EXCADSTD
 72
     5
 11
240.591229661348
 21
14.306608253358
 31
0.0
100
AcDbText
  0
LINE
  5
29D5
330
29BF
100
AcDbEntity
  8
図枠太線
  6
CONTINUOUS
 62
   251
100
AcDbLine
 10
144.061003071051
 20
16.806606253358
 30
0.0
 11
214.061011071051
 21
16.806606253358
 31
0.0
  0
LINE
  5
29D6
330
29BF
100
AcDbEntity
  8
図枠細線
  6
CONTINUOUS
 62
   252
100
AcDbLine
 10
144.061011071051
 20
24.306606253358
 30
0.0
 11
214.061011071051
 21
24.306606253358
 31
0.0
  0
TEXT
  5
29D7
330
29BF
100
AcDbEntity
  8
図枠ロゴマーク
  6
CONTINUOUS
 62
   253
100
AcDbText
 10
146.433776781596
 20
8.399000253358
 30
0.0
 40
7.0
  1
東和制電工業株式会社
 41
0.80361088462
  7
EXCADSTD
 72
     5
 11
212.437017438349
 21
8.399000253358
 31
0.0
100
AcDbText
  0
TEXT
  5
29D8
330
29BF
100
AcDbEntity
  8
図枠細線
  6
CONTINUOUS
 62
   252
100
AcDbText
 10
215.156179912936
 20
14.306608253358
 30
0.0
 40
2.0
  1
図面番号
 41
1.102941176471
  7
EXCADSTD
 72
     5
 11
225.156179912936
 21
14.306608253358
 31
0.0
100
AcDbText
  0
TEXT
  5
29D9
330
29BF
100
AcDbEntity
  8
図枠細線
  6
CONTINUOUS
 62
   252
100
AcDbText
 10
221.591229661348
 20
29.306608253358
 30
0.0
 40
2.0
  1
ＴＩＴＬＥ
 41
0.903614457831
  7
EXCADSTD
 72
     5
 11
231.591229661348
 21
29.306608253358
 31
0.0
100
AcDbText
  0
TEXT
  5
29DA
330
29BF
100
AcDbEntity
  8
図枠細線
  6
CONTINUOUS
 62
   252
100
AcDbText
 10
215.156179912936
 20
29.306608253358
 30
0.0
 40
2.0
  1
名称
 41
1.171875
  7
EXCADSTD
 72
     5
 11
220.156179912936
 21
29.306608253358
 31
0.0
100
AcDbText
  0
LINE
  5
29DB
330
29BF
100
AcDbEntity
  8
図枠太線
  6
CONTINUOUS
 62
   251
100
AcDbLine
 10
4.061011071051
 20
1.806608253358
 30
0.0
 11
284.061011071051
 21
1.806608253358
 31
0.0
  0
LINE
  5
29DC
330
29BF
100
AcDbEntity
  8
図枠細線
  6
CONTINUOUS
 62
   252
100
AcDbLine
 10
4.061011071051
 20
6.806608253358
 30
0.0
 11
75.061011071051
 21
6.806608253358
 31
0.0
  0
LINE
  5
29DD
330
29BF
100
AcDbEntity
  8
図枠太線
  6
CONTINUOUS
 62
   251
100
AcDbLine
 10
75.061011071051
 20
1.806608253358
 30
0.0
 11
75.061011071051
 21
31.806606253358
 31
0.0
  0
TEXT
  5
29DE
330
29BF
100
AcDbEntity
  8
図枠細線
  6
CONTINUOUS
 62
   252
100
AcDbText
 10
76.330551827713
 20
6.638319253358
 30
0.0
 40
2.0
  1
ＰＲＯＪＥＣＴＩＯＮ
 41
0.754285710199
  7
EXCADSTD
 72
     5
 11
93.930551732346
 21
6.638319253358
 31
0.0
100
AcDbText
  0
LINE
  5
29DF
330
29BF
100
AcDbEntity
  8
図枠細線
  6
CONTINUOUS
 62
   252
100
AcDbLine
 10
98.061011071051
 20
1.806606931929
 30
0.0
 11
98.061011071051
 21
16.806604931929
 31
0.0
  0
LINE
  5
29E0
330
29BF
100
AcDbEntity
  8
図枠細線
  6
CONTINUOUS
 62
   252
100
AcDbLine
 10
121.061011071051
 20
1.806607574787
 30
0.0
 11
121.061011071051
 21
16.806605574787
 31
0.0
  0
LINE
  5
29E1
330
29BF
100
AcDbEntity
  8
図枠太線
  6
CONTINUOUS
 62
   251
100
AcDbLine
 10
284.061011071051
 20
1.806608253358
 30
0.0
 11
284.061011071051
 21
31.806606253358
 31
0.0
  0
LINE
  5
29E2
330
29BF
100
AcDbEntity
  8
図枠細線
  6
CONTINUOUS
 62
   252
100
AcDbLine
 10
214.061011071051
 20
16.806606253358
 30
0.0
 11
284.061011071051
 21
16.806606253358
 31
0.0
  0
TEXT
  5
29E3
330
29BF
100
AcDbEntity
  8
図枠細線
  6
CONTINUOUS
 62
   252
100
AcDbText
 10
146.199593676182
 20
3.454099253358
 30
0.0
 40
3.5
  1
ＴＯＷＡ　ＳＥＩＤＥＮ　ＩＮＤＵＳＴＲＩＡＬ　ＣＯ．，ＬＴＤ．
 41
0.528937826907
  7
EXCADSTD
 72
     5
 11
213.339435171588
 21
3.454099253358
 31
0.0
100
AcDbText
  0
LINE
  5
29E4
330
29BF
100
AcDbEntity
  8
図枠太線
  6
CONTINUOUS
 62
   251
100
AcDbLine
 10
144.061011071051
 20
1.806608253358
 30
0.0
 11
144.061011071051
 21
31.806606253358
 31
0.0
  0
LINE
  5
29E5
330
29BF
100
AcDbEntity
  8
図枠太線
  6
CONTINUOUS
 62
   251
100
AcDbLine
 10
214.061011071051
 20
1.806608253358
 30
0.0
 11
214.061011071051
 21
31.806606253358
 31
0.0
  0
MTEXT
  5
29E6
330
29BF
100
AcDbEntity
  8
図枠太線
100
AcDbMText
 10
5.064337346478
 20
31.010982137407
 30
0.0
 40
2.5
 41
8.67856098472
 71
     1
 72
     5
  1
{\Fmonotxt.shx,bigfont.shx|c128;図暦}
  0
LINE
  5
29E7
330
29BF
100
AcDbEntity
  8
図枠太線
  6
CONTINUOUS
 62
   251
100
AcDbLine
 10
4.061011071051
 20
1.806608253358
 30
0.0
 11
4.061011071051
 21
31.806606253358
 31
0.0
  0
TEXT
  5
29E8
330
29BF
100
AcDbEntity
  8
図枠細線
 48
10.0
100
AcDbText
 10
12.260817420402
 20
28.625419626495
 30
0.0
 40
2.0
  1
CHANGE NOTICE
100
AcDbText
  0
ENDBLK
  5
29E9
330
29BF
100
AcDbEntity
  8
0
100
AcDbBlockEnd
  0
BLOCK
  5
29F5
330
29F4
100
AcDbEntity
  8
0
100
AcDbBlockBegin
  2
A4縦用_タイトル
 70
     0
 10
0.0
 20
0.0
 30
0.0
  3
A4縦用_タイトル
  1

  0
LINE
  5
29F6
330
29F4
100
AcDbEntity
  8
図枠太線
  6
CONTINUOUS
 62
   251
100
AcDbLine
 10
2.368253864267
 20
4.525433224584
 30
0.0
 11
192.368245864267
 21
4.525433224584
 31
0.0
  0
LINE
  5
29F7
330
29F4
100
AcDbEntity
  8
図枠太線
  6
CONTINUOUS
 62
   251
100
AcDbLine
 10
78.368245864267
 20
19.525431224584
 30
0.0
 11
135.368253864267
 21
19.525431224584
 31
0.0
  0
LINE
  5
29F8
330
29F4
100
AcDbEntity
  8
図枠細線
  6
CONTINUOUS
 62
   252
100
AcDbLine
 10
78.368253864267
 20
27.025431224584
 30
0.0
 11
135.368253864267
 21
27.025431224584
 31
0.0
  0
TEXT
  5
29F9
330
29F4
100
AcDbEntity
  8
図枠ロゴマーク
  6
CONTINUOUS
 62
   253
100
AcDbText
 10
80.617009864267
 20
11.117825224584
 30
0.0
 40
7.0
  1
東和制電工業株式会社
 41
0.639204545455
  7
EXCADSTD
 72
     5
 11
133.117009864267
 21
11.117825224584
 31
0.0
100
AcDbText
  0
TEXT
  5
29FA
330
29F4
100
AcDbEntity
  8
図枠細線
  6
CONTINUOUS
 62
   252
100
AcDbText
 10
80.579549864267
 20
6.172924224584
 30
0.0
 40
3.5
  1
ＴＯＷＡ　ＳＥＩＤＥＮ　ＩＮＤＵＳＴＲＩＡＬ　ＣＯ．，ＬＴＤ．
 41
0.414568012377
  7
EXCADSTD
 72
     5
 11
133.202049568628
 21
6.172924224584
 31
0.0
100
AcDbText
  0
LINE
  5
29FB
330
29F4
100
AcDbEntity
  8
図枠太線
  6
CONTINUOUS
 62
   251
100
AcDbLine
 10
2.368253864267
 20
4.525433224584
 30
0.0
 11
2.368253864267
 21
34.525431224584
 31
0.0
  0
TEXT
  5
29FC
330
29F4
100
AcDbEntity
  8
図枠細線
  6
CONTINUOUS
 62
   252
100
AcDbText
 10
22.504308136501
 20
12.279133224584
 30
0.0
 40
2.0
  1
ＴＨＩＲＤ　ＡＮＧＬＥ
 41
0.691099486738
  7
EXCADSTD
 72
     5
 11
40.104308398762
 21
12.279133224584
 31
0.0
100
AcDbText
  0
TEXT
  5
29FD
330
29F4
100
AcDbEntity
  8
図枠細線
  6
CONTINUOUS
 62
   252
100
AcDbText
 10
22.429384136501
 20
9.357144224584
 30
0.0
 40
2.0
  1
ＰＲＯＪＥＣＴＩＯＮ
 41
0.754285710199
  7
EXCADSTD
 72
     5
 11
40.029384041134
 21
9.357144224584
 31
0.0
100
AcDbText
  0
LINE
  5
29FE
330
29F4
100
AcDbEntity
  8
図枠細線
  6
CONTINUOUS
100
AcDbLine
 10
22.368253864267
 20
19.525433224584
 30
0.0
 11
78.368253864267
 21
19.525431224584
 31
0.0
  0
TEXT
  5
29FF
330
29F4
100
AcDbEntity
  8
図枠細線
  6
CONTINUOUS
 62
   252
100
AcDbText
 10
22.868253864267
 20
17.025433224584
 30
0.0
 40
2.0
  1
第三角法
 41
1.102941176471
  7
EXCADSTD
 72
     5
 11
32.868253864267
 21
17.025433224584
 31
0.0
100
AcDbText
  0
TEXT
  5
2A00
330
29F4
100
AcDbEntity
  8
図枠細線
  6
CONTINUOUS
 62
   252
100
AcDbText
 10
22.868253864267
 20
29.525433224584
 30
0.0
 40
2.0
  1
ＡＰＰＲＯＶＥＤ
 41
0.695652184279
  7
EXCADSTD
 72
     5
 11
35.668254055002
 21
29.525433224584
 31
0.0
100
AcDbText
  0
LINE
  5
2A01
330
29F4
100
AcDbEntity
  8
図枠細線
  6
CONTINUOUS
 62
   252
100
AcDbLine
 10
2.368253864267
 20
9.525433224584
 30
0.0
 11
22.368253864267
 21
9.525433224584
 31
0.0
  0
LINE
  5
2A02
330
29F4
100
AcDbEntity
  8
図枠細線
  6
CONTINUOUS
 62
   252
100
AcDbLine
 10
2.368253864267
 20
14.525431224584
 30
0.0
 11
22.368253864267
 21
14.525431224584
 31
0.0
  0
LINE
  5
2A03
330
29F4
100
AcDbEntity
  8
図枠細線
  6
CONTINUOUS
 62
   252
100
AcDbLine
 10
2.368253864267
 20
24.525431224584
 30
0.0
 11
22.368253864267
 21
24.525431224584
 31
0.0
  0
LINE
  5
2A04
330
29F4
100
AcDbEntity
  8
図枠細線
  6
CONTINUOUS
 62
   252
100
AcDbLine
 10
2.368253864267
 20
29.525431224584
 30
0.0
 11
22.368253864267
 21
29.525431224584
 31
0.0
  0
LINE
  5
2A05
330
29F4
100
AcDbEntity
  8
図枠細線
  6
CONTINUOUS
100
AcDbLine
 10
2.368253864267
 20
19.525433224584
 30
0.0
 11
22.368253864267
 21
19.525433224584
 31
0.0
  0
TEXT
  5
2A06
330
29F4
100
AcDbEntity
  8
図枠細線
  6
CONTINUOUS
 62
   252
100
AcDbText
 10
2.868253864267
 20
32.025433224584
 30
0.0
 40
2.0
  1
ＮＯＴＥ
 41
0.923076923077
  7
EXCADSTD
 72
     5
 11
10.868253864267
 21
32.025433224584
 31
0.0
100
AcDbText
  0
LINE
  5
2A07
330
29F4
100
AcDbEntity
  8
図枠太線
  6
CONTINUOUS
 62
   251
100
AcDbLine
 10
22.368253864267
 20
4.525433224584
 30
0.0
 11
22.368253864267
 21
34.525431224584
 31
0.0
  0
TEXT
  5
2A08
330
29F4
100
AcDbEntity
  8
図枠細線
  6
CONTINUOUS
 62
   252
100
AcDbText
 10
22.868253864267
 20
32.025433224584
 30
0.0
 40
2.0
  1
承認
 41
1.171875
  7
EXCADSTD
 72
     5
 11
27.868253864267
 21
32.025433224584
 31
0.0
100
AcDbText
  0
TEXT
  5
2A09
330
29F4
100
AcDbEntity
  8
図枠細線
  6
CONTINUOUS
 62
   252
100
AcDbText
 10
60.711709035982
 20
32.025433224584
 30
0.0
 40
2.0
  1
製図
 41
1.209677419355
  7
EXCADSTD
 72
     5
 11
65.711709035982
 21
32.025433224584
 31
0.0
100
AcDbText
  0
TEXT
  5
2A0A
330
29F4
100
AcDbEntity
  8
図枠細線
  6
CONTINUOUS
 62
   252
100
AcDbText
 10
60.711709035982
 20
29.525433224584
 30
0.0
 40
2.0
  1
ＤＲＡＷＮ
 41
0.882352941176
  7
EXCADSTD
 72
     5
 11
70.711709035982
 21
29.525433224584
 31
0.0
100
AcDbText
  0
TEXT
  5
2A0B
330
29F4
100
AcDbEntity
  8
図枠細線
  6
CONTINUOUS
 62
   252
100
AcDbText
 10
60.834891743877
 20
17.025433224584
 30
0.0
 40
2.0
  1
日付
 41
1.171875
  7
EXCADSTD
 72
     5
 11
65.834891743877
 21
17.025433224584
 31
0.0
100
AcDbText
  0
TEXT
  5
2A0C
330
29F4
100
AcDbEntity
  8
図枠細線
  6
CONTINUOUS
 62
   252
100
AcDbText
 10
47.333660864267
 20
17.025433224584
 30
0.0
 40
2.0
  1
ＳＣＡＬＥ
 41
0.903614457831
  7
EXCADSTD
 72
     5
 11
57.333660864267
 21
17.025433224584
 31
0.0
100
AcDbText
  0
TEXT
  5
2A0D
330
29F4
100
AcDbEntity
  8
図枠細線
  6
CONTINUOUS
 62
   252
100
AcDbText
 10
42.281425990082
 20
29.525433224584
 30
0.0
 40
2.0
  1
ＣＨＥＣＫＥＤ
 41
0.831249989569
  7
EXCADSTD
 72
     5
 11
55.581425823189
 21
29.525433224584
 31
0.0
100
AcDbText
  0
LINE
  5
2A0E
330
29F4
100
AcDbEntity
  8
図枠細線
  6
CONTINUOUS
 62
   252
100
AcDbLine
 10
40.968253864267
 20
34.525431224584
 30
0.0
 11
40.968253864267
 21
19.525431224584
 31
0.0
  0
LINE
  5
2A0F
330
29F4
100
AcDbEntity
  8
図枠細線
  6
CONTINUOUS
 62
   252
100
AcDbLine
 10
40.968253864267
 20
4.525433224584
 30
0.0
 11
40.968253864267
 21
19.525431224584
 31
0.0
  0
TEXT
  5
2A10
330
29F4
100
AcDbEntity
  8
図枠細線
  6
CONTINUOUS
 62
   252
100
AcDbText
 10
41.961173864267
 20
17.025433224584
 30
0.0
 40
2.0
  1
尺度
 41
1.171875
  7
EXCADSTD
 72
     5
 11
46.961173864267
 21
17.025433224584
 31
0.0
100
AcDbText
  0
TEXT
  5
2A11
330
29F4
100
AcDbEntity
  8
図枠細線
  6
CONTINUOUS
 62
   252
100
AcDbText
 10
42.281425990082
 20
32.025433224584
 30
0.0
 40
2.0
  1
検図
 41
1.209677419355
  7
EXCADSTD
 72
     5
 11
47.281425990082
 21
32.025433224584
 31
0.0
100
AcDbText
  0
LINE
  5
2A12
330
29F4
100
AcDbEntity
  8
図枠細線
  6
CONTINUOUS
 62
   252
100
AcDbLine
 10
59.768253864267
 20
34.525431224584
 30
0.0
 11
59.768253864267
 21
19.525431224584
 31
0.0
  0
LINE
  5
2A13
330
29F4
100
AcDbEntity
  8
図枠細線
  6
CONTINUOUS
 62
   252
100
AcDbLine
 10
59.768253864267
 20
4.525433224584
 30
0.0
 11
59.768253864267
 21
19.525431224584
 31
0.0
  0
LINE
  5
2A14
330
29F4
100
AcDbEntity
  8
図枠太線
  6
CONTINUOUS
 62
   251
100
AcDbLine
 10
78.368253864267
 20
4.525433224584
 30
0.0
 11
78.368253864267
 21
34.525431224584
 31
0.0
  0
TEXT
  5
2A15
330
29F4
100
AcDbEntity
  8
図枠細線
  6
CONTINUOUS
 62
   252
100
AcDbText
 10
66.334891743877
 20
17.025433224584
 30
0.0
 40
2.0
  1
ＤＡＴＥ
 41
0.923076923077
  7
EXCADSTD
 72
     5
 11
74.334891743877
 21
17.025433224584
 31
0.0
100
AcDbText
  0
LINE
  5
2A16
330
29F4
100
AcDbEntity
  8
図枠細線
  6
CONTINUOUS
 62
   252
100
AcDbLine
 10
135.368253864267
 20
19.525431224584
 30
0.0
 11
192.368245864267
 21
19.525431224584
 31
0.0
  0
TEXT
  5
2A17
330
29F4
100
AcDbEntity
  8
図枠細線
  6
CONTINUOUS
 62
   252
100
AcDbText
 10
141.868253864267
 20
32.025433224584
 30
0.0
 40
2.0
  1
ＴＩＴＬＥ
 41
0.903614457831
  7
EXCADSTD
 72
     5
 11
151.868253864267
 21
32.025433224584
 31
0.0
100
AcDbText
  0
LINE
  5
2A18
330
29F4
100
AcDbEntity
  8
図枠太線
  6
CONTINUOUS
 62
   251
100
AcDbLine
 10
135.368253864267
 20
4.525433224584
 30
0.0
 11
135.368253864267
 21
34.525431224584
 31
0.0
  0
TEXT
  5
2A19
330
29F4
100
AcDbEntity
  8
図枠細線
  6
CONTINUOUS
 62
   252
100
AcDbText
 10
135.868253864267
 20
17.025433224584
 30
0.0
 40
2.0
  1
図面番号
 41
1.102941176471
  7
EXCADSTD
 72
     5
 11
145.868253864267
 21
17.025433224584
 31
0.0
100
AcDbText
  0
TEXT
  5
2A1A
330
29F4
100
AcDbEntity
  8
図枠細線
  6
CONTINUOUS
 62
   252
100
AcDbText
 10
135.868253864267
 20
32.025433224584
 30
0.0
 40
2.0
  1
名称
 41
1.171875
  7
EXCADSTD
 72
     5
 11
140.868253864267
 21
32.025433224584
 31
0.0
100
AcDbText
  0
TEXT
  5
2A1B
330
29F4
100
AcDbEntity
  8
図枠細線
  6
CONTINUOUS
 62
   252
100
AcDbText
 10
146.868253864267
 20
17.025433224584
 30
0.0
 40
2.0
  1
ＤＲＧ．ＮＯ．
 41
0.9375
  7
EXCADSTD
 72
     5
 11
160.868253864267
 21
17.025433224584
 31
0.0
100
AcDbText
  0
LINE
  5
2A1C
330
29F4
100
AcDbEntity
  8
図枠太線
  6
CONTINUOUS
 62
   251
100
AcDbLine
 10
192.368245864267
 20
4.525433224584
 30
0.0
 11
192.368245864267
 21
34.525431224584
 31
0.0
  0
ENDBLK
  5
2A1D
330
29F4
100
AcDbEntity
  8
0
100
AcDbBlockEnd
  0
BLOCK
  5
2A33
330
2A32
100
AcDbEntity
  8
0
100
AcDbBlockBegin
  2
A3横用_タイトル
 70
     0
 10
0.0
 20
0.0
 30
0.0
  3
A3横用_タイトル
  1

  0
LINE
  5
2A34
330
2A32
100
AcDbEntity
  8
図枠細線
  6
CONTINUOUS
 62
   252
100
AcDbLine
 10
205.098414535793
 20
33.525959753527
 30
0.0
 11
305.098414535793
 21
33.525959753527
 31
0.0
  0
LINE
  5
2A35
330
2A32
100
AcDbEntity
  8
図枠太線
  6
CONTINUOUS
 62
   251
100
AcDbLine
 10
205.098414535793
 20
23.525959753527
 30
0.0
 11
305.098414535793
 21
23.525959753527
 31
0.0
  0
LINE
  5
2A36
330
2A32
100
AcDbEntity
  8
図枠細線
  6
CONTINUOUS
100
AcDbLine
 10
5.098414535793
 20
23.525959753527
 30
0.0
 11
105.098414535793
 21
23.525959753527
 31
0.0
  0
LINE
  5
2A37
330
2A32
100
AcDbEntity
  8
図枠細線
  6
CONTINUOUS
 62
   252
100
AcDbLine
 10
5.098414535793
 20
36.725957753527
 30
0.0
 11
105.098414535793
 21
36.725957753527
 31
0.0
  0
LINE
  5
2A38
330
2A32
100
AcDbEntity
  8
図枠細線
  6
CONTINUOUS
 62
   252
100
AcDbLine
 10
5.098414535793
 20
30.125957753527
 30
0.0
 11
105.098414535793
 21
30.125957753527
 31
0.0
  0
LINE
  5
2A39
330
2A32
100
AcDbEntity
  8
図枠細線
  6
CONTINUOUS
 62
   252
100
AcDbLine
 10
5.098414535793
 20
16.725959753527
 30
0.0
 11
105.098414535793
 21
16.725959753527
 31
0.0
  0
LINE
  5
2A3A
330
2A32
100
AcDbEntity
  8
図枠細線
  6
CONTINUOUS
 62
   252
100
AcDbLine
 10
5.098414535793
 20
10.125959753527
 30
0.0
 11
105.098414535793
 21
10.125959753527
 31
0.0
  0
LINE
  5
2A3B
330
2A32
100
AcDbEntity
  8
図枠細線
  6
CONTINUOUS
100
AcDbLine
 10
105.098414535793
 20
23.525961753527
 30
0.0
 11
205.098414535793
 21
23.525959753527
 31
0.0
  0
LINE
  5
2A3C
330
2A32
100
AcDbEntity
  8
図枠細線
  6
CONTINUOUS
 62
   252
100
AcDbLine
 10
138.398414535793
 20
43.525959753527
 30
0.0
 11
138.398414535793
 21
18.525957753527
 31
0.0
  0
LINE
  5
2A3D
330
2A32
100
AcDbEntity
  8
図枠細線
  6
CONTINUOUS
 62
   252
100
AcDbLine
 10
171.698414535793
 20
43.525959753527
 30
0.0
 11
171.698414535793
 21
18.525957753527
 31
0.0
  0
LINE
  5
2A3E
330
2A32
100
AcDbEntity
  8
図枠細線
  6
CONTINUOUS
 62
   252
100
AcDbLine
 10
305.098414535793
 20
23.525959753527
 30
0.0
 11
405.098414535793
 21
23.525959753527
 31
0.0
  0
TEXT
  5
2A3F
330
2A32
100
AcDbEntity
  8
図枠ロゴマーク
  6
CONTINUOUS
 62
   253
100
AcDbText
 10
206.102509212755
 20
13.294257570546
 30
0.0
 40
7.0
  1
東和制電工業株式会社
 50
0.016555220185
 41
1.186384129432
  7
EXCADSTD
 72
     5
 11
303.544188309143
 21
13.322412672217
 31
0.0
100
AcDbText
  0
MTEXT
  5
2A40
330
2A32
100
AcDbEntity
  8
図枠細線
100
AcDbMText
 10
6.356764112375
 20
41.976594175478
 30
0.0
 40
2.5
 41
49.938282706292
 71
     1
 72
     5
  1
{\Fmonotxt.shx,bigfont.shx|c128;図暦　CHANGE　NOTICE}
  0
MTEXT
  5
2A41
330
2A32
100
AcDbEntity
  8
図枠細線
 48
10.0
100
AcDbMText
 10
306.544114926828
 20
41.701835800934
 30
0.0
 40
2.5
 41
28.002809618823
 71
     1
 72
     5
  1
{\Fmonotxt.shx,bigfont.shx|c128;名称　TITLE}
  0
MTEXT
  5
2A42
330
2A32
100
AcDbEntity
  8
図枠細線
 48
10.0
100
AcDbMText
 10
307.329617114284
 20
21.606206797226
 30
0.0
 40
2.5
 41
24.385612216707
 71
     1
 72
     5
  1
{\Fmonotxt.shx,bigfont.shx|c128;図面番号\PDRG.　No.}
  0
MTEXT
  5
2A43
330
2A32
100
AcDbEntity
  8
図枠細線
 48
10.0
100
AcDbMText
 10
173.726349404609
 20
21.73680662198
 30
0.0
 40
2.5
 41
25.735090160813
 71
     1
 72
     5
  1
{\Fmonotxt.shx,bigfont.shx|c128;日付 DATE}
  0
MTEXT
  5
2A44
330
2A32
100
AcDbEntity
  8
図枠細線
 48
10.0
100
AcDbMText
 10
173.48708833982
 20
41.621592044998
 30
0.0
 40
2.5
 41
24.983741184205
 71
     1
 72
     5
  1
{\Fmonotxt.shx,bigfont.shx|c128;製図　DRAWN}
  0
MTEXT
  5
2A45
330
2A32
100
AcDbEntity
  8
図枠細線
 48
10.0
100
AcDbMText
 10
139.28009927741
 20
21.866713069868
 30
0.0
 40
2.5
 41
22.629632913243
 71
     1
 72
     5
  1
{\Fmonotxt.shx,bigfont.shx|c128;尺度　SCALE}
  0
MTEXT
  5
2A46
330
2A32
100
AcDbEntity
  8
図枠細線
 48
10.0
100
AcDbMText
 10
139.910091179835
 20
41.311840415554
 30
0.0
 40
2.5
 41
28.998753428368
 71
     1
 72
     5
  1
{\Fmonotxt.shx,bigfont.shx|c128;検図  CHECKED}
  0
MTEXT
  5
2A47
330
2A32
100
AcDbEntity
  8
図枠細線
 48
10.0
100
AcDbMText
 10
114.253294667728
 20
21.916124850174
 30
0.0
 40
3.0
 41
19.692400475383
 71
     1
 72
     5
  1
{\Fmonotxt.shx,bigfont.shx|c128;第三角法}
  0
MTEXT
  5
2A48
330
2A32
100
AcDbEntity
  8
図枠細線
 48
10.0
100
AcDbMText
 10
108.986959929915
 20
15.282880185837
 30
0.0
 40
2.5
 41
27.954882823547
 71
     1
 72
     5
  1
{\Fmonotxt.shx,bigfont.shx|c128;THIRD ANGLE\PPROJECTION}
  0
MTEXT
  5
2A49
330
2A32
100
AcDbEntity
  8
図枠細線
 48
10.0
100
AcDbMText
 10
106.319432640184
 20
41.511437145487
 30
0.0
 40
2.5
 41
28.233595265074
 71
     1
 72
     5
  1
{\Fmonotxt.shx,bigfont.shx|c128;承認 APPROVED}
  0
LINE
  5
2A4A
330
2A32
100
AcDbEntity
  8
図枠太線
  6
CONTINUOUS
 62
   251
100
AcDbLine
 10
5.098414535793
 20
3.525959753527
 30
0.0
 11
405.098414535793
 21
3.525959753527
 31
0.0
  0
LINE
  5
2A4B
330
2A32
100
AcDbEntity
  8
図枠太線
 48
10.0
100
AcDbLine
 10
5.098414535793
 20
3.525959753527
 30
0.0
 11
5.098414535793
 21
43.525959753527
 31
0.0
  0
LINE
  5
2A4C
330
2A32
100
AcDbEntity
  8
図枠太線
  6
CONTINUOUS
 62
   251
100
AcDbLine
 10
105.098414535793
 20
3.525959753527
 30
0.0
 11
105.098414535793
 21
43.525959753527
 31
0.0
  0
LINE
  5
2A4D
330
2A32
100
AcDbEntity
  8
図枠細線
  6
CONTINUOUS
 62
   252
100
AcDbLine
 10
138.398414535793
 20
3.525959753527
 30
0.0
 11
138.398414535793
 21
18.525957753527
 31
0.0
  0
LINE
  5
2A4E
330
2A32
100
AcDbEntity
  8
図枠細線
  6
CONTINUOUS
 62
   252
100
AcDbLine
 10
171.698414535793
 20
3.525959753527
 30
0.0
 11
171.698414535793
 21
18.525957753527
 31
0.0
  0
LINE
  5
2A4F
330
2A32
100
AcDbEntity
  8
図枠太線
  6
CONTINUOUS
 62
   251
100
AcDbLine
 10
205.098414535793
 20
3.525959753527
 30
0.0
 11
205.098414535793
 21
43.525959753527
 31
0.0
  0
LINE
  5
2A50
330
2A32
100
AcDbEntity
  8
図枠太線
 48
10.0
100
AcDbLine
 10
405.098414535793
 20
43.525959753527
 30
0.0
 11
405.098414535793
 21
3.525959753527
 31
0.0
  0
TEXT
  5
2A51
330
2A32
100
AcDbEntity
  8
図枠細線
  6
CONTINUOUS
 62
   252
100
AcDbText
 10
208.519754474572
 20
6.482358407285
 30
0.0
 40
3.5
  1
ＴＯＷＡ　ＳＥＩＤＥＮ　ＩＮＤＵＳＴＲＩＡＬ　ＣＯ．，ＬＴＤ．
 41
0.746656297509
  7
EXCADSTD
 72
     5
 11
303.295327171727
 21
6.482358407285
 31
0.0
100
AcDbText
  0
LINE
  5
2A52
330
2A32
100
AcDbEntity
  8
図枠太線
  6
CONTINUOUS
 62
   251
100
AcDbLine
 10
305.098414535793
 20
3.525959753527
 30
0.0
 11
305.098414535793
 21
43.525959753527
 31
0.0
  0
ENDBLK
  5
2A53
330
2A32
100
AcDbEntity
  8
0
100
AcDbBlockEnd
  0
BLOCK
  5
2A6D
330
2A6C
100
AcDbEntity
  8
0
100
AcDbBlockBegin
  2
A3縦用_タイトル
 70
     0
 10
0.0
 20
0.0
 30
0.0
  3
A3縦用_タイトル
  1

  0
MTEXT
  5
2A6E
330
2A6C
100
AcDbEntity
  8
図枠細線
100
AcDbMText
 10
5.040804501593
 20
31.626098649005
 30
0.0
 40
2.5
 41
49.938282706292
 71
     1
 72
     5
  1
{\Fmonotxt.shx,bigfont.shx|c128;図暦　CHANGE　NOTICE}
  0
LINE
  5
2A6F
330
2A6C
100
AcDbEntity
  8
図枠太線
  6
CONTINUOUS
 62
   251
100
AcDbLine
 10
283.577871882961
 20
2.820844689254
 30
0.0
 11
283.577871882961
 21
32.820842689254
 31
0.0
  0
MTEXT
  5
2A70
330
2A6C
100
AcDbEntity
  8
図枠細線
 48
10.0
100
AcDbMText
 10
214.912458947454
 20
31.621488632308
 30
0.0
 40
2.5
 41
28.002809618823
 71
     1
 72
     5
  1
{\Fmonotxt.shx,bigfont.shx|c128;名称　TITLE}
  0
MTEXT
  5
2A71
330
2A6C
100
AcDbEntity
  8
図枠細線
 48
10.0
100
AcDbMText
 10
214.740030458938
 20
16.310225796722
 30
0.0
 40
2.5
 41
24.385612216707
 71
     1
 72
     5
  1
{\Fmonotxt.shx,bigfont.shx|c128;図面番号\PDRG.　No.}
  0
LINE
  5
2A72
330
2A6C
100
AcDbEntity
  8
図枠太線
  6
CONTINUOUS
 62
   251
100
AcDbLine
 10
213.577871882961
 20
2.820844689254
 30
0.0
 11
213.577871882961
 21
32.820842689254
 31
0.0
  0
LINE
  5
2A73
330
2A6C
100
AcDbEntity
  8
図枠太線
  6
CONTINUOUS
 62
   251
100
AcDbLine
 10
143.577871882961
 20
2.820844689254
 30
0.0
 11
143.577871882961
 21
32.820842689254
 31
0.0
  0
TEXT
  5
2A74
330
2A6C
100
AcDbEntity
  8
図枠細線
  6
CONTINUOUS
 62
   252
100
AcDbText
 10
145.716454488093
 20
4.468335689254
 30
0.0
 40
3.5
  1
ＴＯＷＡ　ＳＥＩＤＥＮ　ＩＮＤＵＳＴＲＩＡＬ　ＣＯ．，ＬＴＤ．
 41
0.528937826907
  7
EXCADSTD
 72
     5
 11
212.856295983498
 21
4.468335689254
 31
0.0
100
AcDbText
  0
TEXT
  5
2A75
330
2A6C
100
AcDbEntity
  8
図枠ロゴマーク
  6
CONTINUOUS
 62
   253
100
AcDbText
 10
145.950637593507
 20
9.413236689254
 30
0.0
 40
7.0
  1
東和制電工業株式会社
 41
0.80361088462
  7
EXCADSTD
 72
     5
 11
211.953878250259
 21
9.413236689254
 31
0.0
100
AcDbText
  0
LINE
  5
2A76
330
2A6C
100
AcDbEntity
  8
図枠細線
  6
CONTINUOUS
 62
   252
100
AcDbLine
 10
143.577871882961
 20
25.320842689254
 30
0.0
 11
213.577871882961
 21
25.320842689254
 31
0.0
  0
LINE
  5
2A77
330
2A6C
100
AcDbEntity
  8
図枠太線
  6
CONTINUOUS
 62
   251
100
AcDbLine
 10
143.577863882961
 20
17.820842689254
 30
0.0
 11
213.577871882961
 21
17.820842689254
 31
0.0
  0
LINE
  5
2A78
330
2A6C
100
AcDbEntity
  8
図枠細線
  6
CONTINUOUS
 62
   252
100
AcDbLine
 10
213.577871882961
 20
17.820842689254
 30
0.0
 11
283.577871882961
 21
17.820842689254
 31
0.0
  0
LINE
  5
2A79
330
2A6C
100
AcDbEntity
  8
図枠細線
  6
CONTINUOUS
 62
   252
100
AcDbLine
 10
120.577871882961
 20
32.820842689254
 30
0.0
 11
120.577871882961
 21
17.820842689254
 31
0.0
  0
MTEXT
  5
2A7A
330
2A6C
100
AcDbEntity
  8
図枠細線
 48
10.0
100
AcDbMText
 10
121.100885670352
 20
16.33785922638
 30
0.0
 40
2.0
 41
17.705978285068
 71
     1
 72
     5
  1
{\Fmonotxt.shx,bigfont.shx|c128;日付 DATE}
  0
MTEXT
  5
2A7B
330
2A6C
100
AcDbEntity
  8
図枠細線
 48
10.0
100
AcDbMText
 10
121.254842273491
 20
31.208993514037
 30
0.0
 40
2.0
 41
18.363799568758
 71
     1
 72
     5
  1
{\Fmonotxt.shx,bigfont.shx|c128;製図　DRAWN}
  0
LINE
  5
2A7C
330
2A6C
100
AcDbEntity
  8
図枠細線
  6
CONTINUOUS
 62
   252
100
AcDbLine
 10
97.577871882961
 20
32.820842689254
 30
0.0
 11
97.577871882961
 21
17.820842689254
 31
0.0
  0
MTEXT
  5
2A7D
330
2A6C
100
AcDbEntity
  8
図枠細線
 48
10.0
100
AcDbMText
 10
98.239734796872
 20
16.467764839281
 30
0.0
 40
2.0
 41
17.757791689903
 71
     1
 72
     5
  1
{\Fmonotxt.shx,bigfont.shx|c128;尺度　SCALE}
  0
MTEXT
  5
2A7E
330
2A6C
100
AcDbEntity
  8
図枠細線
 48
10.0
100
AcDbMText
 10
97.864744625154
 20
31.298433377664
 30
0.0
 40
2.0
 41
23.162655920976
 71
     1
 72
     5
  1
{\Fmonotxt.shx,bigfont.shx|c128;検図  CHECKED}
  0
LINE
  5
2A7F
330
2A6C
100
AcDbEntity
  8
図枠細線
  6
CONTINUOUS
 62
   252
100
AcDbLine
 10
97.577871882961
 20
2.820843367826
 30
0.0
 11
97.577871882961
 21
17.820841367826
 31
0.0
  0
LINE
  5
2A80
330
2A6C
100
AcDbEntity
  8
図枠細線
  6
CONTINUOUS
 62
   252
100
AcDbLine
 10
120.577871882961
 20
2.820844010683
 30
0.0
 11
120.577871882961
 21
17.820842010683
 31
0.0
  0
MTEXT
  5
2A81
330
2A6C
100
AcDbEntity
  8
図枠細線
 48
10.0
100
AcDbMText
 10
81.402399084102
 20
16.316484117426
 30
0.0
 40
2.0
 41
12.920322819369
 71
     1
 72
     5
  1
{\Fmonotxt.shx,bigfont.shx|c128;第三角法}
  0
MTEXT
  5
2A82
330
2A6C
100
AcDbEntity
  8
図枠細線
 48
10.0
100
AcDbMText
 10
75.736576535096
 20
11.080410931319
 30
0.0
 40
2.0
 41
21.072870671471
 71
     1
 72
     5
  1
{\Fmonotxt.shx,bigfont.shx|c128;THIRD ANGLE\PPROJECTION}
  0
LINE
  5
2A83
330
2A6C
100
AcDbEntity
  8
図枠太線
  6
CONTINUOUS
 62
   251
100
AcDbLine
 10
74.577871882961
 20
2.820844689254
 30
0.0
 11
74.577871882961
 21
32.820842689254
 31
0.0
  0
MTEXT
  5
2A84
330
2A6C
100
AcDbEntity
  8
図枠細線
 48
10.0
100
AcDbMText
 10
75.060214781573
 20
31.298434778555
 30
0.0
 40
2.0
 41
22.240928805967
 71
     1
 72
     5
  1
{\Fmonotxt.shx,bigfont.shx|c128;承認 APPROVED}
  0
LINE
  5
2A85
330
2A6C
100
AcDbEntity
  8
図枠細線
  6
CONTINUOUS
100
AcDbLine
 10
3.577871882961
 20
17.820844689254
 30
0.0
 11
74.577871882961
 21
17.820844689254
 31
0.0
  0
LINE
  5
2A86
330
2A6C
100
AcDbEntity
  8
図枠細線
  6
CONTINUOUS
 62
   252
100
AcDbLine
 10
3.577871882961
 20
27.820842689254
 30
0.0
 11
74.577871882961
 21
27.820842689254
 31
0.0
  0
LINE
  5
2A87
330
2A6C
100
AcDbEntity
  8
図枠細線
  6
CONTINUOUS
 62
   252
100
AcDbLine
 10
3.577871882961
 20
22.820842689254
 30
0.0
 11
74.577871882961
 21
22.820842689254
 31
0.0
  0
LINE
  5
2A88
330
2A6C
100
AcDbEntity
  8
図枠細線
  6
CONTINUOUS
 62
   252
100
AcDbLine
 10
3.577871882961
 20
12.820842689254
 30
0.0
 11
74.577871882961
 21
12.820842689254
 31
0.0
  0
LINE
  5
2A89
330
2A6C
100
AcDbEntity
  8
図枠細線
  6
CONTINUOUS
 62
   252
100
AcDbLine
 10
3.577871882961
 20
7.820844689254
 30
0.0
 11
74.577871882961
 21
7.820844689254
 31
0.0
  0
LINE
  5
2A8A
330
2A6C
100
AcDbEntity
  8
図枠細線
  6
CONTINUOUS
100
AcDbLine
 10
74.577871882961
 20
17.820843689254
 30
0.0
 11
143.577871882961
 21
17.820841224969
 31
0.0
  0
LINE
  5
2A8B
330
2A6C
100
AcDbEntity
  8
図枠太線
  6
CONTINUOUS
 62
   251
100
AcDbLine
 10
3.577871882961
 20
2.820844689254
 30
0.0
 11
283.577871882961
 21
2.820844689254
 31
0.0
  0
LINE
  5
2A8C
330
2A6C
100
AcDbEntity
  8
図枠太線
  6
CONTINUOUS
 62
   251
100
AcDbLine
 10
3.577871882961
 20
2.820844689254
 30
0.0
 11
3.577871882961
 21
32.820842689254
 31
0.0
  0
ENDBLK
  5
2A8D
330
2A6C
100
AcDbEntity
  8
0
100
AcDbBlockEnd
  0
BLOCK
  5
2AF8
330
2AF4
100
AcDbEntity
  8
0
 48
10.0
100
AcDbBlockBegin
  2
_OPEN30
 70
     0
 10
0.0
 20
0.0
 30
0.0
  3
_OPEN30
  1

  0
LINE
  5
2AF5
330
2AF4
100
AcDbEntity
  8
0
  6
BYBLOCK
 62
     0
100
AcDbLine
 10
-1.0
 20
0.26794919
 30
0.0
 11
0.0
 21
0.0
 31
0.0
  0
LINE
  5
2AF6
330
2AF4
100
AcDbEntity
  8
0
  6
BYBLOCK
 62
     0
100
AcDbLine
 10
0.0
 20
0.0
 30
0.0
 11
-1.0
 21
-0.26794919
 31
0.0
  0
LINE
  5
2AF7
330
2AF4
100
AcDbEntity
  8
0
  6
BYBLOCK
 62
     0
100
AcDbLine
 10
0.0
 20
0.0
 30
0.0
 11
-1.0
 21
0.0
 31
0.0
  0
ENDBLK
  5
2AF9
330
2AF4
100
AcDbEntity
  8
0
 48
10.0
100
AcDbBlockEnd
  0
BLOCK
  5
4548
330
4547
100
AcDbEntity
  8
0
 48
10.0
100
AcDbBlockBegin
  2
_DOTSMALL
 70
     0
 10
0.0
 20
0.0
 30
0.0
  3
_DOTSMALL
  1

  0
LWPOLYLINE
  5
4549
330
4547
100
AcDbEntity
  8
0
  6
BYBLOCK
 62
     0
100
AcDbPolyline
 90
        2
 70
     1
 43
0.5
 10
-0.0625
 20
0.0
 42
1.0
 10
0.0625
 20
0.0
 42
1.0
  0
ENDBLK
  5
454A
330
4547
100
AcDbEntity
  8
0
 48
10.0
100
AcDbBlockEnd
  0
BLOCK
  5
460F
330
4605
100
AcDbEntity
  8
0
 48
10.0
100
AcDbBlockBegin
  2
*D9
 70
     1
 10
0.0
 20
0.0
 30
0.0
  3
*D9
  1

  0
LINE
  5
4BFF
330
4605
100
AcDbEntity
  8
寸法線
 62
     0
 48
10.0
100
AcDbLine
 10
61.390045212736
 20
375.863174213246
 30
0.0
 11
61.390045212736
 21
288.732705002981
 31
0.0
  0
LINE
  5
4C00
330
4605
100
AcDbEntity
  8
寸法線
 62
     0
 48
10.0
100
AcDbLine
 10
161.390045212736
 20
374.863174213246
 30
0.0
 11
161.390045212736
 21
288.732705002981
 31
0.0
  0
LINE
  5
4C01
330
4605
100
AcDbEntity
  8
寸法線
 62
     0
 48
10.0
100
AcDbLine
 10
67.390045212736
 20
289.982705002981
 30
0.0
 11
155.390045212736
 21
289.982705002981
 31
0.0
  0
INSERT
  5
4C02
330
4605
100
AcDbEntity
  8
寸法線
 62
     0
100
AcDbBlockReference
  2
_OPEN30
 10
61.390045212736
 20
289.982705002981
 30
0.0
 41
6.0
 42
6.0
 43
6.0
 50
180.0
  0
INSERT
  5
4C03
330
4605
100
AcDbEntity
  8
寸法線
 62
     0
100
AcDbBlockReference
  2
_OPEN30
 10
161.390045212736
 20
289.982705002981
 30
0.0
 41
6.0
 42
6.0
 43
6.0
  0
POINT
  5
4C04
330
4605
100
AcDbEntity
  8
DEFPOINTS
 62
     0
100
AcDbPoint
 10
61.390045212736
 20
376.488174213246
 30
0.0
  0
POINT
  5
4C05
330
4605
100
AcDbEntity
  8
DEFPOINTS
 62
     0
100
AcDbPoint
 10
161.390045212736
 20
375.488174213246
 30
0.0
  0
POINT
  5
4C06
330
4605
100
AcDbEntity
  8
DEFPOINTS
 62
     0
100
AcDbPoint
 10
161.390045212736
 20
289.982705002981
 30
0.0
  0
ENDBLK
  5
4610
330
4605
100
AcDbEntity
  8
0
 48
10.0
100
AcDbBlockEnd
  0
BLOCK
  5
461C
330
4612
100
AcDbEntity
  8
0
 48
10.0
100
AcDbBlockBegin
  2
*D10
 70
     1
 10
0.0
 20
0.0
 30
0.0
  3
*D10
  1

  0
LINE
  5
4BF6
330
4612
100
AcDbEntity
  8
寸法線
 62
     0
 48
10.0
100
AcDbLine
 10
161.390045212736
 20
374.863174213246
 30
0.0
 11
161.390045212736
 21
288.732705002981
 31
0.0
  0
LINE
  5
4BF7
330
4612
100
AcDbEntity
  8
寸法線
 62
     0
 48
10.0
100
AcDbLine
 10
211.390045212736
 20
374.863174213246
 30
0.0
 11
211.390045212736
 21
288.732705002981
 31
0.0
  0
LINE
  5
4BF8
330
4612
100
AcDbEntity
  8
寸法線
 62
     0
 48
10.0
100
AcDbLine
 10
167.390045212736
 20
289.982705002981
 30
0.0
 11
205.390045212736
 21
289.982705002981
 31
0.0
  0
INSERT
  5
4BF9
330
4612
100
AcDbEntity
  8
寸法線
 62
     0
100
AcDbBlockReference
  2
_OPEN30
 10
161.390045212736
 20
289.982705002981
 30
0.0
 41
6.0
 42
6.0
 43
6.0
 50
180.0
  0
INSERT
  5
4BFA
330
4612
100
AcDbEntity
  8
寸法線
 62
     0
100
AcDbBlockReference
  2
_OPEN30
 10
211.390045212736
 20
289.982705002981
 30
0.0
 41
6.0
 42
6.0
 43
6.0
  0
POINT
  5
4BFB
330
4612
100
AcDbEntity
  8
DEFPOINTS
 62
     0
100
AcDbPoint
 10
161.390045212736
 20
375.488174213246
 30
0.0
  0
POINT
  5
4BFC
330
4612
100
AcDbEntity
  8
DEFPOINTS
 62
     0
100
AcDbPoint
 10
211.390045212736
 20
375.488174213246
 30
0.0
  0
POINT
  5
4BFD
330
4612
100
AcDbEntity
  8
DEFPOINTS
 62
     0
100
AcDbPoint
 10
211.390045212736
 20
289.982705002981
 30
0.0
  0
ENDBLK
  5
461D
330
4612
100
AcDbEntity
  8
0
 48
10.0
100
AcDbBlockEnd
  0
BLOCK
  5
4629
330
461F
100
AcDbEntity
  8
0
 48
10.0
100
AcDbBlockBegin
  2
*D11
 70
     1
 10
0.0
 20
0.0
 30
0.0
  3
*D11
  1

  0
LINE
  5
4BED
330
461F
100
AcDbEntity
  8
寸法線
 62
     0
 48
10.0
100
AcDbLine
 10
211.390045212736
 20
374.863174213246
 30
0.0
 11
211.390045212736
 21
288.732705002981
 31
0.0
  0
LINE
  5
4BEE
330
461F
100
AcDbEntity
  8
寸法線
 62
     0
 48
10.0
100
AcDbLine
 10
311.390045212736
 20
367.613674213246
 30
0.0
 11
311.390045212736
 21
288.732705002981
 31
0.0
  0
LINE
  5
4BEF
330
461F
100
AcDbEntity
  8
寸法線
 62
     0
 48
10.0
100
AcDbLine
 10
217.390045212736
 20
289.982705002981
 30
0.0
 11
305.390045212736
 21
289.982705002981
 31
0.0
  0
INSERT
  5
4BF0
330
461F
100
AcDbEntity
  8
寸法線
 62
     0
100
AcDbBlockReference
  2
_OPEN30
 10
211.390045212736
 20
289.982705002981
 30
0.0
 41
6.0
 42
6.0
 43
6.0
 50
180.0
  0
INSERT
  5
4BF1
330
461F
100
AcDbEntity
  8
寸法線
 62
     0
100
AcDbBlockReference
  2
_OPEN30
 10
311.390045212736
 20
289.982705002981
 30
0.0
 41
6.0
 42
6.0
 43
6.0
  0
POINT
  5
4BF2
330
461F
100
AcDbEntity
  8
DEFPOINTS
 62
     0
100
AcDbPoint
 10
211.390045212736
 20
375.488174213246
 30
0.0
  0
POINT
  5
4BF3
330
461F
100
AcDbEntity
  8
DEFPOINTS
 62
     0
100
AcDbPoint
 10
311.390045212736
 20
368.238674213246
 30
0.0
  0
POINT
  5
4BF4
330
461F
100
AcDbEntity
  8
DEFPOINTS
 62
     0
100
AcDbPoint
 10
311.390045212736
 20
289.982705002981
 30
0.0
  0
ENDBLK
  5
462A
330
461F
100
AcDbEntity
  8
0
 48
10.0
100
AcDbBlockEnd
  0
BLOCK
  5
4636
330
462C
100
AcDbEntity
  8
0
 48
10.0
100
AcDbBlockBegin
  2
*D12
 70
     1
 10
0.0
 20
0.0
 30
0.0
  3
*D12
  1

  0
LINE
  5
4BE4
330
462C
100
AcDbEntity
  8
寸法線
 62
     0
 48
10.0
100
AcDbLine
 10
61.390045212736
 20
375.863174213246
 30
0.0
 11
61.390045212736
 21
268.732705002981
 31
0.0
  0
LINE
  5
4BE5
330
462C
100
AcDbEntity
  8
寸法線
 62
     0
 48
10.0
100
AcDbLine
 10
311.390045212736
 20
367.613674213246
 30
0.0
 11
311.390045212736
 21
268.732705002981
 31
0.0
  0
LINE
  5
4BE6
330
462C
100
AcDbEntity
  8
寸法線
 62
     0
 48
10.0
100
AcDbLine
 10
67.390045212736
 20
269.982705002981
 30
0.0
 11
305.390045212736
 21
269.982705002981
 31
0.0
  0
INSERT
  5
4BE7
330
462C
100
AcDbEntity
  8
寸法線
 62
     0
100
AcDbBlockReference
  2
_OPEN30
 10
61.390045212736
 20
269.982705002981
 30
0.0
 41
6.0
 42
6.0
 43
6.0
 50
180.0
  0
INSERT
  5
4BE8
330
462C
100
AcDbEntity
  8
寸法線
 62
     0
100
AcDbBlockReference
  2
_OPEN30
 10
311.390045212736
 20
269.982705002981
 30
0.0
 41
6.0
 42
6.0
 43
6.0
  0
POINT
  5
4BE9
330
462C
100
AcDbEntity
  8
DEFPOINTS
 62
     0
100
AcDbPoint
 10
61.390045212736
 20
376.488174213246
 30
0.0
  0
POINT
  5
4BEA
330
462C
100
AcDbEntity
  8
DEFPOINTS
 62
     0
100
AcDbPoint
 10
311.390045212736
 20
368.238674213246
 30
0.0
  0
POINT
  5
4BEB
330
462C
100
AcDbEntity
  8
DEFPOINTS
 62
     0
100
AcDbPoint
 10
311.390045212736
 20
269.982705002981
 30
0.0
  0
ENDBLK
  5
4637
330
462C
100
AcDbEntity
  8
0
 48
10.0
100
AcDbBlockEnd
  0
BLOCK
  5
48DF
330
48D5
100
AcDbEntity
  8
0
 48
10.0
100
AcDbBlockBegin
  2
*D13
 70
     1
 10
0.0
 20
0.0
 30
0.0
  3
*D13
  1

  0
LINE
  5
4BDB
330
48D5
100
AcDbEntity
  8
寸法線
 62
     0
 48
10.0
100
AcDbLine
 10
311.390045212736
 20
367.613674213246
 30
0.0
 11
311.390045212736
 21
288.732705002981
 31
0.0
  0
LINE
  5
4BDC
330
48D5
100
AcDbEntity
  8
寸法線
 62
     0
 48
10.0
100
AcDbLine
 10
371.390045212736
 20
363.422484444974
 30
0.0
 11
371.390045212736
 21
288.732705002981
 31
0.0
  0
LINE
  5
4BDD
330
48D5
100
AcDbEntity
  8
寸法線
 62
     0
 48
10.0
100
AcDbLine
 10
317.390045212736
 20
289.982705002981
 30
0.0
 11
365.390045212736
 21
289.982705002981
 31
0.0
  0
INSERT
  5
4BDE
330
48D5
100
AcDbEntity
  8
寸法線
 62
     0
100
AcDbBlockReference
  2
_OPEN30
 10
311.390045212736
 20
289.982705002981
 30
0.0
 41
6.0
 42
6.0
 43
6.0
 50
180.0
  0
INSERT
  5
4BDF
330
48D5
100
AcDbEntity
  8
寸法線
 62
     0
100
AcDbBlockReference
  2
_OPEN30
 10
371.390045212736
 20
289.982705002981
 30
0.0
 41
6.0
 42
6.0
 43
6.0
  0
MTEXT
  5
4BE0
330
48D5
100
AcDbEntity
  8
寸法線
 62
     0
 48
10.0
100
AcDbMText
 10
341.390045212736
 20
294.607705002981
 30
0.0
 40
8.0
 41
0.0
 71
     5
 72
     1
  1
\A1;60
  0
POINT
  5
4BE1
330
48D5
100
AcDbEntity
  8
DEFPOINTS
 62
     0
100
AcDbPoint
 10
311.390045212736
 20
368.238674213246
 30
0.0
  0
POINT
  5
4BE2
330
48D5
100
AcDbEntity
  8
DEFPOINTS
 62
     0
100
AcDbPoint
 10
371.390045212736
 20
364.047484444974
 30
0.0
  0
POINT
  5
4BE3
330
48D5
100
AcDbEntity
  8
DEFPOINTS
 62
     0
100
AcDbPoint
 10
371.390045212736
 20
289.982705002981
 30
0.0
  0
ENDBLK
  5
48E0
330
48D5
100
AcDbEntity
  8
0
 48
10.0
100
AcDbBlockEnd
  0
BLOCK
  5
48EC
330
48E2
100
AcDbEntity
  8
0
 48
10.0
100
AcDbBlockBegin
  2
*D14
 70
     1
 10
0.0
 20
0.0
 30
0.0
  3
*D14
  1

  0
LINE
  5
4BD2
330
48E2
100
AcDbEntity
  8
寸法線
 62
     0
 48
10.0
100
AcDbLine
 10
371.390045212736
 20
363.422484444974
 30
0.0
 11
371.390045212736
 21
288.732705002981
 31
0.0
  0
LINE
  5
4BD3
330
48E2
100
AcDbEntity
  8
寸法線
 62
     0
 48
10.0
100
AcDbLine
 10
459.890045212736
 20
319.862484444974
 30
0.0
 11
459.890045212736
 21
288.732705002981
 31
0.0
  0
LINE
  5
4BD4
330
48E2
100
AcDbEntity
  8
寸法線
 62
     0
 48
10.0
100
AcDbLine
 10
377.390045212736
 20
289.982705002981
 30
0.0
 11
453.890045212736
 21
289.982705002981
 31
0.0
  0
INSERT
  5
4BD5
330
48E2
100
AcDbEntity
  8
寸法線
 62
     0
100
AcDbBlockReference
  2
_OPEN30
 10
371.390045212736
 20
289.982705002981
 30
0.0
 41
6.0
 42
6.0
 43
6.0
 50
180.0
  0
INSERT
  5
4BD6
330
48E2
100
AcDbEntity
  8
寸法線
 62
     0
100
AcDbBlockReference
  2
_OPEN30
 10
459.890045212736
 20
289.982705002981
 30
0.0
 41
6.0
 42
6.0
 43
6.0
  0
MTEXT
  5
4BD7
330
48E2
100
AcDbEntity
  8
寸法線
 62
     0
 48
10.0
100
AcDbMText
 10
415.640045212736
 20
294.624371669647
 30
0.0
 40
8.0
 41
0.0
 71
     5
 72
     1
  1
\A1;88
  0
POINT
  5
4BD8
330
48E2
100
AcDbEntity
  8
DEFPOINTS
 62
     0
100
AcDbPoint
 10
371.390045212736
 20
364.047484444974
 30
0.0
  0
POINT
  5
4BD9
330
48E2
100
AcDbEntity
  8
DEFPOINTS
 62
     0
100
AcDbPoint
 10
459.890045212736
 20
320.487484444974
 30
0.0
  0
POINT
  5
4BDA
330
48E2
100
AcDbEntity
  8
DEFPOINTS
 62
     0
100
AcDbPoint
 10
459.890045212736
 20
289.982705002981
 30
0.0
  0
ENDBLK
  5
48ED
330
48E2
100
AcDbEntity
  8
0
 48
10.0
100
AcDbBlockEnd
  0
BLOCK
  5
48F9
330
48EF
100
AcDbEntity
  8
0
 48
10.0
100
AcDbBlockBegin
  2
*D15
 70
     1
 10
0.0
 20
0.0
 30
0.0
  3
*D15
  1

  0
LINE
  5
4BC9
330
48EF
100
AcDbEntity
  8
寸法線
 62
     0
 48
10.0
100
AcDbLine
 10
311.390045212736
 20
367.613674213246
 30
0.0
 11
311.390045212736
 21
268.732705002981
 31
0.0
  0
LINE
  5
4BCA
330
48EF
100
AcDbEntity
  8
寸法線
 62
     0
 48
10.0
100
AcDbLine
 10
489.390045212736
 20
289.357705002981
 30
0.0
 11
489.390045212736
 21
268.732705002981
 31
0.0
  0
LINE
  5
4BCB
330
48EF
100
AcDbEntity
  8
寸法線
 62
     0
 48
10.0
100
AcDbLine
 10
317.390045212736
 20
269.982705002981
 30
0.0
 11
483.390045212736
 21
269.982705002981
 31
0.0
  0
INSERT
  5
4BCC
330
48EF
100
AcDbEntity
  8
寸法線
 62
     0
100
AcDbBlockReference
  2
_OPEN30
 10
311.390045212736
 20
269.982705002981
 30
0.0
 41
6.0
 42
6.0
 43
6.0
 50
180.0
  0
INSERT
  5
4BCD
330
48EF
100
AcDbEntity
  8
寸法線
 62
     0
100
AcDbBlockReference
  2
_OPEN30
 10
489.390045212736
 20
269.982705002981
 30
0.0
 41
6.0
 42
6.0
 43
6.0
  0
MTEXT
  5
4BCE
330
48EF
100
AcDbEntity
  8
寸法線
 62
     0
 48
10.0
100
AcDbMText
 10
400.390045212736
 20
274.616038336314
 30
0.0
 40
8.0
 41
0.0
 71
     5
 72
     1
  1
\A1;178
  0
POINT
  5
4BCF
330
48EF
100
AcDbEntity
  8
DEFPOINTS
 62
     0
100
AcDbPoint
 10
311.390045212736
 20
368.238674213246
 30
0.0
  0
POINT
  5
4BD0
330
48EF
100
AcDbEntity
  8
DEFPOINTS
 62
     0
100
AcDbPoint
 10
489.390045212736
 20
289.982705002981
 30
0.0
  0
POINT
  5
4BD1
330
48EF
100
AcDbEntity
  8
DEFPOINTS
 62
     0
100
AcDbPoint
 10
489.390045212736
 20
269.982705002981
 30
0.0
  0
ENDBLK
  5
48FA
330
48EF
100
AcDbEntity
  8
0
 48
10.0
100
AcDbBlockEnd
  0
BLOCK
  5
4906
330
48FC
100
AcDbEntity
  8
0
 48
10.0
100
AcDbBlockBegin
  2
*D16
 70
     1
 10
0.0
 20
0.0
 30
0.0
  3
*D16
  1

  0
LINE
  5
4BC0
330
48FC
100
AcDbEntity
  8
寸法線
 62
     0
 48
10.0
100
AcDbLine
 10
459.890045212736
 20
319.862484444974
 30
0.0
 11
459.890045212736
 21
288.732705002981
 31
0.0
  0
LINE
  5
4BC1
330
48FC
100
AcDbEntity
  8
寸法線
 62
     0
 48
10.0
100
AcDbLine
 10
489.390045212736
 20
339.136038915181
 30
0.0
 11
489.390045212736
 21
288.732705002981
 31
0.0
  0
LINE
  5
4BC2
330
48FC
100
AcDbEntity
  8
寸法線
 62
     0
 48
10.0
100
AcDbLine
 10
465.890045212736
 20
289.982705002981
 30
0.0
 11
483.390045212736
 21
289.982705002981
 31
0.0
  0
INSERT
  5
4BC3
330
48FC
100
AcDbEntity
  8
寸法線
 62
     0
100
AcDbBlockReference
  2
_OPEN30
 10
459.890045212736
 20
289.982705002981
 30
0.0
 41
6.0
 42
6.0
 43
6.0
 50
180.0
  0
INSERT
  5
4BC4
330
48FC
100
AcDbEntity
  8
寸法線
 62
     0
100
AcDbBlockReference
  2
_OPEN30
 10
489.390045212736
 20
289.982705002981
 30
0.0
 41
6.0
 42
6.0
 43
6.0
  0
MTEXT
  5
4BC5
330
48FC
100
AcDbEntity
  8
寸法線
 62
     0
 48
10.0
100
AcDbMText
 10
474.640045212736
 20
294.611871669647
 30
0.0
 40
8.0
 41
0.0
 71
     5
 72
     1
  1
\A1;30
  0
POINT
  5
4BC6
330
48FC
100
AcDbEntity
  8
DEFPOINTS
 62
     0
100
AcDbPoint
 10
459.890045212736
 20
320.487484444974
 30
0.0
  0
POINT
  5
4BC7
330
48FC
100
AcDbEntity
  8
DEFPOINTS
 62
     0
100
AcDbPoint
 10
489.390045212736
 20
339.761038915181
 30
0.0
  0
POINT
  5
4BC8
330
48FC
100
AcDbEntity
  8
DEFPOINTS
 62
     0
100
AcDbPoint
 10
489.390045212736
 20
289.982705002981
 30
0.0
  0
ENDBLK
  5
4907
330
48FC
100
AcDbEntity
  8
0
 48
10.0
100
AcDbBlockEnd
  0
BLOCK
  5
4913
330
4909
100
AcDbEntity
  8
0
 48
10.0
100
AcDbBlockBegin
  2
*D17
 70
     1
 10
0.0
 20
0.0
 30
0.0
  3
*D17
  1

  0
LINE
  5
4BB7
330
4909
100
AcDbEntity
  8
寸法線
 62
     0
 48
10.0
100
AcDbLine
 10
477.024810645657
 20
441.736856885106
 30
0.0
 11
517.024010066299
 21
441.736856885106
 31
0.0
  0
LINE
  5
4BB8
330
4909
100
AcDbEntity
  8
寸法線
 62
     0
 48
10.0
100
AcDbLine
 10
477.022732201615
 20
326.238075725467
 30
0.0
 11
517.024010066299
 21
326.238075725467
 31
0.0
  0
LINE
  5
4BB9
330
4909
100
AcDbEntity
  8
寸法線
 62
     0
 48
10.0
100
AcDbLine
 10
515.774010066299
 20
435.736856885106
 30
0.0
 11
515.774010066299
 21
332.238075725467
 31
0.0
  0
INSERT
  5
4BBA
330
4909
100
AcDbEntity
  8
寸法線
 62
     0
 48
10.0
100
AcDbBlockReference
  2
_OPEN30
 10
515.774010066299
 20
441.736856885106
 30
0.0
 41
6.0
 42
6.0
 43
6.0
 50
90.0
  0
INSERT
  5
4BBB
330
4909
100
AcDbEntity
  8
寸法線
 62
     0
 48
10.0
100
AcDbBlockReference
  2
_OPEN30
 10
515.774010066299
 20
326.238075725467
 30
0.0
 41
6.0
 42
6.0
 43
6.0
 50
270.0
  0
MTEXT
  5
4BBC
330
4909
100
AcDbEntity
  8
寸法線
 62
     0
 48
10.0
100
AcDbMText
 10
511.149010066299
 20
383.987466305287
 30
0.0
 40
8.0
 41
0.0
 71
     5
 72
     1
  1
\A1;φ116
 11
6.123031769111886E-17
 21
1.0
 31
0.0
  0
POINT
  5
4BBD
330
4909
100
AcDbEntity
  8
DEFPOINTS
 62
     0
 48
10.0
100
AcDbPoint
 10
476.399810645657
 20
441.736856885106
 30
0.0
  0
POINT
  5
4BBE
330
4909
100
AcDbEntity
  8
DEFPOINTS
 62
     0
 48
10.0
100
AcDbPoint
 10
476.397732201615
 20
326.238075725467
 30
0.0
  0
POINT
  5
4BBF
330
4909
100
AcDbEntity
  8
DEFPOINTS
 62
     0
 48
10.0
100
AcDbPoint
 10
515.774010066299
 20
326.238075725467
 30
0.0
  0
ENDBLK
  5
4914
330
4909
100
AcDbEntity
  8
0
 48
10.0
100
AcDbBlockEnd
  0
BLOCK
  5
4920
330
491F
100
AcDbEntity
  8
0
 48
10.0
100
AcDbBlockBegin
  2
静電容量センサ
 70
     0
 10
0.0
 20
0.0
 30
0.0
  3
静電容量センサ
  1

  0
ARC
  5
4921
330
491F
100
AcDbEntity
  8
外形線
 48
10.0
100
AcDbCircle
 10
1021.898525663106
 20
1073.412780408912
 30
0.0
 40
1.0
100
AcDbArc
 50
180.0
 51
268.999999999998
  0
ARC
  5
4922
330
491F
100
AcDbEntity
  8
外形線
 48
10.0
100
AcDbCircle
 10
1021.898525663106
 20
1115.960781516243
 30
0.0
 40
1.0
100
AcDbArc
 50
91.000000000002
 51
180.0
  0
LINE
  5
4923
330
491F
100
AcDbEntity
  8
外形線
 48
10.0
100
AcDbLine
 10
1020.898525663106
 20
1115.960781516243
 30
0.0
 11
1020.898525663106
 21
1073.412780408912
 31
0.0
  0
LINE
  5
4924
330
491F
100
AcDbEntity
  8
外形線
 48
10.0
100
AcDbLine
 10
1035.026308504175
 20
1117.944859066978
 30
0.0
 11
1041.278741748243
 21
1143.02199911049
 31
0.0
  0
ARC
  5
4925
330
491F
100
AcDbEntity
  8
外形線
 48
10.0
100
AcDbCircle
 10
1046.130220379623
 20
1141.812389632491
 30
0.0
 40
5.0
100
AcDbArc
 50
91.3
 51
166.000000000004
  0
ARC
  5
4926
330
491F
100
AcDbEntity
  8
外形線
 48
10.0
100
AcDbCircle
 10
1034.056012777899
 20
1118.186780962578
 30
0.0
 40
1.0
100
AcDbArc
 50
270.0
 51
346.000000000004
  0
ARC
  5
4927
330
491F
100
AcDbEntity
  8
外形線
 48
10.0
100
AcDbCircle
 10
1034.056012777899
 20
1118.186780962578
 30
0.0
 40
1.0
100
AcDbArc
 50
270.0
 51
346.000000000004
  0
LINE
  5
4928
330
491F
100
AcDbEntity
  8
外形線
 48
10.0
100
AcDbLine
 10
1021.881073256669
 20
1116.960629211399
 30
0.0
 11
1034.056012777899
 21
1117.186780962578
 31
0.0
  0
ARC
  5
4929
330
491F
100
AcDbEntity
  8
外形線
 48
10.0
100
AcDbCircle
 10
1122.899564892808
 20
1151.93622955513
 30
0.0
 40
0.5
100
AcDbArc
 50
359.999254274584
 51
88.999999999998
  0
ARC
  5
492A
330
491F
100
AcDbEntity
  8
細線
 48
10.0
100
AcDbCircle
 10
1123.898525663106
 20
1107.819822714047
 30
0.0
 40
0.5
100
AcDbArc
 50
180.0
 51
264.089361084595
  0
ARC
  5
492B
330
491F
100
AcDbEntity
  8
外形線
 48
10.0
100
AcDbCircle
 10
1123.898525663106
 20
1100.44543233102
 30
0.0
 40
0.5
100
AcDbArc
 50
91.000000000002
 51
180.0
  0
ARC
  5
492C
330
491F
100
AcDbEntity
  8
細線
 48
10.0
100
AcDbCircle
 10
1123.898525663106
 20
1108.078641759149
 30
0.0
 40
0.5
100
AcDbArc
 50
180.0
 51
264.089361084595
  0
ARC
  5
492D
330
491F
100
AcDbEntity
  8
細線
 48
10.0
100
AcDbCircle
 10
1123.898525663106
 20
1129.71320712675
 30
0.0
 40
0.5
100
AcDbArc
 50
180.0
 51
254.206830951738
  0
ARC
  5
492E
330
491F
100
AcDbEntity
  8
細線
 48
10.0
100
AcDbCircle
 10
1123.898525663106
 20
1130.420313907937
 30
0.0
 40
0.5
100
AcDbArc
 50
180.0
 51
254.206830951738
  0
ARC
  5
492F
330
491F
100
AcDbEntity
  8
細線
 48
10.0
100
AcDbCircle
 10
1123.898525663106
 20
1142.359984147006
 30
0.0
 40
0.5
100
AcDbArc
 50
180.0
 51
248.874947125989
  0
ARC
  5
4930
330
491F
100
AcDbEntity
  8
細線
 48
10.0
100
AcDbCircle
 10
1123.898525663106
 20
1143.325909973296
 30
0.0
 40
0.5
100
AcDbArc
 50
180.0
 51
248.874947125989
  0
ARC
  5
4931
330
491F
100
AcDbEntity
  8
外形線
 48
10.0
100
AcDbCircle
 10
1123.898413585187
 20
1144.632076415673
 30
0.0
 40
0.5
100
AcDbArc
 50
180.019033969455
 51
248.025023881972
  0
LINE
  5
4932
330
491F
100
AcDbEntity
  8
外形線
 48
10.0
100
AcDbLine
 10
1123.398525663106
 20
1143.325909973296
 30
0.0
 11
1123.398525663106
 21
1144.294618045039
 31
0.0
  0
LINE
  5
4933
330
491F
100
AcDbEntity
  8
外形線
 48
10.0
100
AcDbLine
 10
1123.398525663106
 20
1142.359984147006
 30
0.0
 11
1123.398525663106
 21
1142.98307227703
 31
0.0
  0
LINE
  5
4934
330
491F
100
AcDbEntity
  8
外形線
 48
10.0
100
AcDbLine
 10
1123.398525663106
 20
1130.420313907937
 30
0.0
 11
1123.398525663106
 21
1142.017146450741
 31
0.0
  0
LINE
  5
4935
330
491F
100
AcDbEntity
  8
外形線
 48
10.0
100
AcDbLine
 10
1123.398525663106
 20
1129.71320712675
 30
0.0
 11
1123.398525663106
 21
1130.042120021904
 31
0.0
  0
LINE
  5
4936
330
491F
100
AcDbEntity
  8
外形線
 48
10.0
100
AcDbLine
 10
1123.398525663106
 20
1108.078641759149
 30
0.0
 11
1123.398525663106
 21
1130.420313907937
 31
0.0
  0
LINE
  5
4937
330
491F
100
AcDbEntity
  8
外形線
 48
10.0
100
AcDbLine
 10
1123.398525663106
 20
1107.819822714047
 30
0.0
 11
1123.398525663106
 21
1108.700149198143
 31
0.0
  0
LINE
  5
4938
330
491F
100
AcDbEntity
  8
外形線
 48
10.0
100
AcDbLine
 10
1123.398525663106
 20
1100.44543233102
 30
0.0
 11
1123.398525663106
 21
1108.078641759149
 31
0.0
  0
ARC
  5
4939
330
491F
100
AcDbEntity
  8
外形線
 48
10.0
100
AcDbCircle
 10
1123.898525663106
 20
1088.928129594135
 30
0.0
 40
0.5
100
AcDbArc
 50
180.0
 51
268.999999999998
  0
LINE
  5
493A
330
491F
100
AcDbEntity
  8
外形線
 48
10.0
100
AcDbLine
 10
1123.398525663106
 20
1088.928129594135
 30
0.0
 11
1123.398525663106
 21
1100.44543233102
 31
0.0
  0
ARC
  5
493B
330
491F
100
AcDbEntity
  8
外形線
 48
10.0
100
AcDbCircle
 10
1135.396646406818
 20
1087.727276821958
 30
0.0
 40
0.5
100
AcDbArc
 50
0.002863323129
 51
88.999999999998
  0
ARC
  5
493C
330
491F
100
AcDbEntity
  8
外形線
 48
10.0
100
AcDbCircle
 10
1135.396646406818
 20
1101.646285103198
 30
0.0
 40
0.5
100
AcDbArc
 50
271.000000000002
 51
359.997136676878
  0
ARC
  5
493D
330
491F
100
AcDbEntity
  8
細線
 48
10.0
100
AcDbCircle
 10
1135.398359871226
 20
1105.882746614783
 30
0.0
 40
0.5
100
AcDbArc
 50
359.978936747976
 51
84.089361084595
  0
ARC
  5
493E
330
491F
100
AcDbEntity
  8
細線
 48
10.0
100
AcDbCircle
 10
1135.396845195015
 20
1105.6240843805
 30
0.0
 40
0.5
100
AcDbArc
 50
359.997136676878
 51
84.089361084595
  0
ARC
  5
493F
330
491F
100
AcDbEntity
  8
細線
 48
10.0
100
AcDbCircle
 10
1135.398405428356
 20
1136.84472607817
 30
0.0
 40
0.5
100
AcDbArc
 50
359.997136676878
 51
68.874947125989
  0
ARC
  5
4940
330
491F
100
AcDbEntity
  8
細線
 48
10.0
100
AcDbCircle
 10
1135.398453699003
 20
1137.810633254114
 30
0.0
 40
0.5
100
AcDbArc
 50
359.997136676878
 51
68.874947125989
  0
ARC
  5
4941
330
491F
100
AcDbEntity
  8
外形線
 48
10.0
100
AcDbCircle
 10
1135.398508800797
 20
1138.913233296621
 30
0.0
 40
0.5
100
AcDbArc
 50
359.997136676878
 51
68.025023881972
  0
LINE
  5
4942
330
491F
100
AcDbEntity
  8
外形線
 48
10.0
100
AcDbLine
 10
1135.405372610037
 20
1101.146361255619
 30
0.0
 11
1123.889799459887
 21
1100.945356178598
 31
0.0
  0
LINE
  5
4943
330
491F
100
AcDbEntity
  8
外形線
 48
10.0
100
AcDbLine
 10
1135.405372610037
 20
1088.227200669536
 30
0.0
 11
1123.889799459887
 21
1088.428205746557
 31
0.0
  0
LINE
  5
4944
330
491F
100
AcDbEntity
  8
外形線
 48
10.0
100
AcDbLine
 10
1123.711312779708
 20
1144.168402728055
 30
0.0
 11
1135.585609606275
 21
1139.376906984239
 31
0.0
  0
LINE
  5
4945
330
491F
100
AcDbEntity
  8
細線
 48
10.0
100
AcDbLine
 10
1135.448333812772
 20
1106.121426237015
 30
0.0
 11
1123.847037045349
 21
1107.322480857532
 31
0.0
  0
LINE
  5
4946
330
491F
100
AcDbEntity
  8
細線
 48
10.0
100
AcDbLine
 10
1135.449848488983
 20
1106.380088471297
 30
0.0
 11
1123.847037045349
 21
1107.581299902634
 31
0.0
  0
LINE
  5
4947
330
491F
100
AcDbEntity
  8
細線
 48
10.0
100
AcDbLine
 10
1135.533952658586
 20
1126.609702933466
 30
0.0
 11
1123.762442899618
 21
1129.939188683612
 31
0.0
  0
LINE
  5
4948
330
491F
100
AcDbEntity
  8
細線
 48
10.0
100
AcDbLine
 10
1135.578607784566
 20
1137.311124095764
 30
0.0
 11
1123.718323306896
 21
1141.893586129411
 31
0.0
  0
LINE
  5
4949
330
491F
100
AcDbEntity
  8
細線
 48
10.0
100
AcDbLine
 10
1135.578656055213
 20
1138.277031271709
 30
0.0
 11
1123.718323306896
 21
1142.859511955701
 31
0.0
  0
LINE
  5
494A
330
491F
100
AcDbEntity
  8
外形線
 48
10.0
100
AcDbLine
 10
1108.899561566736
 20
1152.686780962578
 30
0.0
 11
1122.908291096026
 21
1152.436153402709
 31
0.0
  0
LINE
  5
494B
330
491F
100
AcDbEntity
  8
外形線
 48
10.0
100
AcDbLine
 10
1108.899561566736
 20
1152.686780962578
 30
0.0
 11
1108.399561566736
 21
1152.180676686204
 31
0.0
  0
LINE
  5
494C
330
491F
100
AcDbEntity
  8
外形線
 48
10.0
100
AcDbLine
 10
1108.399561566736
 20
1151.192885238951
 30
0.0
 11
1108.399561566736
 21
1150.692885238951
 31
0.0
  0
ARC
  5
494D
330
491F
100
AcDbEntity
  8
外形線
 48
10.0
100
AcDbCircle
 10
1098.998525663106
 20
1152.414559409545
 30
0.0
 40
4.4
100
AcDbArc
 50
271.3
 51
0.0
  0
LINE
  5
494E
330
491F
100
AcDbEntity
  8
外形線
 48
10.0
100
AcDbLine
 10
1046.016783711759
 20
1146.811102679105
 30
0.0
 11
1099.098349930826
 21
1148.015691928525
 31
0.0
  0
LINE
  5
494F
330
491F
100
AcDbEntity
  8
外形線
 48
10.0
100
AcDbLine
 10
1103.398525663105
 20
1152.686780962578
 30
0.0
 11
1103.398525663105
 21
1152.414559409545
 31
0.0
  0
LINE
  5
4950
330
491F
100
AcDbEntity
  8
外形線
 48
10.0
100
AcDbLine
 10
1106.398525663105
 20
1152.686780962578
 30
0.0
 11
1103.398525663105
 21
1152.686780962578
 31
0.0
  0
ARC
  5
4951
330
491F
100
AcDbEntity
  8
外形線
 48
10.0
100
AcDbCircle
 10
1107.898525663105
 20
1150.161780962577
 30
0.0
 40
1.500000000000156
100
AcDbArc
 50
70.528779365514
 51
179.999999999993
  0
LINE
  5
4952
330
491F
100
AcDbEntity
  8
細線
 48
10.0
100
AcDbLine
 10
1108.899561566736
 20
1152.686780962578
 30
0.0
 11
1108.899561566736
 21
1036.686780962578
 31
0.0
  0
LINE
  5
4953
330
491F
100
AcDbEntity
  8
細線
 48
10.0
100
AcDbLine
 10
1108.899561566736
 20
1152.680676686204
 30
0.0
 11
1108.899561566736
 21
1036.692885238951
 31
0.0
  0
LINE
  5
4954
330
491F
100
AcDbEntity
  8
外形線
 48
10.0
100
AcDbLine
 10
1123.398525663106
 20
1072.956444458874
 30
0.0
 11
1123.398525663106
 21
1059.660354798405
 31
0.0
  0
ARC
  5
4955
330
491F
100
AcDbEntity
  8
細線
 48
10.0
100
AcDbCircle
 10
1123.898525663106
 20
1047.013577778149
 30
0.0
 40
0.5
100
AcDbArc
 50
111.125052874011
 51
180.0
  0
ARC
  5
4956
330
491F
100
AcDbEntity
  8
細線
 48
10.0
100
AcDbCircle
 10
1123.898066965619
 20
1046.04747472476
 30
0.0
 40
0.5
100
AcDbArc
 50
111.125052874011
 51
179.923306313171
  0
ARC
  5
4957
330
491F
100
AcDbEntity
  8
細線
 48
10.0
100
AcDbCircle
 10
1123.898525663106
 20
1059.660354798405
 30
0.0
 40
0.5
100
AcDbArc
 50
105.793169048262
 51
180.0
  0
ARC
  5
4958
330
491F
100
AcDbEntity
  8
細線
 48
10.0
100
AcDbCircle
 10
1123.898525663106
 20
1058.953248017218
 30
0.0
 40
0.5
100
AcDbArc
 50
105.793169048262
 51
180.0
  0
ARC
  5
4959
330
491F
100
AcDbEntity
  8
細線
 48
10.0
100
AcDbCircle
 10
1123.898525663106
 20
1081.294920166006
 30
0.0
 40
0.5
100
AcDbArc
 50
95.910638915405
 51
180.0
  0
ARC
  5
495A
330
491F
100
AcDbEntity
  8
細線
 48
10.0
100
AcDbCircle
 10
1123.898525663106
 20
1081.553739211108
 30
0.0
 40
0.5
100
AcDbArc
 50
95.910638915405
 51
180.0
  0
LINE
  5
495B
330
491F
100
AcDbEntity
  8
外形線
 48
10.0
100
AcDbLine
 10
1123.398525663106
 20
1081.294920166006
 30
0.0
 11
1123.398525663106
 21
1088.928129594135
 31
0.0
  0
LINE
  5
495C
330
491F
100
AcDbEntity
  8
外形線
 48
10.0
100
AcDbLine
 10
1123.398525663106
 20
1081.745828707453
 30
0.0
 11
1123.398525663106
 21
1082.004647752555
 31
0.0
  0
LINE
  5
495D
330
491F
100
AcDbEntity
  8
外形線
 48
10.0
100
AcDbLine
 10
1123.398525663106
 20
1072.956444458874
 30
0.0
 11
1123.398525663106
 21
1081.294920166006
 31
0.0
  0
LINE
  5
495E
330
491F
100
AcDbEntity
  8
外形線
 48
10.0
100
AcDbLine
 10
1123.398525663106
 20
1058.953248017218
 30
0.0
 11
1123.398525663106
 21
1059.660354798405
 31
0.0
  0
LINE
  5
495F
330
491F
100
AcDbEntity
  8
外形線
 48
10.0
100
AcDbLine
 10
1123.398525663106
 20
1047.013577778149
 30
0.0
 11
1123.398525663106
 21
1058.953248017218
 31
0.0
  0
LINE
  5
4960
330
491F
100
AcDbEntity
  8
外形線
 48
10.0
100
AcDbLine
 10
1123.398067413553
 20
1046.048144003235
 30
0.0
 11
1123.398525663106
 21
1047.013577778149
 31
0.0
  0
LINE
  5
4961
330
491F
100
AcDbEntity
  8
外形線
 48
10.0
100
AcDbLine
 10
1123.396317242873
 20
1044.740639597053
 30
0.0
 11
1123.398067413553
 21
1046.048144003235
 31
0.0
  0
ARC
  5
4962
330
491F
100
AcDbEntity
  8
外形線
 48
10.0
100
AcDbCircle
 10
1123.896317242873
 20
1044.740639597053
 30
0.0
 40
0.5
100
AcDbArc
 50
111.974976118028
 51
180.0
  0
ARC
  5
4963
330
491F
100
AcDbEntity
  8
細線
 48
10.0
100
AcDbCircle
 10
1135.398494161258
 20
1063.952267566336
 30
0.0
 40
0.5
100
AcDbArc
 50
285.793169048262
 51
0.004772330144
  0
ARC
  5
4964
330
491F
100
AcDbEntity
  8
細線
 48
10.0
100
AcDbCircle
 10
1135.398525663106
 20
1063.245169695216
 30
0.0
 40
0.5
100
AcDbArc
 50
285.793169048262
 51
0.0
  0
ARC
  5
4965
330
491F
100
AcDbEntity
  8
細線
 48
10.0
100
AcDbCircle
 10
1135.398525663106
 20
1052.528882302126
 30
0.0
 40
0.5
100
AcDbArc
 50
291.125052874011
 51
0.0
  0
ARC
  5
4966
330
491F
100
AcDbEntity
  8
細線
 48
10.0
100
AcDbCircle
 10
1135.398525663106
 20
1051.562956475835
 30
0.0
 40
0.5
100
AcDbArc
 50
291.125052874011
 51
0.0
  0
ARC
  5
4967
330
491F
100
AcDbEntity
  8
外形線
 48
10.0
100
AcDbCircle
 10
1135.398525663106
 20
1050.460335432784
 30
0.0
 40
0.5
100
AcDbArc
 50
291.974976118028
 51
0.0
  0
LINE
  5
4968
330
491F
100
AcDbEntity
  8
外形線
 48
10.0
100
AcDbLine
 10
1135.898525663106
 20
1051.562956475835
 30
0.0
 11
1135.898525663106
 21
1050.460335432784
 31
0.0
  0
LINE
  5
4969
330
491F
100
AcDbEntity
  8
外形線
 48
10.0
100
AcDbLine
 10
1135.898525663106
 20
1052.528882302126
 30
0.0
 11
1135.898525663106
 21
1051.562956475835
 31
0.0
  0
LINE
  5
496A
330
491F
100
AcDbEntity
  8
外形線
 48
10.0
100
AcDbLine
 10
1135.898525663106
 20
1063.245169695216
 30
0.0
 11
1135.898525663106
 21
1052.528882302126
 31
0.0
  0
LINE
  5
496B
330
491F
100
AcDbEntity
  8
外形線
 48
10.0
100
AcDbLine
 10
1135.898494159523
 20
1063.952309212773
 30
0.0
 11
1135.898525663106
 21
1063.245169695216
 31
0.0
  0
LINE
  5
496C
330
491F
100
AcDbEntity
  8
外形線
 48
10.0
100
AcDbLine
 10
1135.896845194391
 20
1083.749502531863
 30
0.0
 11
1135.898494159523
 21
1063.952309212773
 31
0.0
  0
ARC
  5
496D
330
491F
100
AcDbEntity
  8
細線
 48
10.0
100
AcDbCircle
 10
1135.396794220963
 20
1083.49065322233
 30
0.0
 40
0.5
100
AcDbArc
 50
275.910638915405
 51
0.00199902817
  0
ARC
  5
496E
330
491F
100
AcDbEntity
  8
細線
 48
10.0
100
AcDbCircle
 10
1135.396845195015
 20
1083.749477544655
 30
0.0
 40
0.5
100
AcDbArc
 50
275.910638915405
 51
0.002863323129
  0
ARC
  5
496F
330
491F
100
AcDbEntity
  8
外形線
 48
10.0
100
AcDbCircle
 10
1122.897486448612
 20
1037.437296090646
 30
0.0
 40
0.5
100
AcDbArc
 50
271.000000000002
 51
359.984453673186
  0
LINE
  5
4970
330
491F
100
AcDbEntity
  8
外形線
 48
10.0
100
AcDbLine
 10
1135.896646406194
 20
1087.727301809166
 30
0.0
 11
1135.896794220659
 21
1083.490670667142
 31
0.0
  0
LINE
  5
4971
330
491F
100
AcDbEntity
  8
外形線
 48
10.0
100
AcDbLine
 10
1123.709216437395
 20
1045.204313284671
 30
0.0
 11
1135.585626468584
 21
1049.996661745166
 31
0.0
  0
LINE
  5
4972
330
491F
100
AcDbEntity
  8
細線
 48
10.0
100
AcDbLine
 10
1135.578728019316
 20
1052.062484284531
 30
0.0
 11
1123.718323306896
 21
1047.479975795744
 31
0.0
  0
LINE
  5
4973
330
491F
100
AcDbEntity
  8
細線
 48
10.0
100
AcDbLine
 10
1135.578728019316
 20
1051.09655845824
 30
0.0
 11
1123.717864609409
 21
1046.513872742355
 31
0.0
  0
LINE
  5
4974
330
491F
100
AcDbEntity
  8
細線
 48
10.0
100
AcDbLine
 10
1135.534608426593
 20
1062.764044470891
 30
0.0
 11
1123.762442899618
 21
1059.434373241543
 31
0.0
  0
LINE
  5
4975
330
491F
100
AcDbEntity
  8
細線
 48
10.0
100
AcDbLine
 10
1135.534576924746
 20
1063.471142342011
 30
0.0
 11
1123.762442899618
 21
1060.141480022729
 31
0.0
  0
LINE
  5
4976
330
491F
100
AcDbEntity
  8
細線
 48
10.0
100
AcDbLine
 10
1135.44828283872
 20
1082.993311365815
 30
0.0
 11
1123.847037045349
 21
1081.792262022521
 31
0.0
  0
LINE
  5
4977
330
491F
100
AcDbEntity
  8
細線
 48
10.0
100
AcDbLine
 10
1135.448333812772
 20
1083.25213568814
 30
0.0
 11
1123.847037045349
 21
1082.051081067623
 31
0.0
  0
LINE
  5
4978
330
491F
100
AcDbEntity
  8
外形線
 48
10.0
100
AcDbLine
 10
1123.399470041665
 20
1044.747733739171
 30
0.0
 11
1123.397486430207
 21
1037.437160423353
 31
0.0
  0
LINE
  5
4979
330
491F
100
AcDbEntity
  8
外形線
 48
10.0
100
AcDbLine
 10
1123.399564892765
 20
1151.936223047449
 30
0.0
 11
1123.397486430207
 21
1037.437160423353
 31
0.0
  0
LINE
  5
497A
330
491F
100
AcDbEntity
  8
外形線
 48
10.0
100
AcDbLine
 10
1108.399561566736
 20
1152.180676686204
 30
0.0
 11
1108.399561566736
 21
1037.192885238951
 31
0.0
  0
LINE
  5
497B
330
491F
100
AcDbEntity
  8
外形線
 48
10.0
100
AcDbLine
 10
1108.899561566736
 20
1036.686780962578
 30
0.0
 11
1122.906212651831
 21
1036.937372243068
 31
0.0
  0
LINE
  5
497C
330
491F
100
AcDbEntity
  8
外形線
 48
10.0
100
AcDbLine
 10
1108.899561566736
 20
1036.686780962578
 30
0.0
 11
1108.399561566736
 21
1037.192885238951
 31
0.0
  0
LINE
  5
497D
330
491F
100
AcDbEntity
  8
外形線
 48
10.0
100
AcDbLine
 10
1108.399561566736
 20
1038.192885238951
 30
0.0
 11
1108.399561566736
 21
1038.692885238951
 31
0.0
  0
LINE
  5
497E
330
491F
100
AcDbEntity
  8
外形線
 48
10.0
100
AcDbLine
 10
1035.022931603883
 20
1071.442246865485
 30
0.0
 11
1041.278741748243
 21
1046.351562814666
 31
0.0
  0
ARC
  5
497F
330
491F
100
AcDbEntity
  8
外形線
 48
10.0
100
AcDbCircle
 10
1046.130220379623
 20
1047.561172292664
 30
0.0
 40
5.0
100
AcDbArc
 50
193.999999999996
 51
268.7
  0
ARC
  5
4980
330
491F
100
AcDbEntity
  8
外形線
 48
10.0
100
AcDbCircle
 10
1034.052635877606
 20
1071.200324969886
 30
0.0
 40
1.0
100
AcDbArc
 50
13.999999999996
 51
89.000000000011
  0
ARC
  5
4981
330
491F
100
AcDbEntity
  8
外形線
 48
10.0
100
AcDbCircle
 10
1069.398525663106
 20
1041.031595836918
 30
0.0
 40
1.0
100
AcDbArc
 50
0.0
 51
88.7
  0
ARC
  5
4982
330
491F
100
AcDbEntity
  8
外形線
 48
10.0
100
AcDbCircle
 10
1071.398525663106
 20
1031.186780962577
 30
0.0
 40
1.0
100
AcDbArc
 50
180.0
 51
270.0
  0
ARC
  5
4983
330
491F
100
AcDbEntity
  8
外形線
 48
10.0
100
AcDbCircle
 10
1105.398525663105
 20
1031.186780962577
 30
0.0
 40
1.0
100
AcDbArc
 50
270.0
 51
0.0
  0
LINE
  5
4984
330
491F
100
AcDbEntity
  8
外形線
 48
10.0
100
AcDbLine
 10
1070.398525663106
 20
1031.186780962577
 30
0.0
 11
1070.398525663106
 21
1041.031595836918
 31
0.0
  0
LINE
  5
4985
330
491F
100
AcDbEntity
  8
外形線
 48
10.0
100
AcDbLine
 10
1046.016783711759
 20
1042.56245924605
 30
0.0
 11
1099.098349930826
 21
1041.35786999663
 31
0.0
  0
LINE
  5
4986
330
491F
100
AcDbEntity
  8
外形線
 48
10.0
100
AcDbLine
 10
1021.881073256668
 20
1072.412932713756
 30
0.0
 11
1034.070088284044
 21
1072.200172665042
 31
0.0
  0
LINE
  5
4987
330
491F
100
AcDbEntity
  8
外形線
 48
10.0
100
AcDbLine
 10
1106.398525663105
 20
1040.711780962577
 30
0.0
 11
1106.398525663105
 21
1031.186780962577
 31
0.0
  0
LINE
  5
4988
330
491F
100
AcDbEntity
  8
外形線
 48
10.0
100
AcDbLine
 10
1106.398525663105
 20
1040.711780962577
 30
0.0
 11
1106.398525663105
 21
1152.686780962578
 31
0.0
  0
LINE
  5
4989
330
491F
100
AcDbEntity
  8
外形線
 48
10.0
100
AcDbLine
 10
1105.398525663105
 20
1030.186780962577
 30
0.0
 11
1071.398525663106
 21
1030.186780962577
 31
0.0
  0
LINE
  5
498A
330
491F
100
AcDbEntity
  8
外形線
 48
10.0
100
AcDbLine
 10
1103.398525663106
 20
1036.95900251561
 30
0.0
 11
1103.398525663105
 21
1036.692885238951
 31
0.0
  0
LINE
  5
498B
330
491F
100
AcDbEntity
  8
外形線
 48
10.0
100
AcDbLine
 10
1106.398525663105
 20
1036.692885238951
 30
0.0
 11
1103.398525663105
 21
1036.692885238951
 31
0.0
  0
ARC
  5
498C
330
491F
100
AcDbEntity
  8
外形線
 48
10.0
100
AcDbCircle
 10
1107.898525663105
 20
1039.211780962577
 30
0.0
 40
1.499999999999659
100
AcDbArc
 50
179.99999999998
 51
289.471220634515
  0
ARC
  5
498D
330
491F
100
AcDbEntity
  8
外形線
 48
10.0
100
AcDbCircle
 10
1098.998525663106
 20
1036.95900251561
 30
0.0
 40
4.4
100
AcDbArc
 50
0.0
 51
88.7
  0
LINE
  5
498E
330
491F
100
AcDbEntity
  8
細線
 48
10.0
100
AcDbLine
 10
1103.398525663105
 20
1152.686780962578
 30
0.0
 11
1103.398525663106
 21
1036.95900251561
 31
0.0
  0
LINE
  5
498F
330
491F
100
AcDbEntity
  8
細線
 48
10.0
100
AcDbLine
 10
1034.837298404406
 20
1072.186780962578
 30
0.0
 11
1034.840933619068
 21
1117.201361012233
 31
0.0
  0
LINE
  5
4990
330
491F
100
AcDbEntity
  8
細線
 48
10.0
100
AcDbLine
 10
1042.201886517784
 20
1144.905639229587
 30
0.0
 11
1042.201886517784
 21
1044.467922695569
 31
0.0
  0
LINE
  5
4991
330
491F
100
AcDbEntity
  8
外形線
 48
10.0
100
AcDbLine
 10
1135.898508800172
 20
1138.913208309413
 30
0.0
 11
1135.896646406194
 21
1101.646260115989
 31
0.0
  0
ARC
  5
4992
330
491F
100
AcDbEntity
  8
細線
 48
10.0
100
AcDbCircle
 10
1135.397834558349
 20
1125.421480922695
 30
0.0
 40
0.5
100
AcDbArc
 50
359.997136676878
 51
74.206830951738
  0
ARC
  5
4993
330
491F
100
AcDbEntity
  8
細線
 48
10.0
100
AcDbCircle
 10
1135.397869895098
 20
1126.128577709141
 30
0.0
 40
0.5
100
AcDbArc
 50
359.997136676878
 51
74.206830951738
  0
LINE
  5
4994
330
491F
100
AcDbEntity
  8
細線
 48
10.0
100
AcDbLine
 10
1135.533917321837
 20
1125.90260614702
 30
0.0
 11
1123.762442899618
 21
1129.232081902426
 31
0.0
  0
LINE
  5
4995
330
491F
100
AcDbEntity
  8
中心線
 48
10.0
100
AcDbLine
 10
1088.398525663106
 20
1052.03299312045
 30
0.0
 11
1088.398525663106
 21
1013.722487401784
 31
0.0
  0
ENDBLK
  5
4996
330
491F
100
AcDbEntity
  8
0
 48
10.0
100
AcDbBlockEnd
  0
BLOCK
  5
4D9B
330
4D9A
100
AcDbEntity
  8
0
100
AcDbBlockBegin
  2
*D22
 70
     1
 10
0.0
 20
0.0
 30
0.0
  3
*D22
  1

  0
LINE
  5
4D9D
330
4D9A
100
AcDbEntity
  8
寸法線
 62
     0
 48
10.0
100
AcDbLine
 10
60.765045212736
 20
394.894739554651
 30
0.0
 11
19.45846709528
 21
394.894739554651
 31
0.0
  0
LINE
  5
4D9E
330
4D9A
100
AcDbEntity
  8
寸法線
 62
     0
 48
10.0
100
AcDbLine
 10
60.765045212736
 20
372.894739554651
 30
0.0
 11
19.45846709528
 21
372.894739554651
 31
0.0
  0
LINE
  5
4D9F
330
4D9A
100
AcDbEntity
  8
寸法線
 62
     0
 48
10.0
100
AcDbLine
 10
20.70846709528
 20
394.894739554651
 30
0.0
 11
20.70846709528
 21
420.118309108457
 31
0.0
  0
LINE
  5
4DA0
330
4D9A
100
AcDbEntity
  8
寸法線
 62
     0
 48
10.0
100
AcDbLine
 10
20.70846709528
 20
388.894739554651
 30
0.0
 11
20.70846709528
 21
378.894739554651
 31
0.0
  0
INSERT
  5
4DA1
330
4D9A
100
AcDbEntity
  8
寸法線
 62
     0
100
AcDbBlockReference
  2
_OPEN30
 10
20.70846709528
 20
394.894739554651
 30
0.0
 41
6.0
 42
6.0
 43
6.0
 50
90.0
  0
INSERT
  5
4DA2
330
4D9A
100
AcDbEntity
  8
寸法線
 62
     0
100
AcDbBlockReference
  2
_OPEN30
 10
20.70846709528
 20
372.894739554651
 30
0.0
 41
6.0
 42
6.0
 43
6.0
 50
270.0
  0
MTEXT
  5
4DA3
330
4D9A
100
AcDbEntity
  8
寸法線
 62
     0
 48
10.0
100
AcDbMText
 10
16.075133761947
 20
410.759975775124
 30
0.0
 40
8.0
 41
0.0
 71
     5
 72
     1
  1
\A1;φ22
 11
0.0
 21
1.0
 31
0.0
  0
POINT
  5
4DA4
330
4D9A
100
AcDbEntity
  8
DEFPOINTS
 62
     0
100
AcDbPoint
 10
61.390045212736
 20
394.894739554651
 30
0.0
  0
POINT
  5
4DA5
330
4D9A
100
AcDbEntity
  8
DEFPOINTS
 62
     0
100
AcDbPoint
 10
61.390045212736
 20
372.894739554651
 30
0.0
  0
POINT
  5
4DA6
330
4D9A
100
AcDbEntity
  8
DEFPOINTS
 62
     0
100
AcDbPoint
 10
20.70846709528
 20
372.894739554651
 30
0.0
  0
ENDBLK
  5
4D9C
330
4D9A
100
AcDbEntity
  8
0
100
AcDbBlockEnd
  0
BLOCK
  5
4DA8
330
4DA7
100
AcDbEntity
  8
0
100
AcDbBlockBegin
  2
*D23
 70
     1
 10
0.0
 20
0.0
 30
0.0
  3
*D23
  1

  0
LINE
  5
4DAA
330
4DA7
100
AcDbEntity
  8
寸法線
 62
     0
 48
10.0
100
AcDbLine
 10
61.765045212736
 20
392.441456883949
 30
0.0
 11
35.45846709528
 21
392.441456883949
 31
0.0
  0
LINE
  5
4DAB
330
4DA7
100
AcDbEntity
  8
寸法線
 62
     0
 48
10.0
100
AcDbLine
 10
61.765045212736
 20
375.441456883949
 30
0.0
 11
35.45846709528
 21
375.441456883949
 31
0.0
  0
LINE
  5
4DAC
330
4DA7
100
AcDbEntity
  8
寸法線
 62
     0
 48
10.0
100
AcDbLine
 10
36.70846709528
 20
392.441456883949
 30
0.0
 11
36.70846709528
 21
415.824790217282
 31
0.0
  0
LINE
  5
4DAD
330
4DA7
100
AcDbEntity
  8
寸法線
 62
     0
 48
10.0
100
AcDbLine
 10
36.70846709528
 20
386.441456883949
 30
0.0
 11
36.70846709528
 21
381.441456883949
 31
0.0
  0
INSERT
  5
4DAE
330
4DA7
100
AcDbEntity
  8
寸法線
 62
     0
100
AcDbBlockReference
  2
_OPEN30
 10
36.70846709528
 20
392.441456883949
 30
0.0
 41
6.0
 42
6.0
 43
6.0
 50
90.0
  0
INSERT
  5
4DAF
330
4DA7
100
AcDbEntity
  8
寸法線
 62
     0
100
AcDbBlockReference
  2
_OPEN30
 10
36.70846709528
 20
375.441456883949
 30
0.0
 41
6.0
 42
6.0
 43
6.0
 50
270.0
  0
MTEXT
  5
4DB0
330
4DA7
100
AcDbEntity
  8
寸法線
 62
     0
 48
10.0
100
AcDbMText
 10
32.08346709528
 20
407.266456883949
 30
0.0
 40
8.0
 41
0.0
 71
     5
 72
     1
  1
\A1;φ17
 11
0.0
 21
1.0
 31
0.0
  0
POINT
  5
4DB1
330
4DA7
100
AcDbEntity
  8
DEFPOINTS
 62
     0
100
AcDbPoint
 10
62.390045212736
 20
392.441456883949
 30
0.0
  0
POINT
  5
4DB2
330
4DA7
100
AcDbEntity
  8
DEFPOINTS
 62
     0
100
AcDbPoint
 10
62.390045212736
 20
375.441456883949
 30
0.0
  0
POINT
  5
4DB3
330
4DA7
100
AcDbEntity
  8
DEFPOINTS
 62
     0
100
AcDbPoint
 10
36.70846709528
 20
375.441456883949
 30
0.0
  0
ENDBLK
  5
4DA9
330
4DA7
100
AcDbEntity
  8
0
100
AcDbBlockEnd
  0
ENDSEC
  0
SECTION
  2
ENTITIES
  0
MTEXT
  5
4279
102
{ACAD_XDICTIONARY
360
5A12
102
}
330
1A
100
AcDbEntity
  8
寸法線
 48
10.0
100
AcDbMText
 10
542.604745445864
 20
473.312828875813
 30
0.0
 40
8.0
 41
0.0
 71
     7
 72
     1
  1
ALUMINUM\PDIE CASTING
1001
ACADANNOTATIVE
1000
AnnotativeData
1002
{
1070
     1
1070
     0
1002
}
  0
MTEXT
  5
427B
102
{ACAD_XDICTIONARY
360
59E1
102
}
330
1A
100
AcDbEntity
  8
寸法線
 48
10.0
100
AcDbMText
 10
424.387909575991
 20
473.312828875813
 30
0.0
 40
8.0
 41
0.0
 71
     7
 72
     1
  1
ALUMINUM\PDIE CASTING
1001
ACADANNOTATIVE
1000
AnnotativeData
1002
{
1070
     1
1070
     0
1002
}
  0
DIMENSION
  5
4604
330
1A
100
AcDbEntity
  8
寸法線
 48
10.0
100
AcDbDimension
  2
*D9
 10
161.390045212736
 20
289.982705002981
 30
0.0
 11
111.390045212736
 21
303.113174065717
 31
0.0
 70
    32
  1
 
  3
ISO-25
100
AcDbAlignedDimension
 13
61.390045212736
 23
376.488174213246
 33
0.0
 14
161.390045212736
 24
375.488174213246
 34
0.0
100
AcDbRotatedDimension
1001
ACAD
1000
DSTYLE
1002
{
1070
     5
1000
OPEN30
1070
    41
1040
6.0
1070
    47
1040
0.1
1070
    48
1040
0.1
1070
    73
1070
     0
1070
   140
1040
8.0
1070
   271
1070
     1
1070
   272
1070
     1
1070
   341
1005
2AF4
1002
}
  0
DIMENSION
  5
4611
330
1A
100
AcDbEntity
  8
寸法線
 48
10.0
100
AcDbDimension
  2
*D10
 10
211.390045212736
 20
289.982705002981
 30
0.0
 11
186.390045212736
 21
303.113174065717
 31
0.0
 70
    32
  1
 
  3
ISO-25
100
AcDbAlignedDimension
 13
161.390045212736
 23
375.488174213246
 33
0.0
 14
211.390045212736
 24
375.488174213246
 34
0.0
100
AcDbRotatedDimension
1001
ACAD
1000
DSTYLE
1002
{
1070
     5
1000
OPEN30
1070
    41
1040
6.0
1070
    47
1040
0.1
1070
    48
1040
0.1
1070
    73
1070
     0
1070
   140
1040
8.0
1070
   271
1070
     1
1070
   272
1070
     1
1070
   341
1005
2AF4
1002
}
  0
DIMENSION
  5
461E
330
1A
100
AcDbEntity
  8
寸法線
 48
10.0
100
AcDbDimension
  2
*D11
 10
311.390045212736
 20
289.982705002981
 30
0.0
 11
261.390045212736
 21
303.113174065717
 31
0.0
 70
    32
  1
 
  3
ISO-25
100
AcDbAlignedDimension
 13
211.390045212736
 23
375.488174213246
 33
0.0
 14
311.390045212736
 24
368.238674213246
 34
0.0
100
AcDbRotatedDimension
1001
ACAD
1000
DSTYLE
1002
{
1070
     5
1000
OPEN30
1070
    41
1040
6.0
1070
    47
1040
0.1
1070
    48
1040
0.1
1070
    73
1070
     0
1070
   140
1040
8.0
1070
   271
1070
     1
1070
   272
1070
     1
1070
   341
1005
2AF4
1002
}
  0
DIMENSION
  5
462B
330
1A
100
AcDbEntity
  8
寸法線
 48
10.0
100
AcDbDimension
  2
*D12
 10
311.390045212736
 20
269.982705002981
 30
0.0
 11
186.390045212736
 21
283.117340732384
 31
0.0
 70
    32
  1
 
  3
ISO-25
100
AcDbAlignedDimension
 13
61.390045212736
 23
376.488174213246
 33
0.0
 14
311.390045212736
 24
368.238674213246
 34
0.0
100
AcDbRotatedDimension
1001
ACAD
1000
DSTYLE
1002
{
1070
     5
1000
OPEN30
1070
    41
1040
6.0
1070
    47
1040
0.1
1070
    48
1040
0.1
1070
    73
1070
     0
1070
   140
1040
8.0
1070
   271
1070
     1
1070
   272
1070
     1
1070
   341
1005
2AF4
1002
}
  0
LINE
  5
47F1
330
1A
100
AcDbEntity
  8
中心線
 48
10.0
100
AcDbLine
 10
30.858605093531
 20
383.988174213246
 30
0.0
 11
489.321451659826
 21
383.988174213246
 31
0.0
  0
DIMENSION
  5
48D4
330
1A
100
AcDbEntity
  8
寸法線
 48
10.0
100
AcDbDimension
  2
*D13
 10
371.390045212736
 20
289.982705002981
 30
0.0
 11
341.390045212736
 21
294.607705002981
 31
0.0
 70
    32
  3
ISO-25
100
AcDbAlignedDimension
 13
311.390045212736
 23
368.238674213246
 33
0.0
 14
371.390045212736
 24
364.047484444974
 34
0.0
100
AcDbRotatedDimension
1001
ACAD
1000
DSTYLE
1002
{
1070
     5
1000
OPEN30
1070
    41
1040
6.0
1070
    47
1040
0.1
1070
    48
1040
0.1
1070
    73
1070
     0
1070
   140
1040
8.0
1070
   271
1070
     1
1070
   272
1070
     1
1070
   341
1005
2AF4
1002
}
  0
DIMENSION
  5
48E1
330
1A
100
AcDbEntity
  8
寸法線
 48
10.0
100
AcDbDimension
  2
*D14
 10
459.890045212736
 20
289.982705002981
 30
0.0
 11
415.640045212736
 21
294.624371669647
 31
0.0
 70
    32
  1
88
  3
ISO-25
100
AcDbAlignedDimension
 13
371.390045212736
 23
364.047484444974
 33
0.0
 14
459.890045212736
 24
320.487484444974
 34
0.0
100
AcDbRotatedDimension
1001
ACAD
1000
DSTYLE
1002
{
1070
     5
1000
OPEN30
1070
    41
1040
6.0
1070
    47
1040
0.1
1070
    48
1040
0.1
1070
    73
1070
     0
1070
   140
1040
8.0
1070
   271
1070
     1
1070
   272
1070
     1
1070
   341
1005
2AF4
1002
}
  0
DIMENSION
  5
48EE
330
1A
100
AcDbEntity
  8
寸法線
 48
10.0
100
AcDbDimension
  2
*D15
 10
489.390045212736
 20
269.982705002981
 30
0.0
 11
400.390045212736
 21
274.616038336314
 31
0.0
 70
    32
  3
ISO-25
100
AcDbAlignedDimension
 13
311.390045212736
 23
368.238674213246
 33
0.0
 14
489.390045212736
 24
289.982705002981
 34
0.0
100
AcDbRotatedDimension
1001
ACAD
1000
DSTYLE
1002
{
1070
     5
1000
OPEN30
1070
    41
1040
6.0
1070
    47
1040
0.1
1070
    48
1040
0.1
1070
    73
1070
     0
1070
   140
1040
8.0
1070
   271
1070
     1
1070
   272
1070
     1
1070
   341
1005
2AF4
1002
}
  0
DIMENSION
  5
48FB
330
1A
100
AcDbEntity
  8
寸法線
 48
10.0
100
AcDbDimension
  2
*D16
 10
489.390045212736
 20
289.982705002981
 30
0.0
 11
474.640045212736
 21
294.611871669647
 31
0.0
 70
    32
  1
30
  3
ISO-25
100
AcDbAlignedDimension
 13
459.890045212736
 23
320.487484444974
 33
0.0
 14
489.390045212736
 24
339.761038915181
 34
0.0
100
AcDbRotatedDimension
1001
ACAD
1000
DSTYLE
1002
{
1070
     5
1000
OPEN30
1070
    41
1040
6.0
1070
    47
1040
0.1
1070
    48
1040
0.1
1070
    73
1070
     0
1070
   140
1040
8.0
1070
   271
1070
     1
1070
   272
1070
     1
1070
   341
1005
2AF4
1002
}
  0
DIMENSION
  5
4908
330
1A
100
AcDbEntity
  8
寸法線
 48
10.0
100
AcDbDimension
  2
*D17
 10
515.774010066299
 20
326.238075725467
 30
0.0
 11
515.774010066299
 21
383.987466305287
 31
0.0
 70
   160
  1
φ116
  3
ISO-25
100
AcDbAlignedDimension
 13
476.399810645657
 23
441.736856885106
 33
0.0
 14
476.397732201615
 24
326.238075725467
 34
0.0
 50
90.0
100
AcDbRotatedDimension
1001
ACAD
1000
DSTYLE
1002
{
1070
     5
1000
OPEN30
1070
    41
1040
6.0
1070
    47
1040
0.1
1070
    48
1040
0.1
1070
    73
1070
     0
1070
   140
1040
8.0
1070
   271
1070
     1
1070
   272
1070
     1
1070
   341
1005
2AF4
1002
}
  0
INSERT
  5
499C
330
1A
100
AcDbEntity
  8
外形線
100
AcDbBlockReference
  2
静電容量センサ
 10
-646.508480450369
 20
-710.699296517603
 30
0.0
  0
LINE
  5
4BAA
330
1A
100
AcDbEntity
  8
下書線
 62
     2
 48
10.0
100
AcDbLine
 10
68.470895724356
 20
472.128968261783
 30
0.0
 11
620.264382419291
 21
472.128968261783
 31
0.0
  0
LEADER
  5
4BAC
330
1A
100
AcDbEntity
  8
寸法線
 62
     1
 48
10.0
100
AcDbLeader
  3
ISO-25
 76
     3
 10
101.937137551931
 20
386.426979191907
 30
0.0
 10
74.470895724356
 20
472.128968261783
 30
0.0
 10
59.890972582377
 20
472.128968261783
 30
0.0
1001
ACAD
1000
DSTYLE
1002
{
1070
     5
1000
DOTSMALL
1070
   147
1040
0.625
1070
    77
1070
     0
1070
    41
1040
6.0
1070
    47
1040
0.1
1070
    48
1040
0.1
1070
    73
1070
     0
1070
   140
1040
8.0
1070
   271
1070
     1
1070
   272
1070
     1
1070
   341
1005
4547
1070
   342
1005
2AF4
1002
}
  0
LEADER
  5
4BAD
330
1A
100
AcDbEntity
  8
寸法線
 62
     1
 48
10.0
100
AcDbLeader
  3
ISO-25
 76
     3
 10
173.738566942329
 20
387.960320718064
 30
0.0
 10
157.713753712032
 20
472.128968261783
 30
0.0
 10
142.310035997395
 20
472.128968261783
 30
0.0
1001
ACAD
1000
DSTYLE
1002
{
1070
     5
1000
DOTSMALL
1070
   147
1040
0.625
1070
    77
1070
     0
1070
    41
1040
6.0
1070
    47
1040
0.1
1070
    48
1040
0.1
1070
    73
1070
     0
1070
   140
1040
8.0
1070
   271
1070
     1
1070
   272
1070
     1
1070
   341
1005
4547
1070
   342
1005
2AF4
1002
}
  0
LEADER
  5
4BAF
330
1A
100
AcDbEntity
  8
寸法線
 62
     1
 48
10.0
100
AcDbLeader
  3
ISO-25
 76
     3
 10
209.38021888798
 20
394.941456883949
 30
0.0
 10
180.983384896206
 20
472.128968261783
 30
0.0
 10
198.132905423581
 20
472.128968261783
 30
0.0
213
-17.14952052737493
223
0.0
233
0.0
1001
ACAD
1000
DSTYLE
1002
{
1070
     5
1000
OPEN30
1070
   147
1040
0.625
1070
    77
1070
     0
1070
    41
1040
6.0
1070
    47
1040
0.1
1070
    48
1040
0.1
1070
    73
1070
     0
1070
   140
1040
8.0
1070
   271
1070
     1
1070
   272
1070
     1
1070
   341
1005
2AF4
1070
   342
1005
2AF4
1002
}
  0
LEADER
  5
4BB0
330
1A
100
AcDbEntity
  8
寸法線
 62
     1
 48
10.0
100
AcDbLeader
  3
ISO-25
 76
     3
 10
268.285216754227
 20
387.893554465881
 30
0.0
 10
278.783454376768
 20
472.128968261783
 30
0.0
 10
292.02376639521
 20
472.128968261783
 30
0.0
1001
ACAD
1000
DSTYLE
1002
{
1070
     5
1000
DOTSMALL
1070
   147
1040
0.625
1070
    77
1070
     0
1070
    41
1040
6.0
1070
    47
1040
0.1
1070
    48
1040
0.1
1070
    73
1070
     0
1070
   140
1040
8.0
1070
   271
1070
     1
1070
   272
1070
     1
1070
   341
1005
4547
1070
   342
1005
2AF4
1002
}
  0
LEADER
  5
4BB1
330
1A
100
AcDbEntity
  8
寸法線
 62
     1
 48
10.0
100
AcDbLeader
  3
ISO-25
 76
     3
 10
323.890045212736
 20
400.518924213246
 30
0.0
 10
342.337598586796
 20
472.128968261783
 30
0.0
 10
353.923041812596
 20
472.128968261783
 30
0.0
1001
ACAD
1000
DSTYLE
1002
{
1070
     5
1000
OPEN30
1070
   147
1040
0.625
1070
    77
1070
     0
1070
    41
1040
6.0
1070
    47
1040
0.1
1070
    48
1040
0.1
1070
    73
1070
     0
1070
   140
1040
8.0
1070
   271
1070
     1
1070
   272
1070
     1
1070
   341
1005
2AF4
1070
   342
1005
2AF4
1002
}
  0
LEADER
  5
4BB2
330
1A
100
AcDbEntity
  8
寸法線
 62
     1
 48
10.0
100
AcDbLeader
  3
ISO-25
 76
     3
 10
411.175400916548
 20
436.376569645483
 30
0.0
 10
422.182944638146
 20
472.128968261783
 30
0.0
 10
434.300560625596
 20
472.128968261783
 30
0.0
1001
ACAD
1000
DSTYLE
1002
{
1070
     5
1000
OPEN30
1070
   147
1040
0.625
1070
    77
1070
     0
1070
    41
1040
6.0
1070
    47
1040
0.1
1070
    48
1040
0.1
1070
    73
1070
     0
1070
   140
1040
8.0
1070
   271
1070
     1
1070
   272
1070
     1
1070
   341
1005
2AF4
1070
   342
1005
2AF4
1002
}
  0
LEADER
  5
4BB3
330
1A
100
AcDbEntity
  8
寸法線
 62
     1
 48
10.0
100
AcDbLeader
  3
ISO-25
 76
     3
 10
461.431339147849
 20
440.961915940883
 30
0.0
 10
495.659959749262
 20
472.128968261783
 30
0.0
 10
506.541474455526
 20
472.128968261783
 30
0.0
1001
ACAD
1000
DSTYLE
1002
{
1070
     5
1000
OPEN30
1070
   147
1040
0.625
1070
    77
1070
     0
1070
    41
1040
6.0
1070
    47
1040
0.1
1070
    48
1040
0.1
1070
    73
1070
     0
1070
   140
1040
8.0
1070
   271
1070
     1
1070
   272
1070
     1
1070
   341
1005
2AF4
1070
   342
1005
2AF4
1002
}
  0
LEADER
  5
4BB4
330
1A
100
AcDbEntity
  8
寸法線
 62
     1
 48
10.0
100
AcDbLeader
  3
ISO-25
 76
     3
 10
484.046343205383
 20
430.70762452322
 30
0.0
 10
540.228917020835
 20
472.128968261783
 30
0.0
 10
554.449807508373
 20
472.128968261783
 30
0.0
1001
ACAD
1000
DSTYLE
1002
{
1070
     5
1000
OPEN30
1070
   147
1040
0.625
1070
    77
1070
     0
1070
    41
1040
6.0
1070
    47
1040
0.1
1070
    48
1040
0.1
1070
    73
1070
     0
1070
   140
1040
8.0
1070
   271
1070
     1
1070
   272
1070
     1
1070
   341
1005
2AF4
1070
   342
1005
2AF4
1002
}
  0
LWPOLYLINE
  5
4D2B
330
1A
100
AcDbEntity
  8
外形線
100
AcDbPolyline
 90
        4
 70
     1
 43
0.0
 10
371.390045212736
 20
364.987484444974
 10
374.390045212736
 20
364.987484444974
 10
374.390045212736
 20
402.987484444974
 10
371.390045212736
 20
402.987484444974
  0
LINE
  5
4D2C
330
1A
100
AcDbEntity
  8
細線
 48
10.0
100
AcDbLine
 10
362.790045212736
 20
394.957484444974
 30
0.0
 11
369.390045212736
 21
394.957484444975
 31
0.0
  0
LINE
  5
4D2D
330
1A
100
AcDbEntity
  8
細線
 48
10.0
100
AcDbLine
 10
362.790045212736
 20
373.017484444974
 30
0.0
 11
369.390045212736
 21
373.017484444974
 31
0.0
  0
ARC
  5
4D2E
330
1A
100
AcDbEntity
  8
細線
 48
10.0
100
AcDbCircle
 10
391.875270212736
 20
383.987484444974
 30
0.0
 40
31.08522499999937
100
AcDbArc
 50
159.335157523599
 51
200.664842476401
  0
ARC
  5
4D2F
330
1A
100
AcDbEntity
  8
細線
 48
10.0
100
AcDbCircle
 10
340.304820212737
 20
383.987484444974
 30
0.0
 40
31.08522499999937
100
AcDbArc
 50
339.335157523599
 51
20.664842476401
  0
LWPOLYLINE
  5
4D30
330
1A
100
AcDbEntity
  8
外形線
 48
10.0
100
AcDbPolyline
 90
        4
 70
     1
 43
0.0
 10
356.390045212736
 20
397.987484444974
 10
360.790045212736
 20
397.987484444974
 10
360.790045212736
 20
369.987484444974
 10
356.390045212736
 20
369.987484444974
  0
LINE
  5
4D33
330
1A
100
AcDbEntity
  8
細線
100
AcDbLine
 10
339.390045212736
 20
394.957484444975
 30
0.0
 11
353.390045212736
 21
394.957484444975
 31
0.0
  0
LINE
  5
4D34
330
1A
100
AcDbEntity
  8
細線
100
AcDbLine
 10
339.390045212736
 20
373.017484444975
 30
0.0
 11
353.390045212736
 21
373.017484444975
 31
0.0
  0
LINE
  5
4D35
330
1A
100
AcDbEntity
  8
外形線
100
AcDbLine
 10
311.390045212736
 20
368.238674213246
 30
0.0
 11
336.390045212736
 21
366.676174213246
 31
0.0
  0
LINE
  5
4D36
330
1A
100
AcDbEntity
  8
細線
100
AcDbLine
 10
311.390045212736
 20
369.717674213246
 30
0.0
 11
336.390045212736
 21
368.155174213246
 31
0.0
  0
LINE
  5
4D37
330
1A
100
AcDbEntity
  8
細線
100
AcDbLine
 10
311.390045212736
 20
398.258674213246
 30
0.0
 11
336.390045212736
 21
399.821174213246
 31
0.0
  0
LINE
  5
4D38
330
1A
100
AcDbEntity
  8
外形線
100
AcDbLine
 10
311.390045212736
 20
399.737674213246
 30
0.0
 11
311.390045212736
 21
368.238674213246
 31
0.0
  0
LINE
  5
4D39
330
1A
100
AcDbEntity
  8
外形線
100
AcDbLine
 10
311.390045212736
 20
399.737674213246
 30
0.0
 11
336.390045212736
 21
401.300174213246
 31
0.0
  0
ARC
  5
4D3A
330
1A
100
AcDbEntity
  8
細線
 48
10.0
100
AcDbCircle
 10
357.946861800106
 20
383.987484444975
 30
0.0
 40
21.5568165984052
100
AcDbArc
 50
149.410227986311
 51
210.589772013689
  0
ARC
  5
4D3B
330
1A
100
AcDbEntity
  8
細線
 48
10.0
100
AcDbCircle
 10
334.833228625368
 20
383.987484444975
 30
0.0
 40
21.55681659840436
100
AcDbArc
 50
329.41022798631
 51
30.589772013689
  0
LINE
  5
4D3C
330
1A
100
AcDbEntity
  8
外形線
 48
10.0
100
AcDbLine
 10
339.390045212736
 20
405.927484444975
 30
0.0
 11
353.390045212736
 21
405.927484444975
 31
0.0
  0
LINE
  5
4D3D
330
1A
100
AcDbEntity
  8
外形線
 48
10.0
100
AcDbLine
 10
339.390045212736
 20
362.048863986563
 30
0.0
 11
353.390045212736
 21
362.048863986563
 31
0.0
  0
ARC
  5
4D3E
330
1A
100
AcDbEntity
  8
細線
 48
10.0
100
AcDbCircle
 10
357.680571115741
 20
406.365915030797
 30
0.0
 40
21.5568
100
AcDbArc
 50
189.014839552026
 51
211.953209848838
  0
ARC
  5
4D3F
330
1A
100
AcDbEntity
  8
外形線
 48
10.0
100
AcDbCircle
 10
352.904705190072
 20
389.133152307703
 30
0.0
 40
21.5568
100
AcDbArc
 50
128.824173789179
 51
140.004933775737
  0
ARC
  5
4D40
330
1A
100
AcDbEntity
  8
外形線
 48
10.0
100
AcDbCircle
 10
339.875385235401
 20
389.133152307703
 30
0.0
 40
21.5568
100
AcDbArc
 50
39.995066224263
 51
51.175826210821
  0
ARC
  5
4D41
330
1A
100
AcDbEntity
  8
細線
 48
10.0
100
AcDbCircle
 10
335.099519309732
 20
406.365915030797
 30
0.0
 40
21.5568
100
AcDbArc
 50
328.046790151162
 51
350.985160447974
  0
ARC
  5
4D42
330
1A
100
AcDbEntity
  8
外形線
 48
10.0
100
AcDbCircle
 10
352.904705190072
 20
378.841816582246
 30
0.0
 40
21.5568
100
AcDbArc
 50
219.995066224261
 51
231.175826210819
  0
ARC
  5
4D43
330
1A
100
AcDbEntity
  8
外形線
 48
10.0
100
AcDbCircle
 10
339.875385235401
 20
378.841816582247
 30
0.0
 40
21.5568
100
AcDbArc
 50
308.824173789179
 51
320.004933775737
  0
ARC
  5
4D44
330
1A
100
AcDbEntity
  8
細線
 48
10.0
100
AcDbCircle
 10
335.099519309732
 20
361.609053859152
 30
0.0
 40
21.5568
100
AcDbArc
 50
9.014839552025
 51
31.953209848837
  0
ARC
  5
4D45
330
1A
100
AcDbEntity
  8
細線
 48
10.0
100
AcDbCircle
 10
357.68057111574
 20
361.609053859152
 30
0.0
 40
21.5568
100
AcDbArc
 50
148.046790151162
 51
170.985160447973
  0
LINE
  5
4D46
330
1A
100
AcDbEntity
  8
外形線
 48
10.0
100
AcDbLine
 10
336.390045212736
 20
402.988174215769
 30
0.0
 11
336.390045212736
 21
364.98679467418
 31
0.0
  0
LINE
  5
4D47
330
1A
100
AcDbEntity
  8
外形線
 48
10.0
100
AcDbLine
 10
356.390045212736
 20
402.988174215769
 30
0.0
 11
356.390045212736
 21
364.98679467418
 31
0.0
  0
ARC
  5
4D48
330
1A
100
AcDbEntity
  8
細線
 48
10.0
100
AcDbCircle
 10
398.690906400779
 20
407.67010120931
 30
0.0
 40
38.0852
100
AcDbArc
 50
185.639534129212
 51
199.499227192458
  0
ARC
  5
4D49
330
1A
100
AcDbEntity
  8
外形線
 48
10.0
100
AcDbCircle
 10
388.701775545808
 20
378.015754111901
 30
0.0
 40
38.0852
100
AcDbArc
 50
132.871952856856
 51
137.128047143141
  0
ARC
  5
4D4A
330
1A
100
AcDbEntity
  8
細線
 48
10.0
100
AcDbCircle
 10
333.489184024693
 20
407.67010120931
 30
0.0
 40
38.0852
100
AcDbArc
 50
340.500772807542
 51
354.360465870787
  0
ARC
  5
4D4B
330
1A
100
AcDbEntity
  8
外形線
 48
10.0
100
AcDbCircle
 10
343.478314879665
 20
378.015754111901
 30
0.0
 40
38.0852
100
AcDbArc
 50
42.871952856859
 51
47.128047143144
  0
LINE
  5
4D4C
330
1A
100
AcDbEntity
  8
外形線
 48
10.0
100
AcDbLine
 10
362.790045212736
 20
405.927484444974
 30
0.0
 11
369.390045212736
 21
405.927484444974
 31
0.0
  0
ARC
  5
4D4D
330
1A
100
AcDbEntity
  8
外形線
 48
10.0
100
AcDbCircle
 10
388.701775545808
 20
389.959214778047
 30
0.0
 40
38.0852
100
AcDbArc
 50
222.871952856859
 51
227.128047143144
  0
ARC
  5
4D4E
330
1A
100
AcDbEntity
  8
外形線
 48
10.0
100
AcDbCircle
 10
343.478314879665
 20
389.959214778047
 30
0.0
 40
38.0852
100
AcDbArc
 50
312.871952856856
 51
317.128047143141
  0
LINE
  5
4D4F
330
1A
100
AcDbEntity
  8
外形線
 48
10.0
100
AcDbLine
 10
362.790045212736
 20
362.047484444974
 30
0.0
 11
369.390045212736
 21
362.047484444974
 31
0.0
  0
ARC
  5
4D50
330
1A
100
AcDbEntity
  8
細線
 48
10.0
100
AcDbCircle
 10
398.690906400779
 20
360.304867680639
 30
0.0
 40
38.0852
100
AcDbArc
 50
160.500772807542
 51
174.360465870788
  0
ARC
  5
4D51
330
1A
100
AcDbEntity
  8
細線
 48
10.0
100
AcDbCircle
 10
333.489184024693
 20
360.304867680639
 30
0.0
 40
38.0852
100
AcDbArc
 50
5.639534129212
 51
19.499227192459
  0
LINE
  5
4D52
330
1A
100
AcDbEntity
  8
外形線
 48
10.0
100
AcDbLine
 10
360.790045212736
 20
403.927484444974
 30
0.0
 11
360.790045212736
 21
364.047484444974
 31
0.0
  0
LINE
  5
4D53
330
1A
100
AcDbEntity
  8
外形線
 48
10.0
100
AcDbLine
 10
371.390045212736
 20
403.927484444974
 30
0.0
 11
371.390045212736
 21
364.047484444974
 31
0.0
  0
LWPOLYLINE
  5
4D54
330
1A
100
AcDbEntity
  8
隠れ線
 48
10.0
100
AcDbPolyline
 90
        6
 70
     0
 43
0.0
 10
171.286276434848
 20
375.441456883949
 10
161.890045212736
 20
375.441456883949
 10
161.390045212736
 20
375.941456883949
 10
161.390045212736
 20
391.941456883949
 10
161.890045212736
 20
392.441456883949
 10
169.611324071839
 20
392.441456883949
  0
LINE
  5
4D55
330
1A
100
AcDbEntity
  8
外形線
 48
10.0
100
AcDbLine
 10
201.557658843906
 20
372.941456883949
 30
0.0
 11
246.126912644138
 21
372.941456883949
 31
0.0
  0
LINE
  5
4D56
330
1A
100
AcDbEntity
  8
外形線
 48
10.0
100
AcDbLine
 10
170.448800269531
 20
394.941456883949
 30
0.0
 11
128.700897381615
 21
394.941456883949
 31
0.0
  0
LWPOLYLINE
  5
4D57
330
1A
100
AcDbEntity
  8
隠れ線
 48
10.0
100
AcDbPolyline
 90
        4
 70
     0
 43
0.0
 10
129.538373546931
 20
375.441456883949
 10
161.390045212736
 20
375.441456883949
 10
161.390045212736
 20
392.441456883949
 10
127.863421183922
 20
392.441456883949
  0
LINE
  5
4D58
330
1A
100
AcDbEntity
  8
外形線
 48
10.0
100
AcDbLine
 10
128.700897381616
 20
372.941456883949
 30
0.0
 11
170.448800269532
 21
372.941456883949
 31
0.0
  0
ARC
  5
4D59
330
1A
100
AcDbEntity
  8
外形線
 48
10.0
100
AcDbCircle
 10
61.390045212736
 20
383.894739554651
 30
0.0
 40
11.0
100
AcDbArc
 50
180.0
 51
270.0
  0
LINE
  5
4D5A
330
1A
100
AcDbEntity
  8
外形線
 48
10.0
100
AcDbLine
 10
41.390045212736
 20
383.941456883949
 30
0.0
 11
41.390045212736
 21
383.941456883949
 31
0.0
  0
ARC
  5
4D5B
330
1A
100
AcDbEntity
  8
外形線
 48
10.0
100
AcDbCircle
 10
61.390045212736
 20
383.894739554651
 30
0.0
 40
11.0
100
AcDbArc
 50
90.0
 51
180.0
  0
LINE
  5
4D5C
330
1A
100
AcDbEntity
  8
外形線
 48
10.0
100
AcDbLine
 10
246.126912644137
 20
394.941456883949
 30
0.0
 11
201.557658843906
 21
394.941456883949
 31
0.0
  0
ARC
  5
4D5D
330
1A
100
AcDbEntity
  8
細線
 48
10.0
100
AcDbCircle
 10
213.827021409994
 20
378.441456883949
 30
0.0
 40
13.44571522002898
100
AcDbArc
 50
192.892317105158
 51
204.145312225804
  0
ARC
  5
4D5E
330
1A
100
AcDbEntity
  8
細線
 48
10.0
100
AcDbCircle
 10
158.180608408957
 20
389.441456408166
 30
0.0
 40
13.44464714157577
100
AcDbArc
 50
12.893361030079
 51
24.147354872351
  0
ARC
  5
4D5F
330
1A
100
AcDbEntity
  8
細線
 48
10.0
100
AcDbCircle
 10
197.339681625845
 20
379.691456883949
 30
0.0
 40
9.409426936313128
100
AcDbArc
 50
153.148818773033
 51
206.851181226967
  0
ARC
  5
4D60
330
1A
100
AcDbEntity
  8
細線
 48
10.0
100
AcDbCircle
 10
174.666777487586
 20
379.691456883949
 30
0.0
 40
9.409426936319111
100
AcDbArc
 50
333.148818773055
 51
26.851181226945
  0
ARC
  5
4D61
330
1A
100
AcDbEntity
  8
細線
 48
10.0
100
AcDbCircle
 10
180.549825727728
 20
379.691456883949
 30
0.0
 40
9.409426936320505
100
AcDbArc
 50
333.148818773055
 51
26.851181226945
  0
ARC
  5
4D62
330
1A
100
AcDbEntity
  8
細線
 48
10.0
100
AcDbCircle
 10
189.289467805985
 20
378.441457183765
 30
0.0
 40
13.44464631892182
100
AcDbArc
 50
335.852644377744
 51
24.147351999997
  0
ARC
  5
4D63
330
1A
100
AcDbEntity
  8
細線
 48
10.0
100
AcDbCircle
 10
158.180609231609
 20
378.441457183765
 30
0.0
 40
13.44464631892319
100
AcDbArc
 50
335.852644377744
 51
24.147351999997
  0
ARC
  5
4D64
330
1A
100
AcDbEntity
  8
細線
 48
10.0
100
AcDbCircle
 10
191.456633385702
 20
388.191456883949
 30
0.0
 40
9.409426936313837
100
AcDbArc
 50
153.148818773033
 51
206.851181226967
  0
ARC
  5
4D65
330
1A
100
AcDbEntity
  8
細線
 48
10.0
100
AcDbCircle
 10
174.666777487586
 20
388.191456883949
 30
0.0
 40
9.409426936319138
100
AcDbArc
 50
333.148818773055
 51
26.851181226945
  0
ARC
  5
4D66
330
1A
100
AcDbEntity
  8
細線
 48
10.0
100
AcDbCircle
 10
197.339681625845
 20
388.191456883949
 30
0.0
 40
9.409426936312773
100
AcDbArc
 50
153.148818773033
 51
206.851181226967
  0
ARC
  5
4D67
330
1A
100
AcDbEntity
  8
細線
 48
10.0
100
AcDbCircle
 10
182.71698990579
 20
389.441456883949
 30
0.0
 40
13.44464491725928
100
AcDbArc
 50
155.852643100039
 51
204.147356899961
  0
ARC
  5
4D68
330
1A
100
AcDbEntity
  8
細線
 48
10.0
100
AcDbCircle
 10
213.825848480166
 20
389.441456883949
 30
0.0
 40
13.44464491726098
100
AcDbArc
 50
155.852643100039
 51
204.147356899961
  0
ARC
  5
4D6E
330
1A
100
AcDbEntity
  8
細線
 48
10.0
100
AcDbCircle
 10
140.969087017875
 20
389.441456883949
 30
0.0
 40
13.44464491726098
100
AcDbArc
 50
155.852643100039
 51
204.147356899961
  0
ARC
  5
4D6F
330
1A
100
AcDbEntity
  8
細線
 48
10.0
100
AcDbCircle
 10
109.751025265406
 20
389.4180982193
 30
0.0
 40
13.33546219693629
100
AcDbArc
 50
155.752282605285
 51
204.247717394713
  0
ARC
  5
4D70
330
1A
100
AcDbEntity
  8
細線
 48
10.0
100
AcDbCircle
 10
124.482920163554
 20
388.191456883949
 30
0.0
 40
9.409426936312773
100
AcDbArc
 50
153.148818773033
 51
206.851181226967
  0
ARC
  5
4D71
330
1A
100
AcDbEntity
  8
細線
 48
10.0
100
AcDbCircle
 10
101.810016025295
 20
388.191456883949
 30
0.0
 40
9.409426936319138
100
AcDbArc
 50
333.148818773055
 51
26.851181226945
  0
ARC
  5
4D72
330
1A
100
AcDbEntity
  8
細線
 48
10.0
100
AcDbCircle
 10
118.599871923411
 20
388.191456883949
 30
0.0
 40
9.409426936313837
100
AcDbArc
 50
153.148818773033
 51
206.851181226967
  0
ARC
  5
4D73
330
1A
100
AcDbEntity
  8
細線
 48
10.0
100
AcDbCircle
 10
85.214644568363
 20
378.418098520914
 30
0.0
 40
13.55386964725521
100
AcDbArc
 50
335.951387681257
 51
24.048608711802
  0
ARC
  5
4D74
330
1A
100
AcDbEntity
  8
細線
 48
10.0
100
AcDbCircle
 10
116.432706343694
 20
378.441457183765
 30
0.0
 40
13.44464631892182
100
AcDbArc
 50
335.852644377744
 51
24.147351999997
  0
ARC
  5
4D75
330
1A
100
AcDbEntity
  8
細線
 48
10.0
100
AcDbCircle
 10
107.693064265437
 20
379.691456883949
 30
0.0
 40
9.409426936320505
100
AcDbArc
 50
333.148818773055
 51
26.851181226945
  0
ARC
  5
4D76
330
1A
100
AcDbEntity
  8
細線
 48
10.0
100
AcDbCircle
 10
101.810016025295
 20
379.691456883949
 30
0.0
 40
9.409426936319111
100
AcDbArc
 50
333.148818773055
 51
26.851181226945
  0
ARC
  5
4D77
330
1A
100
AcDbEntity
  8
細線
 48
10.0
100
AcDbCircle
 10
124.482920163554
 20
379.691456883949
 30
0.0
 40
9.409426936313128
100
AcDbArc
 50
153.148818773033
 51
206.851181226967
  0
ARC
  5
4D78
330
1A
100
AcDbEntity
  8
細線
 48
10.0
100
AcDbCircle
 10
87.057597957033
 20
389.929015811811
 30
0.0
 40
11.64615199612067
100
AcDbArc
 50
12.458442464368
 51
25.238247931289
  0
ARC
  5
4D79
330
1A
100
AcDbEntity
  8
細線
 48
10.0
100
AcDbCircle
 10
140.970259947703
 20
378.441456883949
 30
0.0
 40
13.44571522002898
100
AcDbArc
 50
192.892317105158
 51
204.145312225804
  0
LINE
  5
4D7A
330
1A
100
AcDbEntity
  8
隠れ線
 48
10.0
100
AcDbLine
 10
278.073247383828
 20
375.441456883949
 30
0.0
 11
311.390045212736
 21
375.441456883949
 31
0.0
  0
LINE
  5
4D7B
330
1A
100
AcDbEntity
  8
隠れ線
 48
10.0
100
AcDbLine
 10
276.398295020819
 20
392.441456883949
 30
0.0
 11
311.390045212736
 21
392.441456883949
 31
0.0
  0
LINE
  5
4D7C
330
1A
100
AcDbEntity
  8
外形線
 48
10.0
100
AcDbLine
 10
277.235771218512
 20
372.941456883949
 30
0.0
 11
311.390045212736
 21
372.941456883949
 31
0.0
  0
LINE
  5
4D7D
330
1A
100
AcDbEntity
  8
外形線
 48
10.0
100
AcDbLine
 10
277.235771218512
 20
394.941456883949
 30
0.0
 11
311.390045212736
 21
394.941456883949
 31
0.0
  0
ARC
  5
4D7E
330
1A
100
AcDbEntity
  8
細線
 48
10.0
100
AcDbCircle
 10
289.5051337846
 20
378.441456883949
 30
0.0
 40
13.44571522002898
100
AcDbArc
 50
192.892317105158
 51
204.145312225804
  0
ARC
  5
4D7F
330
1A
100
AcDbEntity
  8
細線
 48
10.0
100
AcDbCircle
 10
233.858720783562
 20
389.441456408166
 30
0.0
 40
13.44464714157577
100
AcDbArc
 50
12.893361030079
 51
24.147354872351
  0
ARC
  5
4D80
330
1A
100
AcDbEntity
  8
細線
 48
10.0
100
AcDbCircle
 10
273.017794000451
 20
379.691456883949
 30
0.0
 40
9.409426936313128
100
AcDbArc
 50
153.148818773033
 51
206.851181226967
  0
ARC
  5
4D81
330
1A
100
AcDbEntity
  8
細線
 48
10.0
100
AcDbCircle
 10
250.344889862192
 20
379.691456883949
 30
0.0
 40
9.409426936319111
100
AcDbArc
 50
333.148818773055
 51
26.851181226945
  0
ARC
  5
4D82
330
1A
100
AcDbEntity
  8
細線
 48
10.0
100
AcDbCircle
 10
256.227938102334
 20
379.691456883949
 30
0.0
 40
9.409426936320505
100
AcDbArc
 50
333.148818773055
 51
26.851181226945
  0
ARC
  5
4D83
330
1A
100
AcDbEntity
  8
細線
 48
10.0
100
AcDbCircle
 10
264.967580180591
 20
378.441457183765
 30
0.0
 40
13.44464631892182
100
AcDbArc
 50
335.852644377744
 51
24.147351999997
  0
ARC
  5
4D84
330
1A
100
AcDbEntity
  8
細線
 48
10.0
100
AcDbCircle
 10
233.858721606215
 20
378.441457183765
 30
0.0
 40
13.44464631892319
100
AcDbArc
 50
335.852644377744
 51
24.147351999997
  0
ARC
  5
4D85
330
1A
100
AcDbEntity
  8
細線
 48
10.0
100
AcDbCircle
 10
267.134745760308
 20
388.191456883949
 30
0.0
 40
9.409426936313837
100
AcDbArc
 50
153.148818773033
 51
206.851181226967
  0
ARC
  5
4D86
330
1A
100
AcDbEntity
  8
細線
 48
10.0
100
AcDbCircle
 10
250.344889862192
 20
388.191456883949
 30
0.0
 40
9.409426936319138
100
AcDbArc
 50
333.148818773055
 51
26.851181226945
  0
ARC
  5
4D87
330
1A
100
AcDbEntity
  8
細線
 48
10.0
100
AcDbCircle
 10
273.017794000451
 20
388.191456883949
 30
0.0
 40
9.409426936312773
100
AcDbArc
 50
153.148818773033
 51
206.851181226967
  0
ARC
  5
4D88
330
1A
100
AcDbEntity
  8
細線
 48
10.0
100
AcDbCircle
 10
258.395102280395
 20
389.441456883949
 30
0.0
 40
13.44464491725928
100
AcDbArc
 50
155.852643100039
 51
204.147356899961
  0
ARC
  5
4D89
330
1A
100
AcDbEntity
  8
細線
 48
10.0
100
AcDbCircle
 10
289.503960854772
 20
389.441456883949
 30
0.0
 40
13.44464491726098
100
AcDbArc
 50
155.85264310004
 51
204.14735689996
  0
LINE
  5
4D8E
330
1A
100
AcDbEntity
  8
隠れ線
 48
10.0
100
AcDbLine
 10
211.890045212736
 20
375.441456883949
 30
0.0
 11
246.964388809454
 21
375.441456883949
 31
0.0
  0
LINE
  5
4D8F
330
1A
100
AcDbEntity
  8
隠れ線
 48
10.0
100
AcDbLine
 10
211.890045212736
 20
392.441456883949
 30
0.0
 11
245.289436446445
 21
392.441456883949
 31
0.0
  0
LINE
  5
4D90
330
1A
100
AcDbEntity
  8
隠れ線
 48
10.0
100
AcDbLine
 10
311.390045212736
 20
392.441456883949
 30
0.0
 11
311.390045212736
 21
375.441456883949
 31
0.0
  0
LINE
  5
4D91
330
1A
100
AcDbEntity
  8
隠れ線
 48
10.0
100
AcDbLine
 10
211.390045212736
 20
375.941456883949
 30
0.0
 11
211.890045212736
 21
375.441456883949
 31
0.0
  0
LINE
  5
4D92
330
1A
100
AcDbEntity
  8
隠れ線
 48
10.0
100
AcDbLine
 10
211.390045212736
 20
391.941456883949
 30
0.0
 11
211.390045212736
 21
375.941456883949
 31
0.0
  0
LINE
  5
4D93
330
1A
100
AcDbEntity
  8
隠れ線
 48
10.0
100
AcDbLine
 10
211.890045212736
 20
392.441456883949
 30
0.0
 11
211.390045212736
 21
391.941456883949
 31
0.0
  0
DIMENSION
  5
4D94
330
1A
100
AcDbEntity
  8
寸法線
 48
10.0
100
AcDbDimension
  2
*D22
 10
20.70846709528
 20
372.894739554651
 30
0.0
 11
20.70846709528
 21
410.759975775124
 31
0.0
 70
   160
  1
φ<>
  3
ISO-25
100
AcDbAlignedDimension
 13
61.390045212736
 23
394.894739554651
 33
0.0
 14
61.390045212736
 24
372.894739554651
 34
0.0
 50
90.0
100
AcDbRotatedDimension
1001
ACAD
1000
DSTYLE
1002
{
1070
     5
1000
OPEN30
1070
    41
1040
6.0
1070
    47
1040
0.1
1070
    48
1040
0.1
1070
    73
1070
     0
1070
   140
1040
8.0
1070
   271
1070
     1
1070
   272
1070
     1
1070
   341
1005
2AF4
1002
}
  0
DIMENSION
  5
4D95
330
1A
100
AcDbEntity
  8
寸法線
 48
10.0
100
AcDbDimension
  2
*D23
 10
36.70846709528
 20
375.441456883949
 30
0.0
 11
36.70846709528
 21
407.266456883949
 31
0.0
 70
   160
  1
φ<>
  3
ISO-25
100
AcDbAlignedDimension
 13
62.390045212736
 23
392.441456883949
 33
0.0
 14
62.390045212736
 24
375.441456883949
 34
0.0
 50
90.0
100
AcDbRotatedDimension
1001
ACAD
1000
DSTYLE
1002
{
1070
     5
1000
OPEN30
1070
    41
1040
6.0
1070
    47
1040
0.1
1070
    48
1040
0.1
1070
    73
1070
     0
1070
   140
1040
8.0
1070
   271
1070
     1
1070
   272
1070
     1
1070
   341
1005
2AF4
1002
}
  0
LWPOLYLINE
  5
4D96
330
1A
100
AcDbEntity
  8
隠れ線
 48
10.0
100
AcDbPolyline
 90
        6
 70
     0
 43
0.0
 10
96.762805433928
 20
392.441456883949
 10
62.390045212736
 20
392.441456883949
 10
61.390045212736
 20
391.441456883949
 10
61.390045212736
 20
376.441456883949
 10
62.390045212736
 20
375.441456883949
 10
98.437616510399
 20
375.441456883949
  0
LWPOLYLINE
  5
4D97
330
1A
100
AcDbEntity
  8
隠れ線
 48
10.0
100
AcDbPolyline
 90
        4
 70
     0
 43
0.0
 10
200.720182646213
 20
392.441456883949
 10
211.390045212736
 20
392.441456883949
 10
211.390045212736
 20
375.441456883949
 10
202.395135009222
 20
375.441456883949
  0
LINE
  5
4D98
330
1A
100
AcDbEntity
  8
外形線
 48
10.0
100
AcDbLine
 10
61.390045212736
 20
394.894739554651
 30
0.0
 11
97.592038807241
 21
394.894739554651
 31
0.0
  0
LINE
  5
4D99
330
1A
100
AcDbEntity
  8
外形線
 48
10.0
100
AcDbLine
 10
61.390045212736
 20
372.894739554651
 30
0.0
 11
97.592038807241
 21
372.894739554651
 31
0.0
  0
LINE
  5
4DB4
330
1A
100
AcDbEntity
  8
細線
 48
10.0
100
AcDbLine
 10
96.762805433928
 20
392.441456883949
 30
0.0
 11
110.204943974356
 21
392.441456883949
 31
0.0
  0
LINE
  5
4DB5
330
1A
100
AcDbEntity
  8
細線
 48
10.0
100
AcDbLine
 10
116.0879922145
 20
392.441456883949
 30
0.0
 11
127.863421183922
 21
392.441456883949
 31
0.0
  0
LINE
  5
4DB6
330
1A
100
AcDbEntity
  8
細線
 48
10.0
100
AcDbLine
 10
98.437616510399
 20
375.441456883949
 30
0.0
 11
110.204943974356
 21
375.441456883949
 31
0.0
  0
LINE
  5
4DB7
330
1A
100
AcDbEntity
  8
細線
 48
10.0
100
AcDbLine
 10
116.0879922145
 20
375.441456883949
 30
0.0
 11
129.538373546931
 21
375.441456883949
 31
0.0
  0
LINE
  5
4DB8
330
1A
100
AcDbEntity
  8
細線
 48
10.0
100
AcDbLine
 10
169.611324071839
 20
392.441456883949
 30
0.0
 11
183.061705436647
 21
392.441456883948
 31
0.0
  0
LINE
  5
4DB9
330
1A
100
AcDbEntity
  8
細線
 48
10.0
100
AcDbLine
 10
188.944753676791
 20
392.441456883949
 30
0.0
 11
200.720182646213
 21
392.441456883949
 31
0.0
  0
LINE
  5
4DBA
330
1A
100
AcDbEntity
  8
細線
 48
10.0
100
AcDbLine
 10
183.061705436647
 20
375.441456883949
 30
0.0
 11
171.286276434848
 21
375.441456883949
 31
0.0
  0
LINE
  5
4DBC
330
1A
100
AcDbEntity
  8
細線
 48
10.0
100
AcDbLine
 10
188.94475367679
 20
375.441456883949
 30
0.0
 11
202.395135009222
 21
375.441456883949
 31
0.0
  0
LINE
  5
4DBD
330
1A
100
AcDbEntity
  8
細線
 48
10.0
100
AcDbLine
 10
245.289436446445
 20
392.441456883949
 30
0.0
 11
258.739817811253
 21
392.441456883948
 31
0.0
  0
LINE
  5
4DBE
330
1A
100
AcDbEntity
  8
細線
 48
10.0
100
AcDbLine
 10
264.622866051396
 20
392.441456883949
 30
0.0
 11
276.398295020819
 21
392.441456883949
 31
0.0
  0
LINE
  5
4DBF
330
1A
100
AcDbEntity
  8
細線
 48
10.0
100
AcDbLine
 10
246.964388809454
 20
375.441456883949
 30
0.0
 11
258.739817811253
 21
375.441456883949
 31
0.0
  0
LINE
  5
4DC0
330
1A
100
AcDbEntity
  8
細線
 48
10.0
100
AcDbLine
 10
264.622866051396
 20
375.441456883949
 30
0.0
 11
278.073247383828
 21
375.441456883949
 31
0.0
  0
LINE
  5
509A
330
1A
100
AcDbEntity
  8
寸法線
100
AcDbLine
 10
92.639139611643
 20
141.059180386044
 30
0.0
 11
662.598062821636
 21
141.059180386044
 31
0.0
  0
LINE
  5
509B
330
1A
100
AcDbEntity
  8
寸法線
100
AcDbLine
 10
124.639109611643
 20
128.006554278466
 30
0.0
 11
124.639109611643
 21
246.497563139082
 31
0.0
  0
LINE
  5
509C
330
1A
100
AcDbEntity
  8
寸法線
100
AcDbLine
 10
92.639139611643
 20
232.427563139082
 30
0.0
 11
662.598062821636
 21
232.427563139082
 31
0.0
  0
LINE
  5
509D
330
1A
100
AcDbEntity
  8
寸法線
100
AcDbLine
 10
92.639139611643
 20
246.497563139082
 30
0.0
 11
662.598062821636
 21
246.497563139082
 31
0.0
  0
LINE
  5
509E
330
1A
100
AcDbEntity
  8
寸法線
100
AcDbLine
 10
92.639139611643
 20
128.006554278466
 30
0.0
 11
92.639139611643
 21
246.497563139082
 31
0.0
  0
LINE
  5
509F
330
1A
100
AcDbEntity
  8
寸法線
100
AcDbLine
 10
345.199947744826
 20
128.006554278466
 30
0.0
 11
345.199947744826
 21
246.497563139082
 31
0.0
  0
LINE
  5
50A0
330
1A
100
AcDbEntity
  8
寸法線
100
AcDbLine
 10
92.639139611643
 20
206.322310923929
 30
0.0
 11
662.598062821636
 21
206.322310923929
 31
0.0
  0
LINE
  5
50A1
330
1A
100
AcDbEntity
  8
寸法線
100
AcDbLine
 10
92.639139611643
 20
193.269684816352
 30
0.0
 11
662.598062821636
 21
193.269684816352
 31
0.0
  0
LINE
  5
50A2
330
1A
100
AcDbEntity
  8
寸法線
100
AcDbLine
 10
92.639139611643
 20
180.217058708775
 30
0.0
 11
662.598062821636
 21
180.217058708775
 31
0.0
  0
LINE
  5
50A3
330
1A
100
AcDbEntity
  8
寸法線
100
AcDbLine
 10
92.639139611643
 20
167.164432601198
 30
0.0
 11
662.598062821636
 21
167.164432601198
 31
0.0
  0
LINE
  5
50A4
330
1A
100
AcDbEntity
  8
寸法線
100
AcDbLine
 10
92.639139611643
 20
154.111806493621
 30
0.0
 11
662.598062821636
 21
154.111806493621
 31
0.0
  0
LINE
  5
50A5
330
1A
100
AcDbEntity
  8
寸法線
100
AcDbLine
 10
376.956266309115
 20
128.006554278466
 30
0.0
 11
376.956266309115
 21
246.497563139082
 31
0.0
  0
LINE
  5
50A6
330
1A
100
AcDbEntity
  8
寸法線
100
AcDbLine
 10
92.639139611643
 20
219.374937031505
 30
0.0
 11
662.598062821636
 21
219.374937031505
 31
0.0
  0
MTEXT
  5
50A7
102
{ACAD_XDICTIONARY
360
50A8
102
}
330
1A
100
AcDbEntity
  8
寸法線
 48
10.0
100
AcDbMText
 10
165.441100786041
 20
243.640782107688
 30
0.0
 40
8.0
 41
81.603982348796
 71
     2
 72
     5
  1
MODEL\PTSE-A1FA-025\PTSE-A1FA-030\PTSE-A1FA-035\PTSE-A1FA-040\PTSE-A1FA-045\PTSE-A1FA-050\PTSE-A1FA-055\PTSE-A1FA-060
1001
ACADANNOTATIVE
1000
AnnotativeData
1002
{
1070
     1
1070
     0
1002
}
1001
ACAD
1000
MTEXTBEGIN
1070
    44
1040
0.99
1000
MTEXTEND
  0
LINE
  5
50AB
330
1A
100
AcDbEntity
  8
寸法線
 48
10.0
100
AcDbLine
 10
206.243091960439
 20
246.497563139082
 30
0.0
 11
206.243091960439
 21
128.006554278466
 31
0.0
  0
SPLINE
  5
50AD
330
1A
100
AcDbEntity
  8
寸法線
 48
10.0
100
AcDbSpline
210
0.0
220
0.0
230
1.0
 70
  1064
 71
     3
 72
    13
 73
     9
 74
     7
 42
0.000000001
 43
0.0000000001
 44
0.0000000001
 40
0.0
 40
0.0
 40
0.0
 40
0.0
 40
3.546053604694658
 40
9.278996093298932
 40
13.89970108471587
 40
17.09539662994945
 40
18.79470455702454
 40
20.0270469945584
 40
20.0270469945584
 40
20.0270469945584
 40
20.0270469945584
 10
214.6787070104293
 20
235.6163388310686
 30
0.0
 10
215.7332352795077
 20
236.1034675652728
 30
0.0
 10
218.4926305904235
 20
237.3781424928119
 30
0.0
 10
219.1575674967837
 20
246.2765993656305
 30
0.0
 10
215.2242644776373
 20
239.8765125416885
 30
0.0
 10
215.3965006738384
 20
236.62749498312
 30
0.0
 10
217.4687823714878
 20
235.3546759063101
 30
0.0
 10
218.3853864497237
 20
235.8131929901797
 30
0.0
 10
218.7706882297938
 20
236.0059342759783
 30
0.0
 11
214.6787070104293
 21
235.6163388310686
 31
0.0
 11
217.5041224433781
 21
237.7591229542651
 31
0.0
 11
218.1374053365858
 21
243.4569806529809
 31
0.0
 11
215.6529889367276
 21
239.5610096867363
 31
0.0
 11
216.09141592319
 21
236.3955315561267
 31
0.0
 11
217.6015503967508
 21
235.6163388310686
 31
0.0
 11
218.7706882297938
 21
236.0059342759783
 31
0.0
  0
SPLINE
  5
50AE
330
1A
100
AcDbEntity
  8
寸法線
 48
10.0
100
AcDbSpline
210
0.0
220
0.0
230
1.0
 70
  1064
 71
     3
 72
    13
 73
     9
 74
     7
 42
0.000000001
 43
0.0000000001
 44
0.0000000001
 40
0.0
 40
0.0
 40
0.0
 40
0.0
 40
3.546053604694658
 40
9.278996093298932
 40
13.89970108471587
 40
17.09539662994945
 40
18.79470455702454
 40
20.0270469945584
 40
20.0270469945584
 40
20.0270469945584
 40
20.0270469945584
 10
238.9176001146492
 20
235.6163388310686
 30
0.0
 10
239.9721283837275
 20
236.1034675652728
 30
0.0
 10
242.7315236946434
 20
237.3781424928119
 30
0.0
 10
243.3964606010036
 20
246.2765993656305
 30
0.0
 10
239.4631575818572
 20
239.8765125416885
 30
0.0
 10
239.6353937780583
 20
236.62749498312
 30
0.0
 10
241.7076754757077
 20
235.3546759063101
 30
0.0
 10
242.6242795539436
 20
235.8131929901797
 30
0.0
 10
243.0095813340137
 20
236.0059342759783
 30
0.0
 11
238.9176001146492
 21
235.6163388310686
 31
0.0
 11
241.743015547598
 21
237.7591229542651
 31
0.0
 11
242.3762984408057
 21
243.4569806529809
 31
0.0
 11
239.8918820409474
 21
239.5610096867363
 31
0.0
 11
240.3303090274098
 21
236.3955315561267
 31
0.0
 11
241.8404435009707
 21
235.6163388310686
 31
0.0
 11
243.0095813340137
 21
236.0059342759783
 31
0.0
  0
LINE
  5
50AF
330
1A
100
AcDbEntity
  8
寸法線
 48
10.0
100
AcDbLine
 10
232.365555867557
 20
246.497563139082
 30
0.0
 11
232.365555867557
 21
128.006554278466
 31
0.0
  0
LINE
  5
50B0
330
1A
100
AcDbEntity
  8
寸法線
 48
10.0
100
AcDbLine
 10
256.584798247436
 20
246.497563139082
 30
0.0
 11
256.584798247436
 21
128.006554278466
 31
0.0
  0
LINE
  5
50B1
330
1A
100
AcDbEntity
  8
寸法線
 48
10.0
100
AcDbLine
 10
280.804040627314
 20
246.497563139082
 30
0.0
 11
280.804040627314
 21
128.006554278466
 31
0.0
  0
LINE
  5
50B2
330
1A
100
AcDbEntity
  8
寸法線
 48
10.0
100
AcDbLine
 10
306.654615744826
 20
246.497563139082
 30
0.0
 11
306.654615744826
 21
128.006554278466
 31
0.0
  0
TEXT
  5
50B3
330
1A
100
AcDbEntity
  8
寸法線
 48
10.0
100
AcDbText
 10
245.375628912133
 20
235.700666570412
 30
0.0
 40
5.2
  1
1
100
AcDbText
  0
SPLINE
  5
50B4
330
1A
100
AcDbEntity
  8
寸法線
 48
10.0
100
AcDbSpline
210
0.0
220
0.0
230
1.0
 70
  1064
 71
     3
 72
    13
 73
     9
 74
     7
 42
0.000000001
 43
0.0000000001
 44
0.0000000001
 40
0.0
 40
0.0
 40
0.0
 40
0.0
 40
3.546053604694681
 40
9.278996093298952
 40
13.89970108471591
 40
17.09539662994949
 40
18.79470455702458
 40
20.02704699455844
 40
20.02704699455844
 40
20.02704699455844
 40
20.02704699455844
 10
264.7681752321611
 20
235.6163388310686
 30
0.0
 10
265.8227035012394
 20
236.1034675652728
 30
0.0
 10
268.5820988121553
 20
237.3781424928118
 30
0.0
 10
269.2470357185155
 20
246.2765993656306
 30
0.0
 10
265.313732699369
 20
239.8765125416886
 30
0.0
 10
265.4859688955702
 20
236.62749498312
 30
0.0
 10
267.5582505932196
 20
235.3546759063101
 30
0.0
 10
268.4748546714555
 20
235.8131929901797
 30
0.0
 10
268.8601564515255
 20
236.0059342759783
 30
0.0
 11
264.7681752321611
 21
235.6163388310686
 31
0.0
 11
267.5935906651099
 21
237.7591229542651
 31
0.0
 11
268.2268735583175
 21
243.4569806529809
 31
0.0
 11
265.7424571584593
 21
239.5610096867363
 31
0.0
 11
266.1808841449217
 21
236.3955315561267
 31
0.0
 11
267.6910186184825
 21
235.6163388310686
 31
0.0
 11
268.8601564515255
 21
236.0059342759783
 31
0.0
  0
TEXT
  5
50B5
330
1A
100
AcDbEntity
  8
寸法線
 48
10.0
100
AcDbText
 10
271.226204029645
 20
235.700666570412
 30
0.0
 40
5.2
  1
2
100
AcDbText
  0
TEXT
  5
50B6
330
1A
100
AcDbEntity
  8
寸法線
 48
10.0
100
AcDbText
 10
297.076779147157
 20
235.700666570412
 30
0.0
 40
5.2
  1
3
100
AcDbText
  0
SPLINE
  5
50B7
330
1A
100
AcDbEntity
  8
寸法線
 48
10.0
100
AcDbSpline
210
0.0
220
0.0
230
1.0
 70
  1064
 71
     3
 72
    13
 73
     9
 74
     7
 42
0.000000001
 43
0.0000000001
 44
0.0000000001
 40
0.0
 40
0.0
 40
0.0
 40
0.0
 40
3.546053604694681
 40
9.278996093298952
 40
13.89970108471591
 40
17.09539662994949
 40
18.79470455702458
 40
20.02704699455844
 40
20.02704699455844
 40
20.02704699455844
 40
20.02704699455844
 10
290.618750349673
 20
235.6163388310686
 30
0.0
 10
291.6732786187512
 20
236.1034675652728
 30
0.0
 10
294.4326739296671
 20
237.3781424928118
 30
0.0
 10
295.0976108360273
 20
246.2765993656306
 30
0.0
 10
291.1643078168809
 20
239.8765125416886
 30
0.0
 10
291.3365440130821
 20
236.62749498312
 30
0.0
 10
293.4088257107314
 20
235.3546759063101
 30
0.0
 10
294.3254297889673
 20
235.8131929901797
 30
0.0
 10
294.7107315690374
 20
236.0059342759783
 30
0.0
 11
290.618750349673
 21
235.6163388310686
 31
0.0
 11
293.4441657826218
 21
237.7591229542651
 31
0.0
 11
294.0774486758294
 21
243.4569806529809
 31
0.0
 11
291.5930322759712
 21
239.5610096867363
 31
0.0
 11
292.0314592624336
 21
236.3955315561267
 31
0.0
 11
293.5415937359944
 21
235.6163388310686
 31
0.0
 11
294.7107315690374
 21
236.0059342759783
 31
0.0
  0
LINE
  5
50BA
330
1A
100
AcDbEntity
  8
寸法線
100
AcDbLine
 10
379.490766357791
 20
128.006554278466
 30
0.0
 11
379.490766357791
 21
246.497563139082
 31
0.0
  0
MTEXT
  5
50BC
102
{ACAD_XDICTIONARY
360
50BD
102
}
330
1A
100
AcDbEntity
  8
寸法線
 48
10.0
100
AcDbMText
 10
450.34724412858
 20
243.640782107688
 30
0.0
 40
8.0
 41
77.713015541577
 71
     2
 72
     5
  1
MODEL\PTSE-A1FA-065\PTSE-A1FA-070\PTSE-A1FA-075\PTSE-A1FA-080\PTSE-A1FA-085\PTSE-A1FA-090\PTSE-A1FA-095\PTSE-A1FA-100
1001
ACADANNOTATIVE
1000
AnnotativeData
1002
{
1070
     1
1070
     0
1002
}
1001
ACAD
1000
MTEXTBEGIN
1070
    44
1040
0.99
1000
MTEXTEND
  0
SPLINE
  5
50C0
330
1A
100
AcDbEntity
  8
寸法線
 48
10.0
100
AcDbSpline
210
0.0
220
0.0
230
1.0
 70
  1064
 71
     3
 72
    13
 73
     9
 74
     7
 42
0.000000001
 43
0.0000000001
 44
0.0000000001
 40
0.0
 40
0.0
 40
0.0
 40
0.0
 40
3.546053604694681
 40
9.278996093298952
 40
13.89970108471591
 40
17.09539662994949
 40
18.79470455702458
 40
20.02704699455844
 40
20.02704699455844
 40
20.02704699455844
 40
20.02704699455844
 10
500.3205035229504
 20
235.6163388310686
 30
0.0
 10
501.3750317920287
 20
236.1034675652728
 30
0.0
 10
504.1344271029445
 20
237.3781424928118
 30
0.0
 10
504.7993640093048
 20
246.2765993656306
 30
0.0
 10
500.8660609901584
 20
239.8765125416886
 30
0.0
 10
501.0382971863595
 20
236.62749498312
 30
0.0
 10
503.1105788840089
 20
235.3546759063101
 30
0.0
 10
504.0271829622448
 20
235.8131929901797
 30
0.0
 10
504.4124847423149
 20
236.0059342759783
 30
0.0
 11
500.3205035229504
 21
235.6163388310686
 31
0.0
 11
503.1459189558992
 21
237.7591229542651
 31
0.0
 11
503.7792018491069
 21
243.4569806529809
 31
0.0
 11
501.2947854492486
 21
239.5610096867363
 31
0.0
 11
501.733212435711
 21
236.3955315561267
 31
0.0
 11
503.2433469092718
 21
235.6163388310686
 31
0.0
 11
504.4124847423149
 21
236.0059342759783
 31
0.0
  0
SPLINE
  5
50C1
330
1A
100
AcDbEntity
  8
寸法線
 48
10.0
100
AcDbSpline
210
0.0
220
0.0
230
1.0
 70
  1064
 71
     3
 72
    13
 73
     9
 74
     7
 42
0.000000001
 43
0.0000000001
 44
0.0000000001
 40
0.0
 40
0.0
 40
0.0
 40
0.0
 40
3.546053604694681
 40
9.278996093298959
 40
13.89970108471594
 40
17.09539662994952
 40
18.79470455702462
 40
20.02704699455848
 40
20.02704699455848
 40
20.02704699455848
 40
20.02704699455848
 10
524.5593966271703
 20
235.6163388310686
 30
0.0
 10
525.6139248962486
 20
236.1034675652728
 30
0.0
 10
528.3733202071643
 20
237.3781424928119
 30
0.0
 10
529.0382571135249
 20
246.2765993656306
 30
0.0
 10
525.104954094378
 20
239.8765125416884
 30
0.0
 10
525.2771902905795
 20
236.62749498312
 30
0.0
 10
527.3494719882287
 20
235.35467590631
 30
0.0
 10
528.2660760664647
 20
235.8131929901797
 30
0.0
 10
528.6513778465347
 20
236.0059342759783
 30
0.0
 11
524.5593966271703
 21
235.6163388310686
 31
0.0
 11
527.3848120601191
 21
237.7591229542651
 31
0.0
 11
528.0180949533268
 21
243.4569806529809
 31
0.0
 11
525.5336785534685
 21
239.5610096867363
 31
0.0
 11
525.9721055399309
 21
236.3955315561267
 31
0.0
 11
527.4822400134917
 21
235.6163388310686
 31
0.0
 11
528.6513778465347
 21
236.0059342759783
 31
0.0
  0
TEXT
  5
50C2
330
1A
100
AcDbEntity
  8
寸法線
 48
10.0
100
AcDbText
 10
531.017425424654
 20
235.700666570412
 30
0.0
 40
5.2
  1
1
100
AcDbText
  0
SPLINE
  5
50C3
330
1A
100
AcDbEntity
  8
寸法線
 48
10.0
100
AcDbSpline
210
0.0
220
0.0
230
1.0
 70
  1064
 71
     3
 72
    13
 73
     9
 74
     7
 42
0.000000001
 43
0.0000000001
 44
0.0000000001
 40
0.0
 40
0.0
 40
0.0
 40
0.0
 40
3.546053604694681
 40
9.278996093298945
 40
13.89970108471587
 40
17.09539662994945
 40
18.79470455702454
 40
20.0270469945584
 40
20.0270469945584
 40
20.0270469945584
 40
20.0270469945584
 10
550.4099717446821
 20
235.6163388310686
 30
0.0
 10
551.4645000137605
 20
236.1034675652728
 30
0.0
 10
554.223895324676
 20
237.3781424928118
 30
0.0
 10
554.8888322310365
 20
246.2765993656306
 30
0.0
 10
550.9555292118902
 20
239.8765125416886
 30
0.0
 10
551.1277654080911
 20
236.6274949831199
 30
0.0
 10
553.2000471057406
 20
235.3546759063101
 30
0.0
 10
554.1166511839765
 20
235.8131929901797
 30
0.0
 10
554.5019529640466
 20
236.0059342759783
 30
0.0
 11
550.4099717446821
 21
235.6163388310686
 31
0.0
 11
553.235387177631
 21
237.7591229542651
 31
0.0
 11
553.8686700708386
 21
243.4569806529809
 31
0.0
 11
551.3842536709803
 21
239.5610096867363
 31
0.0
 11
551.8226806574428
 21
236.3955315561267
 31
0.0
 11
553.3328151310036
 21
235.6163388310686
 31
0.0
 11
554.5019529640466
 21
236.0059342759783
 31
0.0
  0
TEXT
  5
50C4
330
1A
100
AcDbEntity
  8
寸法線
 48
10.0
100
AcDbText
 10
556.868000542166
 20
235.700666570412
 30
0.0
 40
5.2
  1
2
100
AcDbText
  0
SPLINE
  5
50C5
330
1A
100
AcDbEntity
  8
寸法線
 48
10.0
100
AcDbSpline
210
0.0
220
0.0
230
1.0
 70
  1064
 71
     3
 72
    13
 73
     9
 74
     7
 42
0.000000001
 43
0.0000000001
 44
0.0000000001
 40
0.0
 40
0.0
 40
0.0
 40
0.0
 40
3.546053604694681
 40
9.278996093298945
 40
13.89970108471587
 40
17.09539662994945
 40
18.79470455702454
 40
20.0270469945584
 40
20.0270469945584
 40
20.0270469945584
 40
20.0270469945584
 10
576.260546862194
 20
235.6163388310686
 30
0.0
 10
577.3150751312724
 20
236.1034675652728
 30
0.0
 10
580.0744704421879
 20
237.3781424928118
 30
0.0
 10
580.7394073485484
 20
246.2765993656306
 30
0.0
 10
576.8061043294022
 20
239.8765125416886
 30
0.0
 10
576.978340525603
 20
236.6274949831199
 30
0.0
 10
579.0506222232525
 20
235.3546759063101
 30
0.0
 10
579.9672263014884
 20
235.8131929901797
 30
0.0
 10
580.3525280815585
 20
236.0059342759783
 30
0.0
 11
576.260546862194
 21
235.6163388310686
 31
0.0
 11
579.0859622951428
 21
237.7591229542651
 31
0.0
 11
579.7192451883504
 21
243.4569806529809
 31
0.0
 11
577.2348287884922
 21
239.5610096867363
 31
0.0
 11
577.6732557749547
 21
236.3955315561267
 31
0.0
 11
579.1833902485155
 21
235.6163388310686
 31
0.0
 11
580.3525280815585
 21
236.0059342759783
 31
0.0
  0
TEXT
  5
50C6
330
1A
100
AcDbEntity
  8
寸法線
 48
10.0
100
AcDbText
 10
582.718575659678
 20
235.700666570412
 30
0.0
 40
5.2
  1
3
100
AcDbText
  0
LINE
  5
50C9
330
1A
100
AcDbEntity
  8
寸法線
100
AcDbLine
 10
411.490736357791
 20
128.006554278466
 30
0.0
 11
411.490736357791
 21
246.497563139082
 31
0.0
  0
LINE
  5
50CA
330
1A
100
AcDbEntity
  8
寸法線
 48
10.0
100
AcDbLine
 10
489.203751899369
 20
246.497563139082
 30
0.0
 11
489.203751899369
 21
128.006554278466
 31
0.0
  0
LINE
  5
50CB
330
1A
100
AcDbEntity
  8
寸法線
 48
10.0
100
AcDbLine
 10
516.602527577225
 20
246.497563139082
 30
0.0
 11
516.602527577225
 21
128.006554278466
 31
0.0
  0
LINE
  5
50CC
330
1A
100
AcDbEntity
  8
寸法線
 48
10.0
100
AcDbLine
 10
542.680561664495
 20
246.497563139082
 30
0.0
 11
542.680561664495
 21
128.006554278466
 31
0.0
  0
LINE
  5
50CD
330
1A
100
AcDbEntity
  8
寸法線
 48
10.0
100
AcDbLine
 10
566.445837139835
 20
246.497563139082
 30
0.0
 11
566.445837139835
 21
128.006554278466
 31
0.0
  0
LINE
  5
50CE
330
1A
100
AcDbEntity
  8
寸法線
 48
10.0
100
AcDbLine
 10
592.296412257347
 20
246.497563139082
 30
0.0
 11
592.296412257347
 21
128.006554278466
 31
0.0
  0
LINE
  5
50CF
330
1A
100
AcDbEntity
  8
寸法線
100
AcDbLine
 10
630.841744257347
 20
128.006554278467
 30
0.0
 11
630.841744257347
 21
246.497563139082
 31
0.0
  0
LINE
  5
50D0
330
1A
100
AcDbEntity
  8
寸法線
100
AcDbLine
 10
662.598062821636
 20
128.006554278467
 30
0.0
 11
662.598062821636
 21
246.497563139082
 31
0.0
  0
LINE
  5
50D2
330
1A
100
AcDbEntity
  8
寸法線
100
AcDbLine
 10
92.639139611643
 20
128.006554278466
 30
0.0
 11
662.598062821636
 21
128.006554278467
 31
0.0
  0
MTEXT
  5
50D3
102
{ACAD_XDICTIONARY
360
50D4
102
}
330
1A
100
AcDbEntity
  8
寸法線
 48
10.0
100
AcDbMText
 10
218.328234953027
 20
229.744310171303
 30
0.0
 40
8.0
 41
23.854899029718
 71
     2
 72
     5
  1
250\P300\P350\P400\P450\P500\P550\P600
1001
ACADANNOTATIVE
1000
AnnotativeData
1002
{
1070
     1
1070
     0
1002
}
1001
ACAD
1000
MTEXTBEGIN
1070
    44
1040
0.98
1000
MTEXTEND
  0
MTEXT
  5
50D7
102
{ACAD_XDICTIONARY
360
50D8
102
}
330
1A
100
AcDbEntity
  8
寸法線
 48
10.0
100
AcDbMText
 10
242.762451342051
 20
229.744310171303
 30
0.0
 40
8.0
 41
23.854899029718
 71
     2
 72
     5
  1
100\P100\P100\P100\P100\P100\P150\P150
1001
ACADANNOTATIVE
1000
AnnotativeData
1002
{
1070
     1
1070
     0
1002
}
1001
ACAD
1000
MTEXTBEGIN
1070
    44
1040
0.98
1000
MTEXTEND
  0
MTEXT
  5
50DB
102
{ACAD_XDICTIONARY
360
50DC
102
}
330
1A
100
AcDbEntity
  8
寸法線
 48
10.0
100
AcDbMText
 10
268.592546782235
 20
229.744310171303
 30
0.0
 40
8.0
 41
23.854899029718
 71
     2
 72
     5
  1
50\P50\P50\P50\P50\P50\P50\P50
1001
ACADANNOTATIVE
1000
AnnotativeData
1002
{
1070
     1
1070
     0
1002
}
1001
ACAD
1000
MTEXTBEGIN
1070
    44
1040
0.98
1000
MTEXTEND
  0
MTEXT
  5
50DF
102
{ACAD_XDICTIONARY
360
50E0
102
}
330
1A
100
AcDbEntity
  8
寸法線
 48
10.0
100
AcDbMText
 10
293.080548805283
 20
229.744310171303
 30
0.0
 40
8.0
 41
23.854899029718
 71
     2
 72
     5
  1
100\P150\P200\P250\P300\P350\P350\P400
1001
ACADANNOTATIVE
1000
AnnotativeData
1002
{
1070
     1
1070
     0
1002
}
1001
ACAD
1000
MTEXTBEGIN
1070
    44
1040
0.98
1000
MTEXTEND
  0
MTEXT
  5
50E3
102
{ACAD_XDICTIONARY
360
50E4
102
}
330
1A
100
AcDbEntity
  8
寸法線
 48
10.0
100
AcDbMText
 10
529.297045273726
 20
229.744310171303
 30
0.0
 40
8.0
 41
23.854899029718
 71
     2
 72
     5
  1
150\P150\P150\P150\P150\P150\P150\P150
1001
ACADANNOTATIVE
1000
AnnotativeData
1002
{
1070
     1
1070
     0
1002
}
1001
ACAD
1000
MTEXTBEGIN
1070
    44
1040
0.98
1000
MTEXTEND
  0
MTEXT
  5
50E7
102
{ACAD_XDICTIONARY
360
50E8
102
}
330
1A
100
AcDbEntity
  8
寸法線
 48
10.0
100
AcDbMText
 10
554.289833265855
 20
229.744310171303
 30
0.0
 40
8.0
 41
23.854899029718
 71
     2
 72
     5
  1
50\P50\P50\P50\P50\P50\P50\P50
1001
ACADANNOTATIVE
1000
AnnotativeData
1002
{
1070
     1
1070
     0
1002
}
1001
ACAD
1000
MTEXTBEGIN
1070
    44
1040
0.98
1000
MTEXTEND
  0
MTEXT
  5
50EB
102
{ACAD_XDICTIONARY
360
50EC
102
}
330
1A
100
AcDbEntity
  8
寸法線
 48
10.0
100
AcDbMText
 10
578.528455558169
 20
229.744310171303
 30
0.0
 40
8.0
 41
23.854899029718
 71
     2
 72
     5
  1
450\P500\P550\P600\P650\P700\P750\P800
1001
ACADANNOTATIVE
1000
AnnotativeData
1002
{
1070
     1
1070
     0
1002
}
1001
ACAD
1000
MTEXTBEGIN
1070
    44
1040
0.98
1000
MTEXTEND
  0
MTEXT
  5
50EF
102
{ACAD_XDICTIONARY
360
50F0
102
}
330
1A
100
AcDbEntity
  8
寸法線
 48
10.0
100
AcDbMText
 10
502.795925881966
 20
229.744310171303
 30
0.0
 40
8.0
 41
23.854899029718
 71
     2
 72
     5
  1
650\P700\P750\P800\P850\P900\P950\P1000
1001
ACADANNOTATIVE
1000
AnnotativeData
1002
{
1070
     1
1070
     0
1002
}
1001
ACAD
1000
MTEXTBEGIN
1070
    44
1040
0.98
1000
MTEXTEND
  0
ARC
  5
56FB
330
1A
100
AcDbEntity
  8
寸法線
100
AcDbCircle
 10
259.213406822263
 20
293.453614628172
 30
0.0
 40
1.76059
100
AcDbArc
 50
252.903398883406
 51
337.412611017141
  0
ARC
  5
56FC
330
1A
100
AcDbEntity
  8
寸法線
100
AcDbCircle
 10
254.667386822263
 20
296.774842628173
 30
0.0
 40
5.02039
100
AcDbArc
 50
274.628927150735
 51
33.374029121142
  0
ARC
  5
56FD
330
1A
100
AcDbEntity
  8
寸法線
100
AcDbCircle
 10
254.675808822263
 20
296.775758628172
 30
0.0
 40
5.013138
100
AcDbArc
 50
273.280470979898
 51
33.415912335969
  0
ARC
  5
56FE
330
1A
100
AcDbEntity
  8
寸法線
100
AcDbCircle
 10
261.026394822263
 20
295.770814628172
 30
0.0
 40
4.62938
100
AcDbArc
 50
123.469024399698
 51
239.774013712205
  0
ARC
  5
56FF
330
1A
100
AcDbEntity
  8
寸法線
100
AcDbCircle
 10
261.026394822263
 20
295.770814628172
 30
0.0
 40
4.629386
100
AcDbArc
 50
123.469024399698
 51
239.773899120646
  0
ARC
  5
5700
330
1A
100
AcDbEntity
  8
寸法線
100
AcDbCircle
 10
258.623318822263
 20
299.409364628172
 30
0.0
 40
0.26895
100
AcDbArc
 50
28.230948369042
 51
123.883845843396
  0
TEXT
  5
5701
330
1A
100
AcDbEntity
  8
寸法線
100
AcDbText
 10
261.952236822263
 20
291.163086628172
 30
0.0
 40
4.0
  1
３
 41
0.854632287386
  7
EXCADSTD
 72
     5
 11
264.573109170246
 21
291.163086628172
 31
0.0
100
AcDbText
  0
ARC
  5
5702
330
1A
100
AcDbEntity
  8
寸法線
100
AcDbCircle
 10
187.938153507507
 20
293.047209535264
 30
0.0
 40
1.76059
100
AcDbArc
 50
252.903398883406
 51
337.412611017141
  0
ARC
  5
5703
330
1A
100
AcDbEntity
  8
寸法線
100
AcDbCircle
 10
183.392133507508
 20
296.368497535264
 30
0.0
 40
5.02039
100
AcDbArc
 50
274.628927150735
 51
33.374029121142
  0
ARC
  5
5704
330
1A
100
AcDbEntity
  8
寸法線
100
AcDbCircle
 10
183.400557507508
 20
296.369353535264
 30
0.0
 40
5.013138
100
AcDbArc
 50
273.280470979898
 51
33.415912335969
  0
ARC
  5
5705
330
1A
100
AcDbEntity
  8
寸法線
100
AcDbCircle
 10
189.751143507508
 20
295.364469535264
 30
0.0
 40
4.62938
100
AcDbArc
 50
123.469024399698
 51
239.774013712205
  0
ARC
  5
5706
330
1A
100
AcDbEntity
  8
寸法線
100
AcDbCircle
 10
189.751143507508
 20
295.364469535264
 30
0.0
 40
4.629386
100
AcDbArc
 50
123.469024399698
 51
239.773899120646
  0
ARC
  5
5707
330
1A
100
AcDbEntity
  8
寸法線
100
AcDbCircle
 10
187.348065507508
 20
299.003019535264
 30
0.0
 40
0.26895
100
AcDbArc
 50
28.230948369017
 51
123.883845843401
  0
TEXT
  5
5708
330
1A
100
AcDbEntity
  8
寸法線
100
AcDbText
 10
190.677045507508
 20
290.756681535264
 30
0.0
 40
4.0
  1
２
 41
0.786507233152
  7
EXCADSTD
 72
     5
 11
193.089001022506
 21
290.756681535264
 31
0.0
100
AcDbText
  0
ARC
  5
5709
330
1A
100
AcDbEntity
  8
寸法線
100
AcDbCircle
 10
109.419771703752
 20
292.923387277415
 30
0.0
 40
1.76059
100
AcDbArc
 50
252.903398883406
 51
337.412611017141
  0
ARC
  5
570A
330
1A
100
AcDbEntity
  8
寸法線
100
AcDbCircle
 10
104.873751703752
 20
296.244615277415
 30
0.0
 40
5.02039
100
AcDbArc
 50
274.628927150735
 51
33.374029121142
  0
ARC
  5
570B
330
1A
100
AcDbEntity
  8
寸法線
100
AcDbCircle
 10
104.882113703752
 20
296.245531277415
 30
0.0
 40
5.013138
100
AcDbArc
 50
273.280470979898
 51
33.415912335969
  0
ARC
  5
570C
330
1A
100
AcDbEntity
  8
寸法線
100
AcDbCircle
 10
111.232699703752
 20
295.240587277415
 30
0.0
 40
4.62938
100
AcDbArc
 50
123.469024399698
 51
239.774013712204
  0
ARC
  5
570D
330
1A
100
AcDbEntity
  8
寸法線
100
AcDbCircle
 10
111.232699703752
 20
295.240587277415
 30
0.0
 40
4.629386
100
AcDbArc
 50
123.469024399698
 51
239.773899120646
  0
ARC
  5
570E
330
1A
100
AcDbEntity
  8
寸法線
100
AcDbCircle
 10
108.829623703752
 20
298.879137277415
 30
0.0
 40
0.26895
100
AcDbArc
 50
28.230948369017
 51
123.883845843413
  0
TEXT
  5
570F
330
1A
100
AcDbEntity
  8
寸法線
100
AcDbText
 10
111.758577703752
 20
290.832811277415
 30
0.0
 40
4.0
  1
１
 41
1.5
  7
EXCADSTD
 72
     5
 11
115.758577703752
 21
290.832811277415
 31
0.0
100
AcDbText
  0
ARC
  5
5710
330
1A
100
AcDbEntity
  8
寸法線
100
AcDbCircle
 10
189.280421797241
 20
273.282449168031
 30
0.0
 40
1.76059
100
AcDbArc
 50
252.903398883406
 51
337.412611017141
  0
ARC
  5
5711
330
1A
100
AcDbEntity
  8
寸法線
100
AcDbCircle
 10
184.734401797241
 20
276.603677168031
 30
0.0
 40
5.02039
100
AcDbArc
 50
274.628927150735
 51
33.374029121142
  0
ARC
  5
5712
330
1A
100
AcDbEntity
  8
寸法線
100
AcDbCircle
 10
184.742701797241
 20
276.604593168031
 30
0.0
 40
5.013138
100
AcDbArc
 50
273.280470979895
 51
33.415912335969
  0
ARC
  5
5713
330
1A
100
AcDbEntity
  8
寸法線
100
AcDbCircle
 10
191.093287797241
 20
275.599649168031
 30
0.0
 40
4.62938
100
AcDbArc
 50
123.469024399698
 51
239.774013712205
  0
ARC
  5
5714
330
1A
100
AcDbEntity
  8
寸法線
100
AcDbCircle
 10
191.093287797241
 20
275.599649168031
 30
0.0
 40
4.629386
100
AcDbArc
 50
123.469024399698
 51
239.773899120643
  0
ARC
  5
5715
330
1A
100
AcDbEntity
  8
寸法線
100
AcDbCircle
 10
188.690211797241
 20
279.238199168031
 30
0.0
 40
0.26895
100
AcDbArc
 50
28.230948369017
 51
123.883845843401
  0
MTEXT
  5
5827
330
1A
100
AcDbEntity
  8
寸法線
 48
10.0
100
AcDbMText
 10
74.464854725487
 20
472.273277096844
 30
0.0
 40
8.0
 41
0.0
 71
     9
 72
     1
  1
DETECTING\PELECTRODE\PSUS304
  0
MTEXT
  5
5855
330
1A
100
AcDbEntity
  8
寸法線
 48
10.0
100
AcDbMText
 10
156.004180588584
 20
472.273277096844
 30
0.0
 40
8.0
 41
0.0
 71
     9
 72
     1
  1
INSULATOR\PPOLYACETAL
  0
MTEXT
  5
5884
102
{ACAD_XDICTIONARY
360
5885
102
}
330
1A
100
AcDbEntity
  8
寸法線
 48
10.0
100
AcDbMText
 10
181.679797476281
 20
473.301312268172
 30
0.0
 40
8.0
 41
0.0
 71
     7
 72
     1
  1
ELECTRODE\PPORTION COATED\PTEFLON TUBE
1001
ACADANNOTATIVE
1000
AnnotativeData
1002
{
1070
     1
1070
     0
1002
}
  0
MTEXT
  5
58B5
330
1A
100
AcDbEntity
  8
寸法線
 48
10.0
100
AcDbMText
 10
279.994887051517
 20
472.270475482781
 30
0.0
 40
8.0
 41
0.0
 71
     7
 72
     1
  1
GROUNDING\PELECTRODE\PSUS304
  0
MTEXT
  5
596D
102
{ACAD_XDICTIONARY
360
596E
102
}
330
1A
100
AcDbEntity
  8
寸法線
 48
10.0
100
AcDbMText
 10
344.936558678936
 20
472.458832871926
 30
0.0
 40
8.0
 41
0.0
 71
     7
 72
     1
  1
SETTING SCREW\PR1″\PSUS304
1001
ACADANNOTATIVE
1000
AnnotativeData
1002
{
1070
     1
1070
     0
1002
}
  0
LEADER
  5
59A4
330
1A
100
AcDbEntity
  8
寸法線
 62
     1
 48
10.0
100
AcDbLeader
  3
ISO-25
 76
     3
 10
346.390045212736
 20
405.927484444975
 30
0.0
 10
355.632526631119
 20
453.384436829264
 30
0.0
 10
367.217969856919
 20
453.384436829264
 30
0.0
1001
ACAD
1000
DSTYLE
1002
{
1070
     5
1000
OPEN30
1070
   147
1040
0.625
1070
    77
1070
     0
1070
    41
1040
6.0
1070
    47
1040
0.1
1070
    48
1040
0.1
1070
    73
1070
     0
1070
   140
1040
8.0
1070
   271
1070
     1
1070
   272
1070
     1
1070
   341
1005
2AF4
1070
   342
1005
2AF4
1002
}
  0
MTEXT
  5
59A5
102
{ACAD_XDICTIONARY
360
59A6
102
}
330
1A
100
AcDbEntity
  8
寸法線
 48
10.0
100
AcDbMText
 10
358.231486723259
 20
453.714301439407
 30
0.0
 40
8.0
 41
0.0
 71
     7
 72
     1
  1
S=38
1001
ACADANNOTATIVE
1000
AnnotativeData
1002
{
1070
     1
1070
     0
1002
}
  0
MTEXT
  5
5A11
330
1A
100
AcDbEntity
  8
寸法線
 48
10.0
100
AcDbMText
 10
497.724200742901
 20
472.271496088806
 30
0.0
 40
8.0
 41
0.0
 71
     7
 72
     1
  1
O-RING
  0
TEXT
  5
5A44
330
1A
100
AcDbEntity
  8
寸法線
100
AcDbText
 10
531.00054373077
 20
503.772453443407
 30
0.0
 40
8.0
  1
COLOR：10YR7.5/14
100
AcDbText
  0
LINE
  5
5B11
330
1A
100
AcDbEntity
  8
寸法線
 48
10.0
100
AcDbLine
 10
92.639139611643
 20
232.427563139082
 30
0.0
 11
124.639109611643
 21
246.497563139082
 31
0.0
  0
MTEXT
  5
5B47
102
{ACAD_XDICTIONARY
360
5B48
102
}
330
1A
100
AcDbEntity
  8
寸法線
 48
10.0
100
AcDbMText
 10
314.359404453038
 20
243.279745481056
 30
0.0
 40
8.0
 41
19.321844296148
 71
     1
 72
     5
  1
NOTE
1001
ACADANNOTATIVE
1000
AnnotativeData
1002
{
1070
     1
1070
     0
1002
}
  0
MTEXT
  5
5B4B
102
{ACAD_XDICTIONARY
360
5B4C
102
}
330
1A
100
AcDbEntity
  8
寸法線
 48
10.0
100
AcDbMText
 10
352.519970172537
 20
243.279745481056
 30
0.0
 40
8.0
 41
27.29696969697
 71
     1
 72
     5
  1
Q'ty\P\P 
1001
ACADANNOTATIVE
1000
AnnotativeData
1002
{
1070
     1
1070
     0
1002
}
  0
LINE
  5
5B85
330
1A
100
AcDbEntity
  8
寸法線
 48
10.0
100
AcDbLine
 10
379.490766357791
 20
232.427563139082
 30
0.0
 11
411.490736357791
 21
246.497563139082
 31
0.0
  0
MTEXT
  5
5B86
102
{ACAD_XDICTIONARY
360
5B87
102
}
330
1A
100
AcDbEntity
  8
寸法線
 48
10.0
100
AcDbMText
 10
638.161766685058
 20
243.279745481056
 30
0.0
 40
8.0
 41
27.29696969697
 71
     1
 72
     5
  1
Q'ty\P\P 
1001
ACADANNOTATIVE
1000
AnnotativeData
1002
{
1070
     1
1070
     0
1002
}
  0
MTEXT
  5
5B8A
102
{ACAD_XDICTIONARY
360
5B8B
102
}
330
1A
100
AcDbEntity
  8
寸法線
 48
10.0
100
AcDbMText
 10
600.001200965559
 20
243.279745481056
 30
0.0
 40
8.0
 41
19.321844296148
 71
     1
 72
     5
  1
NOTE
1001
ACADANNOTATIVE
1000
AnnotativeData
1002
{
1070
     1
1070
     0
1002
}
  0
TEXT
  5
5C2E
330
1A
100
AcDbEntity
  8
寸法線
 48
10.0
100
AcDbText
 10
154.054878353367
 20
110.181452773322
 30
0.0
 40
8.0
  1
○（Required length）
100
AcDbText
  0
LEADER
  5
5C2F
330
1A
100
AcDbEntity
  8
寸法線
 48
10.0
100
AcDbLeader
  3
ISO-25
 76
     3
 10
108.931456766226
 20
126.676254403316
 30
0.0
 10
108.931456766226
 20
113.934720841267
 30
0.0
 10
150.279594191237
 20
113.934720841267
 30
0.0
1001
ACAD
1000
DSTYLE
1002
{
1070
     5
1000
OPEN30
1070
   147
1040
0.625
1070
    77
1070
     0
1070
    41
1040
6.0
1070
    47
1040
0.1
1070
    48
1040
0.1
1070
    73
1070
     0
1070
   140
1040
8.0
1070
   271
1070
     1
1070
   272
1070
     1
1070
   341
1005
2AF4
1070
   342
1005
2AF4
1002
}
  0
TEXT
  5
5C30
330
1A
100
AcDbEntity
  8
寸法線
 48
10.0
100
AcDbText
 10
440.906505099515
 20
110.181452773322
 30
0.0
 40
8.0
  1
○（Required length）
100
AcDbText
  0
LEADER
  5
5C31
330
1A
100
AcDbEntity
  8
寸法線
 48
10.0
100
AcDbLeader
  3
ISO-25
 76
     3
 10
395.783083512374
 20
126.676254403316
 30
0.0
 10
395.783083512374
 20
113.934720841267
 30
0.0
 10
437.131220937385
 20
113.934720841267
 30
0.0
1001
ACAD
1000
DSTYLE
1002
{
1070
     5
1000
OPEN30
1070
   147
1040
0.625
1070
    77
1070
     0
1070
    41
1040
6.0
1070
    47
1040
0.1
1070
    48
1040
0.1
1070
    73
1070
     0
1070
   140
1040
8.0
1070
   271
1070
     1
1070
   272
1070
     1
1070
   341
1005
2AF4
1070
   342
1005
2AF4
1002
}
  0
LINE
  5
5DC5
330
1A
100
AcDbEntity
  8
寸法線
100
AcDbLine
 10
-29.631873879862
 20
239.344838596052
 30
0.0
 11
-29.631873879862
 21
230.594838596052
 31
0.0
  0
LINE
  5
5DC6
330
1A
100
AcDbEntity
  8
寸法線
100
AcDbLine
 10
-54.631873879862
 20
205.594838596051
 30
0.0
 11
-54.631873879862
 21
224.344838596052
 31
0.0
  0
LINE
  5
5DC7
330
1A
100
AcDbEntity
  8
寸法線
100
AcDbLine
 10
-25.881873879862
 20
205.594838596052
 30
0.0
 11
-54.631873879862
 21
205.594838596051
 31
0.0
  0
CIRCLE
  5
5DC8
330
1A
100
AcDbEntity
  8
寸法線
100
AcDbCircle
 10
30.368126120138
 20
205.594838596052
 30
0.0
 40
3.75
  0
CIRCLE
  5
5DC9
330
1A
100
AcDbEntity
  8
寸法線
100
AcDbCircle
 10
30.368126120138
 20
205.594838596052
 30
0.0
 40
2.5
  0
CIRCLE
  5
5DCA
330
1A
100
AcDbEntity
  8
寸法線
100
AcDbCircle
 10
5.368126120138
 20
205.594838596052
 30
0.0
 40
2.5
  0
CIRCLE
  5
5DCB
330
1A
100
AcDbEntity
  8
寸法線
100
AcDbCircle
 10
5.368126120138
 20
205.594838596052
 30
0.0
 40
3.75
  0
CIRCLE
  5
5DCC
330
1A
100
AcDbEntity
  8
寸法線
100
AcDbCircle
 10
-19.631873879862
 20
205.594838596052
 30
0.0
 40
2.5
  0
CIRCLE
  5
5DCD
330
1A
100
AcDbEntity
  8
寸法線
100
AcDbCircle
 10
-19.631873879862
 20
205.594838596052
 30
0.0
 40
3.75
  0
LINE
  5
5DCE
330
1A
100
AcDbEntity
  8
寸法線
100
AcDbLine
 10
40.368126120138
 20
230.594838596052
 30
0.0
 11
40.368126120138
 21
239.344838596052
 31
0.0
  0
LINE
  5
5DCF
330
1A
100
AcDbEntity
  8
寸法線
100
AcDbLine
 10
40.368126120138
 20
230.594838596052
 30
0.0
 11
-29.631873879862
 21
230.594838596052
 31
0.0
  0
LINE
  5
5DD0
330
1A
100
AcDbEntity
  8
寸法線
100
AcDbLine
 10
36.618126120138
 20
205.594838596052
 30
0.0
 11
65.368126120138
 21
205.594838596052
 31
0.0
  0
LINE
  5
5DD1
330
1A
100
AcDbEntity
  8
寸法線
100
AcDbLine
 10
65.368126120138
 20
205.594838596052
 30
0.0
 11
65.368126120138
 21
224.344838596052
 31
0.0
  0
LINE
  5
5DD2
330
1A
100
AcDbEntity
  8
寸法線
100
AcDbLine
 10
30.368126120138
 20
230.594838596052
 30
0.0
 11
30.368126120138
 21
209.344838596052
 31
0.0
  0
LINE
  5
5DD3
330
1A
100
AcDbEntity
  8
寸法線
100
AcDbLine
 10
5.368126120138
 20
230.594838596052
 30
0.0
 11
5.368126120138
 21
209.344838596052
 31
0.0
  0
LINE
  5
5DD4
330
1A
100
AcDbEntity
  8
寸法線
100
AcDbLine
 10
-19.631873879862
 20
230.594838596052
 30
0.0
 11
-19.631873879862
 21
209.344838596052
 31
0.0
  0
TEXT
  5
5DD5
330
1A
100
AcDbEntity
  8
寸法線
100
AcDbText
 10
-25.881873879862
 20
189.657338596052
 30
0.0
 40
8.75
  1
B1
100
AcDbText
  0
TEXT
  5
5DD6
330
1A
100
AcDbEntity
  8
寸法線
100
AcDbText
 10
-0.881873879862
 20
189.657338596052
 30
0.0
 40
8.75
  1
NO
100
AcDbText
  0
TEXT
  5
5DD7
330
1A
100
AcDbEntity
  8
寸法線
100
AcDbText
 10
24.118126120138
 20
189.657338596052
 30
0.0
 40
8.75
  1
B2
100
AcDbText
  0
LINE
  5
5DD8
330
1A
100
AcDbEntity
  8
寸法線
100
AcDbLine
 10
30.368126120138
 20
188.094838596052
 30
0.0
 11
30.368126120138
 21
168.094838596052
 31
0.0
  0
LINE
  5
5DD9
330
1A
100
AcDbEntity
  8
寸法線
100
AcDbLine
 10
25.368126120138
 20
163.094838596052
 30
0.0
 11
-54.631873879862
 21
163.094838596052
 31
0.0
  0
ARC
  5
5DDA
330
1A
100
AcDbEntity
  8
寸法線
100
AcDbCircle
 10
25.368126120138
 20
168.094838596052
 30
0.0
 40
5.0
100
AcDbArc
 50
270.0
 51
0.0
  0
ARC
  5
5DDB
330
1A
100
AcDbEntity
  8
寸法線
100
AcDbCircle
 10
0.368126120138
 20
168.094838596052
 30
0.0
 40
5.0
100
AcDbArc
 50
270.0
 51
0.0
  0
LINE
  5
5DDC
330
1A
100
AcDbEntity
  8
寸法線
100
AcDbLine
 10
5.368126120138
 20
188.094838596052
 30
0.0
 11
5.368126120138
 21
168.094838596052
 31
0.0
  0
ARC
  5
5DDD
330
1A
100
AcDbEntity
  8
寸法線
100
AcDbCircle
 10
-24.631873879862
 20
168.094838596052
 30
0.0
 40
5.0
100
AcDbArc
 50
270.0
 51
0.0
  0
LINE
  5
5DDE
330
1A
100
AcDbEntity
  8
寸法線
100
AcDbLine
 10
-19.631873879862
 20
188.094838596052
 30
0.0
 11
-19.631873879862
 21
168.094838596052
 31
0.0
  0
MTEXT
  5
5DDF
102
{ACAD_XDICTIONARY
360
5DE0
102
}
330
1A
100
AcDbEntity
  8
寸法線
 48
10.0
100
AcDbMText
 10
-57.668873143486
 20
159.387817732556
 30
0.0
 40
8.0
 41
0.0
 71
     9
 72
     1
  1
CONVERTOR
1001
ACADANNOTATIVE
1000
AnnotativeData
1002
{
1070
     1
1070
     0
1002
}
  0
MTEXT
  5
5DE3
102
{ACAD_XDICTIONARY
360
5DE4
102
}
330
1A
100
AcDbEntity
  8
寸法線
 48
10.0
100
AcDbMText
 10
-109.627355815645
 20
98.478144313715
 30
0.0
 40
8.0
 41
0.0
 71
     1
 72
     1
  1
INTRINSIC SAFETY TYPE OF EXPLOTION-PROTECTION\PExplotion class and Ignition of explosive gases:ia3nG5
1001
ACADANNOTATIVE
1000
AnnotativeData
1002
{
1070
     1
1070
     0
1002
}
  0
MTEXT
  5
5E15
330
1A
100
AcDbEntity
  8
寸法線
 48
10.0
100
AcDbMText
 10
509.014878817952
 20
290.570347962994
 30
0.0
 40
8.0
 41
0.0
 71
     7
 72
     1
  1
CONDUIT\PG 1/2"
  0
LEADER
  5
5E16
330
1A
100
AcDbEntity
  8
寸法線
 48
10.0
100
AcDbLeader
  3
ISO-25
 76
     3
 10
443.401166639801
 20
318.429136648353
 30
0.0
 10
507.002037888053
 20
289.820198424568
 30
0.0
 10
544.79856869955
 20
289.820198424568
 30
0.0
1001
ACAD
1000
DSTYLE
1002
{
1070
     5
1000
OPEN30
1070
   147
1040
0.625
1070
    77
1070
     0
1070
    41
1040
6.0
1070
    47
1040
0.1
1070
    48
1040
0.1
1070
    73
1070
     0
1070
   140
1040
8.0
1070
   271
1070
     1
1070
   272
1070
     1
1070
   341
1005
2AF4
1070
   342
1005
2AF4
1002
}
  0
VIEWPORT
  5
2902
330
28FB
100
AcDbEntity
 67
     1
  8
0
 48
10.0
100
AcDbViewport
 10
0.0
 20
0.0
 30
0.0
 40
553.688825541619
 41
300.3
 68
     1
 69
     1
1001
ACAD
1000
MVIEW
1002
{
1070
    16
1010
0.0
1020
0.0
1030
0.0
1010
0.0
1020
0.0
1030
1.0
1040
0.0
1040
300.3
1040
205.756503333333
1040
143.551503333333
1040
50.0
1040
0.0
1040
0.0
1070
    16
1070
   100
1070
     0
1070
     1
1070
     0
1070
     0
1070
     0
1070
     0
1040
0.0
1040
0.0
1040
0.0
1040
10.0
1040
10.0
1040
10.0
1040
10.0
1070
     0
1002
{
1002
}
1002
}
  0
VIEWPORT
  5
2904
330
28FB
100
AcDbEntity
 67
     1
  8
図枠太線
 48
10.0
100
AcDbViewport
 10
204.746305129083
 20
162.478723388613
 30
0.0
 40
400.0
 41
240.0
 68
     2
 69
     2
1001
ACAD
1000
MVIEW
1002
{
1070
    16
1010
0.0
1020
0.0
1030
0.0
1010
0.0
1020
0.0
1030
1.0
1040
0.0
1040
480.000003226523
1040
277.781401791465
1040
292.270343596077
1040
50.0
1040
0.0
1040
0.0
1070
    16
1070
   100
1070
     0
1070
     0
1070
     0
1070
     0
1070
     0
1070
     0
1040
0.0
1040
0.0
1040
0.0
1040
1.0
1040
1.0
1040
0.0
1040
0.0
1070
     0
1002
{
1002
}
1002
}
  0
INSERT
  5
2A59
330
28FB
100
AcDbEntity
 67
     1
  8
図枠太線
100
AcDbBlockReference
  2
A3横用_タイトル
 10
-0.352109406709
 20
-1.047236364914
 30
0.0
  0
MTEXT
  5
52BD
102
{ACAD_XDICTIONARY
360
52BE
102
}
330
28FB
100
AcDbEntity
 67
     1
  8
寸法線
 48
10.0
100
AcDbMText
 10
310.214176586136
 20
34.045869829973
 30
0.0
 40
5.0
 41
58.239684951579
 71
     1
 72
     5
  1
TSE-A1FA-□
1001
ACADANNOTATIVE
1000
AnnotativeData
1002
{
1070
     1
1070
     0
1002
}
  0
MTEXT
  5
52C9
330
28FB
100
AcDbEntity
 67
     1
  8
寸法線
 48
10.0
100
AcDbMText
 10
149.12611673873
 20
15.337322955895
 30
0.0
 40
5.0
 41
11.452149180996
 71
     1
 72
     5
  1
{\H1.4x;1:2}
  0
LWPOLYLINE
  5
52CB
330
28FB
100
AcDbEntity
 67
     1
  8
下書線
 48
10.0
100
AcDbPolyline
 90
        4
 70
     1
 43
0.0
 10
168.014244902009
 20
115.609017321589
 10
351.693389913893
 20
115.609017321589
 10
351.693389913893
 20
100.860124249069
 10
168.014244902009
 20
100.860124249069
  0
MTEXT
  5
52CC
102
{ACAD_XDICTIONARY
360
52CD
102
}
330
28FB
100
AcDbEntity
 67
     1
  8
下書線
 48
10.0
100
AcDbMText
 10
171.884665722094
 20
113.141585449895
 30
0.0
 40
8.0
 41
202.250202097325
 71
     1
 72
     1
  1
ホームページ用　L寸指定追記・変更不可
1001
ACADANNOTATIVE
1000
AnnotativeData
1002
{
1070
     1
1070
     0
1002
}
  0
MTEXT
  5
52D0
102
{ACAD_XDICTIONARY
360
52D1
102
}
330
28FB
100
AcDbEntity
 67
     1
  8
寸法線
 48
10.0
100
AcDbMText
 10
173.844001466027
 20
33.208977450757
 30
0.0
 40
5.0
 41
31.372065131184
 71
     1
 72
     5
  1
takahashi
1001
ACADANNOTATIVE
1000
AnnotativeData
1002
{
1070
     1
1070
     0
1002
}
  0
MTEXT
  5
55F5
102
{ACAD_XDICTIONARY
360
55F6
102
}
330
28FB
100
AcDbEntity
 67
     1
  8
寸法線
 48
10.0
100
AcDbMText
 10
338.952685188947
 20
16.576011052622
 30
0.0
 40
8.0
 41
33.206594841881
 71
     1
 72
     5
  1
HE-14015
1001
ACADANNOTATIVE
1000
AnnotativeData
1002
{
1070
     1
1070
     0
1002
}
  0
MTEXT
  5
5BC2
102
{ACAD_XDICTIONARY
360
5BC3
102
}
330
28FB
100
AcDbEntity
 67
     1
  8
寸法線
 48
10.0
100
AcDbMText
 10
377.920856708546
 20
51.716301855813
 30
0.0
 40
5.0
 41
21.364427237501
 71
     1
 72
     5
  1
Q'ty: 
1001
ACADANNOTATIVE
1000
AnnotativeData
1002
{
1070
     1
1070
     0
1002
}
  0
MTEXT
  5
5BC6
330
28FB
100
AcDbEntity
 67
     1
  8
寸法線
 48
10.0
100
AcDbMText
 10
210.548677740965
 20
52.267757063311
 30
0.0
 40
5.0
 41
106.699923235854
 71
     1
 72
     5
  1
a reduced drawing（A3size～）
  0
LINE
  5
5BC7
330
28FB
100
AcDbEntity
 67
     1
  8
寸法線
 48
10.0
100
AcDbLine
 10
206.834699746824
 20
45.412369481985
 30
0.0
 11
303.487818087333
 21
45.412369481985
 31
0.0
  0
MTEXT
  5
5BC8
330
28FB
100
AcDbEntity
 67
     1
  8
寸法線
 48
10.0
100
AcDbMText
 10
355.513675447435
 20
37.311834074457
 30
0.0
 40
4.0
 41
59.837375094616
 71
     1
 72
     5
  1
CAPACITANCE TYPE\PLEVEL SENSOR
  0
MTEXT
  5
5F5D
102
{ACAD_XDICTIONARY
360
5F5E
102
}
330
28FB
100
AcDbEntity
 67
     1
  8
寸法線
 48
10.0
100
AcDbMText
 10
175.484603081977
 20
13.460333502995
 30
0.0
 40
4.0
 41
31.372065131184
 71
     1
 72
     5
  1
Sep,26,2016
1001
ACADANNOTATIVE
1000
AnnotativeData
1002
{
1070
     1
1070
     0
1002
}
  0
ENDSEC
  0
SECTION
  2
OBJECTS
  0
DICTIONARY
  5
C
330
0
100
AcDbDictionary
  3
ACAD_COLOR
350
2948
  3
ACAD_GROUP
350
D
  3
ACAD_LAYOUT
350
2816
  3
ACAD_MATERIAL
350
2947
  3
ACAD_MLEADERSTYLE
350
4C68
  3
ACAD_MLINESTYLE
350
E
  3
ACAD_PLOTSETTINGS
350
2817
  3
ACAD_SCALELIST
350
4C41
  3
ACAD_VISUALSTYLE
350
4C28
  3
ACADDIM
350
4312
  3
ACDBHEADERROUNDTRIPXREC
350
6075
  3
ACDBVARIABLEDICTIONARY
350
516C
  3
DWGPROPS
350
609A
  0
DICTIONARY
  5
609B
330
8
100
AcDbDictionary
280
     1
  3
ACAD_XREC_ROUNDTRIP
360
609C
  0
DICTIONARY
  5
29EA
330
2
100
AcDbDictionary
280
     1
  3
ACAD_LAYERFILTERS
360
2B0C
  3
ACAD_LAYERSTATES
360
29EB
  0
DICTIONARY
  5
5A12
330
4279
100
AcDbDictionary
280
     1
  3
ACDBCONTEXTDATAMANAGER
360
5A13
  0
DICTIONARY
  5
59E1
330
427B
100
AcDbDictionary
280
     1
  3
ACDBCONTEXTDATAMANAGER
360
59E2
  0
DICTIONARY
  5
50A8
330
50A7
100
AcDbDictionary
280
     1
  3
ACDBCONTEXTDATAMANAGER
360
50A9
  0
DICTIONARY
  5
50BD
330
50BC
100
AcDbDictionary
280
     1
  3
ACDBCONTEXTDATAMANAGER
360
50BE
  0
DICTIONARY
  5
50D4
330
50D3
100
AcDbDictionary
280
     1
  3
ACDBCONTEXTDATAMANAGER
360
50D5
  0
DICTIONARY
  5
50D8
330
50D7
100
AcDbDictionary
280
     1
  3
ACDBCONTEXTDATAMANAGER
360
50D9
  0
DICTIONARY
  5
50DC
330
50DB
100
AcDbDictionary
280
     1
  3
ACDBCONTEXTDATAMANAGER
360
50DD
  0
DICTIONARY
  5
50E0
330
50DF
100
AcDbDictionary
280
     1
  3
ACDBCONTEXTDATAMANAGER
360
50E1
  0
DICTIONARY
  5
50E4
330
50E3
100
AcDbDictionary
280
     1
  3
ACDBCONTEXTDATAMANAGER
360
50E5
  0
DICTIONARY
  5
50E8
330
50E7
100
AcDbDictionary
280
     1
  3
ACDBCONTEXTDATAMANAGER
360
50E9
  0
DICTIONARY
  5
50EC
330
50EB
100
AcDbDictionary
280
     1
  3
ACDBCONTEXTDATAMANAGER
360
50ED
  0
DICTIONARY
  5
50F0
330
50EF
100
AcDbDictionary
280
     1
  3
ACDBCONTEXTDATAMANAGER
360
50F1
  0
DICTIONARY
  5
5885
330
5884
100
AcDbDictionary
280
     1
  3
ACDBCONTEXTDATAMANAGER
360
5886
  0
DICTIONARY
  5
596E
330
596D
100
AcDbDictionary
280
     1
  3
ACDBCONTEXTDATAMANAGER
360
596F
  0
DICTIONARY
  5
59A6
330
59A5
100
AcDbDictionary
280
     1
  3
ACDBCONTEXTDATAMANAGER
360
59A7
  0
DICTIONARY
  5
5B48
330
5B47
100
AcDbDictionary
280
     1
  3
ACDBCONTEXTDATAMANAGER
360
5B49
  0
DICTIONARY
  5
5B4C
330
5B4B
100
AcDbDictionary
280
     1
  3
ACDBCONTEXTDATAMANAGER
360
5B4D
  0
DICTIONARY
  5
5B87
330
5B86
100
AcDbDictionary
280
     1
  3
ACDBCONTEXTDATAMANAGER
360
5B88
  0
DICTIONARY
  5
5B8B
330
5B8A
100
AcDbDictionary
280
     1
  3
ACDBCONTEXTDATAMANAGER
360
5B8C
  0
DICTIONARY
  5
5DE0
330
5DDF
100
AcDbDictionary
280
     1
  3
ACDBCONTEXTDATAMANAGER
360
5DE1
  0
DICTIONARY
  5
5DE4
330
5DE3
100
AcDbDictionary
280
     1
  3
ACDBCONTEXTDATAMANAGER
360
5DE5
  0
DICTIONARY
  5
52BE
330
52BD
100
AcDbDictionary
280
     1
  3
ACDBCONTEXTDATAMANAGER
360
52BF
  0
DICTIONARY
  5
52CD
330
52CC
100
AcDbDictionary
280
     1
  3
ACDBCONTEXTDATAMANAGER
360
52CE
  0
DICTIONARY
  5
52D1
330
52D0
100
AcDbDictionary
280
     1
  3
ACDBCONTEXTDATAMANAGER
360
52D2
  0
DICTIONARY
  5
55F6
330
55F5
100
AcDbDictionary
280
     1
  3
ACDBCONTEXTDATAMANAGER
360
55F7
  0
DICTIONARY
  5
5BC3
330
5BC2
100
AcDbDictionary
280
     1
  3
ACDBCONTEXTDATAMANAGER
360
5BC4
  0
DICTIONARY
  5
5F5E
330
5F5D
100
AcDbDictionary
280
     1
  3
ACDBCONTEXTDATAMANAGER
360
5F5F
  0
DICTIONARY
  5
2948
102
{ACAD_REACTORS
330
C
102
}
330
C
100
AcDbDictionary
  0
DICTIONARY
  5
D
102
{ACAD_REACTORS
330
C
102
}
330
C
100
AcDbDictionary
  0
DICTIONARY
  5
2816
102
{ACAD_REACTORS
330
C
102
}
330
C
100
AcDbDictionary
  0
DICTIONARY
  5
2947
102
{ACAD_REACTORS
330
C
102
}
330
C
100
AcDbDictionary
  3
BYBLOCK
350
4C64
  3
BYLAYER
350
4C63
  3
GLOBAL
350
4C65
  0
DICTIONARY
  5
4C68
102
{ACAD_REACTORS
330
C
102
}
330
C
100
AcDbDictionary
  3
STANDARD
350
4C69
  0
DICTIONARY
  5
E
102
{ACAD_REACTORS
330
C
102
}
330
C
100
AcDbDictionary
  3
STANDARD
350
13
  0
DICTIONARY
  5
2817
102
{ACAD_REACTORS
330
C
102
}
330
C
100
AcDbDictionary
  0
DICTIONARY
  5
4C41
102
{ACAD_REACTORS
330
C
102
}
330
C
100
AcDbDictionary
  3
A0
350
4C42
  3
A1
350
4C43
  3
A2
350
4C44
  3
A3
350
4C45
  3
A4
350
4C46
  3
A5
350
4C47
  3
A6
350
4C48
  3
A7
350
4C49
  3
A8
350
4C4A
  3
A9
350
4C4B
  3
B0
350
4C4C
  3
B1
350
4C4D
  3
B2
350
4C4E
  3
B3
350
4C4F
  3
B4
350
4C50
  3
B5
350
4C51
  3
B6
350
4C52
  3
B7
350
4C53
  3
B8
350
4C54
  3
B9
350
4C55
  3
C0
350
4C56
  3
C1
350
4C57
  3
C2
350
4C58
  3
C3
350
4C59
  3
C4
350
4C5A
  3
C5
350
4C5B
  3
C6
350
4C5C
  3
C7
350
4C5D
  3
C8
350
4C5E
  3
C9
350
4C5F
  3
D0
350
4C60
  3
D1
350
4C61
  3
D2
350
4C62
  0
DICTIONARY
  5
4C28
102
{ACAD_REACTORS
330
C
102
}
330
C
100
AcDbDictionary
  3
2DWIREFRAME
350
4C2D
  3
BASIC
350
4C30
  3
BRIGHTEN
350
4C34
  3
COLORCHANGE
350
4C38
  3
CONCEPTUAL
350
4C32
  3
DIM
350
4C33
  3
EDGECOLOROFF
350
4C3B
  3
FACEPATTERN
350
4C37
  3
FLAT
350
4C29
  3
FLATWITHEDGES
350
4C2A
  3
GOURAUD
350
4C2B
  3
GOURAUDWITHEDGES
350
4C2C
  3
HIDDEN
350
4C2F
  3
JITTEROFF
350
4C39
  3
LINEPATTERN
350
4C36
  3
MODELING
350
4C6A
  3
OVERHANGOFF
350
4C3A
  3
REALISTIC
350
4C31
  3
SHADED
350
4C40
  3
SHADED_WITH_EDGES
350
4C3F
  3
SHADES_OF_GRAY
350
4C3C
  3
SKETCHY
350
4C3D
  3
THICKEN
350
4C35
  3
WIREFRAME
350
4C2E
  3
X-RAY
350
4C3E
  0
XRECORD
  5
4312
102
{ACAD_REACTORS
330
C
102
}
330
C
100
AcDbXrecord
 90
   990106
  3

 60
     0
 61
     0
 62
     4
 63
     4
 64
     0
 65
     0
 66
     0
 67
     3
 68
     1
 69
     0
 70
     0
 71
     0
 72
     0
 40
0.0
170
     2
340
0
  0
DICTIONARY
  5
6075
102
{ACAD_REACTORS
330
C
102
}
330
C
100
AcDbDictionary
  3
CEPSNID
350
607F
  3
CEPSNTYPE
350
607E
  3
COLORDICT
350
6098
  3
DIMSTYLEDATA
350
6095
  3
FINGERPRINTGUID
350
6080
  3
HYPERLINKBASE
350
6078
  3
INSUNITS
350
607D
  3
LAYOUTDICT
350
607A
  3
LWETCUNION
350
607C
  3
MATERIALDICT
350
6099
  3
PLOTSETDICT
350
607B
  3
PSVPSCALE
350
6082
  3
PUCSBASE
350
6085
  3
PUCSORGBACK
350
608B
  3
PUCSORGBOTTOM
350
6087
  3
PUCSORGFRONT
350
608A
  3
PUCSORGLEFT
350
6088
  3
PUCSORGRIGHT
350
6089
  3
PUCSORGTOP
350
6086
  3
PUCSORTHOREF
350
6083
  3
PUCSORTHOVIEW
350
6084
  3
STYLESHEET
350
6079
  3
TSTACKALIGN
350
6076
  3
TSTACKSIZE
350
6077
  3
UCSBASE
350
608E
  3
UCSORGBACK
350
6094
  3
UCSORGBOTTOM
350
6090
  3
UCSORGFRONT
350
6093
  3
UCSORGLEFT
350
6091
  3
UCSORGRIGHT
350
6092
  3
UCSORGTOP
350
608F
  3
UCSORTHOREF
350
608C
  3
UCSORTHOVIEW
350
608D
  3
VERSIONGUID
350
6081
  0
DICTIONARY
  5
516C
102
{ACAD_REACTORS
330
C
102
}
330
C
100
AcDbDictionary
  3
CANNOSCALE
350
516D
  3
CMLEADERSTYLE
350
51AE
  3
CTABLESTYLE
350
51AD
  3
DIMASSOC
350
6096
  3
HIDETEXT
350
6097
  3
MSLTSCALE
350
51AF
  3
XCLIPFRAME
350
51B0
  0
XRECORD
  5
609A
102
{ACAD_REACTORS
330
C
102
}
330
C
100
AcDbXrecord
  1
DWGPROPS COOKIE
  2

  3

  4

  6

  7

  8
takahashi
  9

300
=
301
=
302
=
303
=
304
=
305
=
306
=
307
=
308
=
309
=
 40
0.0
 41
2450576.222302431
 42
2457661.241099305
  1

 90
        0
  0
XRECORD
  5
609C
102
{ACAD_REACTORS
330
609B
102
}
330
609B
100
AcDbXrecord
102
VTR_0.000_0.000_1.000_1.000_VISUALSTYLE
340
4C2D
102
VTR_0.000_0.000_1.000_1.000_GRIDDISPLAY
 70
     3
102
VTR_0.000_0.000_1.000_1.000_GRIDMAJOR
 70
     5
102
VTR_0.000_0.000_1.000_1.000_DEFAULTLIGHTING
280
     1
102
VTR_0.000_0.000_1.000_1.000_DEFAULTLIGHTINGTYPE
 70
     1
102
VTR_0.000_0.000_1.000_1.000_BRIGHTNESS
141
0.0
102
VTR_0.000_0.000_1.000_1.000_CONTRAST
142
0.0
  0
DICTIONARY
  5
2B0C
102
{ACAD_REACTORS
330
29EA
102
}
330
29EA
100
AcDbDictionary
  0
DICTIONARY
  5
29EB
102
{ACAD_REACTORS
330
29EA
102
}
330
29EA
100
AcDbDictionary
  0
DICTIONARY
  5
5A13
102
{ACAD_REACTORS
330
5A12
102
}
330
5A12
100
AcDbDictionary
  3
ACDB_ANNOTATIONSCALES
350
5A14
  0
DICTIONARY
  5
59E2
102
{ACAD_REACTORS
330
59E1
102
}
330
59E1
100
AcDbDictionary
  3
ACDB_ANNOTATIONSCALES
350
59E3
  0
DICTIONARY
  5
50A9
102
{ACAD_REACTORS
330
50A8
102
}
330
50A8
100
AcDbDictionary
  3
ACDB_ANNOTATIONSCALES
350
50AA
  0
DICTIONARY
  5
50BE
102
{ACAD_REACTORS
330
50BD
102
}
330
50BD
100
AcDbDictionary
  3
ACDB_ANNOTATIONSCALES
350
50BF
  0
DICTIONARY
  5
50D5
102
{ACAD_REACTORS
330
50D4
102
}
330
50D4
100
AcDbDictionary
  3
ACDB_ANNOTATIONSCALES
350
50D6
  0
DICTIONARY
  5
50D9
102
{ACAD_REACTORS
330
50D8
102
}
330
50D8
100
AcDbDictionary
  3
ACDB_ANNOTATIONSCALES
350
50DA
  0
DICTIONARY
  5
50DD
102
{ACAD_REACTORS
330
50DC
102
}
330
50DC
100
AcDbDictionary
  3
ACDB_ANNOTATIONSCALES
350
50DE
  0
DICTIONARY
  5
50E1
102
{ACAD_REACTORS
330
50E0
102
}
330
50E0
100
AcDbDictionary
  3
ACDB_ANNOTATIONSCALES
350
50E2
  0
DICTIONARY
  5
50E5
102
{ACAD_REACTORS
330
50E4
102
}
330
50E4
100
AcDbDictionary
  3
ACDB_ANNOTATIONSCALES
350
50E6
  0
DICTIONARY
  5
50E9
102
{ACAD_REACTORS
330
50E8
102
}
330
50E8
100
AcDbDictionary
  3
ACDB_ANNOTATIONSCALES
350
50EA
  0
DICTIONARY
  5
50ED
102
{ACAD_REACTORS
330
50EC
102
}
330
50EC
100
AcDbDictionary
  3
ACDB_ANNOTATIONSCALES
350
50EE
  0
DICTIONARY
  5
50F1
102
{ACAD_REACTORS
330
50F0
102
}
330
50F0
100
AcDbDictionary
  3
ACDB_ANNOTATIONSCALES
350
50F2
  0
DICTIONARY
  5
5886
102
{ACAD_REACTORS
330
5885
102
}
330
5885
100
AcDbDictionary
  3
ACDB_ANNOTATIONSCALES
350
5887
  0
DICTIONARY
  5
596F
102
{ACAD_REACTORS
330
596E
102
}
330
596E
100
AcDbDictionary
  3
ACDB_ANNOTATIONSCALES
350
5970
  0
DICTIONARY
  5
59A7
102
{ACAD_REACTORS
330
59A6
102
}
330
59A6
100
AcDbDictionary
  3
ACDB_ANNOTATIONSCALES
350
59A8
  0
DICTIONARY
  5
5B49
102
{ACAD_REACTORS
330
5B48
102
}
330
5B48
100
AcDbDictionary
  3
ACDB_ANNOTATIONSCALES
350
5B4A
  0
DICTIONARY
  5
5B4D
102
{ACAD_REACTORS
330
5B4C
102
}
330
5B4C
100
AcDbDictionary
  3
ACDB_ANNOTATIONSCALES
350
5B4E
  0
DICTIONARY
  5
5B88
102
{ACAD_REACTORS
330
5B87
102
}
330
5B87
100
AcDbDictionary
  3
ACDB_ANNOTATIONSCALES
350
5B89
  0
DICTIONARY
  5
5B8C
102
{ACAD_REACTORS
330
5B8B
102
}
330
5B8B
100
AcDbDictionary
  3
ACDB_ANNOTATIONSCALES
350
5B8D
  0
DICTIONARY
  5
5DE1
102
{ACAD_REACTORS
330
5DE0
102
}
330
5DE0
100
AcDbDictionary
  3
ACDB_ANNOTATIONSCALES
350
5DE2
  0
DICTIONARY
  5
5DE5
102
{ACAD_REACTORS
330
5DE4
102
}
330
5DE4
100
AcDbDictionary
  3
ACDB_ANNOTATIONSCALES
350
5DE6
  0
DICTIONARY
  5
52BF
102
{ACAD_REACTORS
330
52BE
102
}
330
52BE
100
AcDbDictionary
  3
ACDB_ANNOTATIONSCALES
350
52C0
  0
DICTIONARY
  5
52CE
102
{ACAD_REACTORS
330
52CD
102
}
330
52CD
100
AcDbDictionary
  3
ACDB_ANNOTATIONSCALES
350
52CF
  0
DICTIONARY
  5
52D2
102
{ACAD_REACTORS
330
52D1
102
}
330
52D1
100
AcDbDictionary
  3
ACDB_ANNOTATIONSCALES
350
52D3
  0
DICTIONARY
  5
55F7
102
{ACAD_REACTORS
330
55F6
102
}
330
55F6
100
AcDbDictionary
  3
ACDB_ANNOTATIONSCALES
350
55F8
  0
DICTIONARY
  5
5BC4
102
{ACAD_REACTORS
330
5BC3
102
}
330
5BC3
100
AcDbDictionary
  3
ACDB_ANNOTATIONSCALES
350
5BC5
  0
DICTIONARY
  5
5F5F
102
{ACAD_REACTORS
330
5F5E
102
}
330
5F5E
100
AcDbDictionary
  3
ACDB_ANNOTATIONSCALES
350
5F60
  0
MATERIAL
  5
4C64
102
{ACAD_REACTORS
330
2947
102
}
102
{ACAD_XDICTIONARY
360
609F
102
}
330
2947
100
AcDbMaterial
  1
BYBLOCK
  0
MATERIAL
  5
4C63
102
{ACAD_REACTORS
330
2947
102
}
102
{ACAD_XDICTIONARY
360
609D
102
}
330
2947
100
AcDbMaterial
  1
BYLAYER
  0
MATERIAL
  5
4C65
102
{ACAD_REACTORS
330
2947
102
}
102
{ACAD_XDICTIONARY
360
60A1
102
}
330
2947
100
AcDbMaterial
  1
GLOBAL
  0
ACAD_PROXY_OBJECT
  5
4C69
102
{ACAD_REACTORS
330
4C68
102
}
330
4C68
100
AcDbProxyObject
 90
      499
 91
      508
 93
      610
310
40901902A4063FBFFFFFE0000000000000020400000000000020404214DD185B99185C990000000000000104090141901A00000000000004100000000000000041025764000000000000039000
340
14
340
0
340
10
340
0
 94
        0
1001
ACAD_MLEADERVER
1070
     2
  0
MLINESTYLE
  5
13
102
{ACAD_REACTORS
330
E
102
}
330
E
100
AcDbMlineStyle
  2
STANDARD
 70
     0
  3

 62
     0
 51
90.0
 52
90.0
 71
     2
 49
0.5
 62
   256
  6
BYLAYER
 49
-0.5
 62
   256
  6
BYLAYER
  0
ACAD_PROXY_OBJECT
  5
4C42
102
{ACAD_REACTORS
330
4C41
102
}
330
4C41
100
AcDbProxyObject
 90
      499
 91
      505
 93
       41
310
903313A31580
  0
ACAD_PROXY_OBJECT
  5
4C43
102
{ACAD_REACTORS
330
4C41
102
}
330
4C41
100
AcDbProxyObject
 90
      499
 91
      505
 93
      105
310
903313A324000000000000004000
  0
ACAD_PROXY_OBJECT
  5
4C44
102
{ACAD_REACTORS
330
4C41
102
}
330
4C41
100
AcDbProxyObject
 90
      499
 91
      505
 93
      105
310
903313A344000000000000104000
  0
ACAD_PROXY_OBJECT
  5
4C45
102
{ACAD_REACTORS
330
4C41
102
}
330
4C41
100
AcDbProxyObject
 90
      499
 91
      505
 93
      105
310
903313A354000000000000144000
  0
ACAD_PROXY_OBJECT
  5
4C46
102
{ACAD_REACTORS
330
4C41
102
}
330
4C41
100
AcDbProxyObject
 90
      499
 91
      505
 93
      105
310
903313A384000000000000204000
  0
ACAD_PROXY_OBJECT
  5
4C47
102
{ACAD_REACTORS
330
4C41
102
}
330
4C41
100
AcDbProxyObject
 90
      499
 91
      505
 93
      113
310
904313A31304000000000000244000
  0
ACAD_PROXY_OBJECT
  5
4C48
102
{ACAD_REACTORS
330
4C41
102
}
330
4C41
100
AcDbProxyObject
 90
      499
 91
      505
 93
      113
310
904313A31364000000000000304000
  0
ACAD_PROXY_OBJECT
  5
4C49
102
{ACAD_REACTORS
330
4C41
102
}
330
4C41
100
AcDbProxyObject
 90
      499
 91
      505
 93
      113
310
904313A32304000000000000344000
  0
ACAD_PROXY_OBJECT
  5
4C4A
102
{ACAD_REACTORS
330
4C41
102
}
330
4C41
100
AcDbProxyObject
 90
      499
 91
      505
 93
      113
310
904313A333040000000000003E4000
  0
ACAD_PROXY_OBJECT
  5
4C4B
102
{ACAD_REACTORS
330
4C41
102
}
330
4C41
100
AcDbProxyObject
 90
      499
 91
      505
 93
      113
310
904313A34304000000000000444000
  0
ACAD_PROXY_OBJECT
  5
4C4C
102
{ACAD_REACTORS
330
4C41
102
}
330
4C41
100
AcDbProxyObject
 90
      499
 91
      505
 93
      113
310
904313A35304000000000000494000
  0
ACAD_PROXY_OBJECT
  5
4C4D
102
{ACAD_REACTORS
330
4C41
102
}
330
4C41
100
AcDbProxyObject
 90
      499
 91
      505
 93
      121
310
905313A3130304000000000000594000
  0
ACAD_PROXY_OBJECT
  5
4C4E
102
{ACAD_REACTORS
330
4C41
102
}
330
4C41
100
AcDbProxyObject
 90
      499
 91
      505
 93
      105
310
903323A310000000000000010100
  0
ACAD_PROXY_OBJECT
  5
4C4F
102
{ACAD_REACTORS
330
4C41
102
}
330
4C41
100
AcDbProxyObject
 90
      499
 91
      505
 93
      105
310
903343A310000000000000410100
  0
ACAD_PROXY_OBJECT
  5
4C50
102
{ACAD_REACTORS
330
4C41
102
}
330
4C41
100
AcDbProxyObject
 90
      499
 91
      505
 93
      105
310
903383A310000000000000810100
  0
ACAD_PROXY_OBJECT
  5
4C51
102
{ACAD_REACTORS
330
4C41
102
}
330
4C41
100
AcDbProxyObject
 90
      499
 91
      505
 93
      113
310
90431303A310000000000000910100
  0
ACAD_PROXY_OBJECT
  5
4C52
102
{ACAD_REACTORS
330
4C41
102
}
330
4C41
100
AcDbProxyObject
 90
      499
 91
      505
 93
      121
310
9053130303A310000000000001650100
  0
ACAD_PROXY_OBJECT
  5
4C53
102
{ACAD_REACTORS
330
4C41
102
}
330
4C41
100
AcDbProxyObject
 90
      499
 91
      505
 93
      257
310
90E312F31323822203D2031272D3022000000000000200FC000000000000284000
  0
ACAD_PROXY_OBJECT
  5
4C54
102
{ACAD_REACTORS
330
4C41
102
}
330
4C41
100
AcDbProxyObject
 90
      499
 91
      505
 93
      249
310
90D312F363422203D2031272D3022000000000000240FC000000000000284000
  0
ACAD_PROXY_OBJECT
  5
4C55
102
{ACAD_REACTORS
330
4C41
102
}
330
4C41
100
AcDbProxyObject
 90
      499
 91
      505
 93
      249
310
90D312F333222203D2031272D3022000000000000280FC000000000000284000
  0
ACAD_PROXY_OBJECT
  5
4C56
102
{ACAD_REACTORS
330
4C41
102
}
330
4C41
100
AcDbProxyObject
 90
      499
 91
      505
 93
      249
310
90D312F313622203D2031272D30220000000000002C0FC000000000000284000
  0
ACAD_PROXY_OBJECT
  5
4C57
102
{ACAD_REACTORS
330
4C41
102
}
330
4C41
100
AcDbProxyObject
 90
      499
 91
      505
 93
      249
310
90D332F333222203D2031272D30220000000000002E0FC000000000000284000
  0
ACAD_PROXY_OBJECT
  5
4C58
102
{ACAD_REACTORS
330
4C41
102
}
330
4C41
100
AcDbProxyObject
 90
      499
 91
      505
 93
      241
310
90C312F3822203D2031272D3022000000000000300FC000000000000284000
  0
ACAD_PROXY_OBJECT
  5
4C59
102
{ACAD_REACTORS
330
4C41
102
}
330
4C41
100
AcDbProxyObject
 90
      499
 91
      505
 93
      249
310
90D332F313622203D2031272D3022000000000000320FC000000000000284000
  0
ACAD_PROXY_OBJECT
  5
4C5A
102
{ACAD_REACTORS
330
4C41
102
}
330
4C41
100
AcDbProxyObject
 90
      499
 91
      505
 93
      241
310
90C312F3422203D2031272D3022000000000000340FC000000000000284000
  0
ACAD_PROXY_OBJECT
  5
4C5B
102
{ACAD_REACTORS
330
4C41
102
}
330
4C41
100
AcDbProxyObject
 90
      499
 91
      505
 93
      241
310
90C332F3822203D2031272D3022000000000000360FC000000000000284000
  0
ACAD_PROXY_OBJECT
  5
4C5C
102
{ACAD_REACTORS
330
4C41
102
}
330
4C41
100
AcDbProxyObject
 90
      499
 91
      505
 93
      241
310
90C312F3222203D2031272D3022000000000000380FC000000000000284000
  0
ACAD_PROXY_OBJECT
  5
4C5D
102
{ACAD_REACTORS
330
4C41
102
}
330
4C41
100
AcDbProxyObject
 90
      499
 91
      505
 93
      241
310
90C332F3422203D2031272D30220000000000003A0FC000000000000284000
  0
ACAD_PROXY_OBJECT
  5
4C5E
102
{ACAD_REACTORS
330
4C41
102
}
330
4C41
100
AcDbProxyObject
 90
      499
 91
      505
 93
      161
310
90A3122203D2031272D30224000000000000284000
  0
ACAD_PROXY_OBJECT
  5
4C5F
102
{ACAD_REACTORS
330
4C41
102
}
330
4C41
100
AcDbProxyObject
 90
      499
 91
      505
 93
      257
310
90E312D312F3222203D2031272D30220000000000003E0FC000000000000284000
  0
ACAD_PROXY_OBJECT
  5
4C60
102
{ACAD_REACTORS
330
4C41
102
}
330
4C41
100
AcDbProxyObject
 90
      499
 91
      505
 93
      225
310
90A3322203D2031272D302200000000000002100000000000000284000
  0
ACAD_PROXY_OBJECT
  5
4C61
102
{ACAD_REACTORS
330
4C41
102
}
330
4C41
100
AcDbProxyObject
 90
      499
 91
      505
 93
      225
310
90A3622203D2031272D302200000000000006100000000000000284000
  0
ACAD_PROXY_OBJECT
  5
4C62
102
{ACAD_REACTORS
330
4C41
102
}
330
4C41
100
AcDbProxyObject
 90
      499
 91
      505
 93
      249
310
90D31272D3022203D2031272D30220000000000000A100000000000000284000
  0
ACAD_PROXY_OBJECT
  5
4C2D
102
{ACAD_REACTORS
330
4C28
102
}
330
4C28
100
AcDbProxyObject
 90
      499
 91
      504
 93
      436
310
42CC9915DA5C99599C985B595049028333333333333E33F0000000000000F90107901411070040501600405405064090741402480A0340
1001
ACAD
1000
AcDbSavedByObjectVersion
1070
     0
  0
ACAD_PROXY_OBJECT
  5
4C30
102
{ACAD_REACTORS
330
4C28
102
}
330
4C28
100
AcDbProxyObject
 90
      499
 91
      504
 93
      388
310
4150985CDA58D07406404333333333333E33F0000000000000F90107A41107004050150841D405064090741402480A0350
1001
ACAD
1000
AcDbSavedByObjectVersion
1070
     0
  0
ACAD_PROXY_OBJECT
  5
4C34
102
{ACAD_REACTORS
330
4C28
102
}
330
4C28
100
AcDbProxyObject
 90
      499
 91
      504
 93
      428
310
42109C9A59DA1D195B90C409028333333333333E33F0000000000000F9010790141107004050150841D405064090741402480A029950
1001
ACAD
1000
AcDbSavedByObjectVersion
1070
     0
  0
ACAD_PROXY_OBJECT
  5
4C38
102
{ACAD_REACTORS
330
4C28
102
}
330
4C28
100
AcDbProxyObject
 90
      499
 91
      504
 93
      452
310
42D0DBDB1BDC90DA185B99D95104090240C333333333333E33F0000000000000F90108901411070040501508421405064090741402480A0350
1001
ACAD
1000
AcDbSavedByObjectVersion
1070
     0
  0
ACAD_PROXY_OBJECT
  5
4C32
102
{ACAD_REACTORS
330
4C28
102
}
330
4C28
100
AcDbProxyObject
 90
      499
 91
      504
 93
      500
310
4290DBDB98D95C1D1D585B10940D028333333333333E33F0000000000000F90107902409070040501000000000018199010841D405064090740C02480A0340
1001
ACAD
1000
AcDbSavedByObjectVersion
1070
     0
  0
ACAD_PROXY_OBJECT
  5
4C33
102
{ACAD_REACTORS
330
4C28
102
}
330
4C28
100
AcDbProxyObject
 90
      499
 91
      504
 93
      412
310
40D11A5B50B409028333333333333E33F0000000000000F9010790141107004050150841D405064090741402480A02677FFFFFD0
1001
ACAD
1000
AcDbSavedByObjectVersion
1070
     0
  0
ACAD_PROXY_OBJECT
  5
4C3B
102
{ACAD_REACTORS
330
4C28
102
}
330
4C28
100
AcDbProxyObject
 90
      499
 91
      504
 93
      452
310
43115919D950DBDB1BDC93D999916409028333333333333E33F0000000000000F9010790141107004050150841D405064090741402480A0350
1001
ACAD
1000
AcDbSavedByObjectVersion
1070
     0
  0
ACAD_PROXY_OBJECT
  5
4C37
102
{ACAD_REACTORS
330
4C28
102
}
330
4C28
100
AcDbProxyObject
 90
      499
 91
      504
 93
      444
310
42D19858D95C185D1D195C9B90F409028333333333333E33F0000000000000F9010790141107004050150841D405064090741402480A0350
1001
ACAD
1000
AcDbSavedByObjectVersion
1070
     0
  0
ACAD_PROXY_OBJECT
  5
4C29
102
{ACAD_REACTORS
330
4C28
102
}
330
4C28
100
AcDbProxyObject
 90
      499
 91
      504
 93
      380
310
41119B185D240901404333333333333E33F0000000000000F9010740A907004050150841D405064090741402480A1B50
1001
ACAD
1000
AcDbSavedByObjectVersion
1070
     0
  0
ACAD_PROXY_OBJECT
  5
4C2A
102
{ACAD_REACTORS
330
4C28
102
}
330
4C28
100
AcDbProxyObject
 90
      499
 91
      504
 93
      468
310
43519B185D15DA5D1A115919D95CD0140901404333333333333E33F0000000000000F90107409019070040501600405405064090741402480A1B50
1001
ACAD
1000
AcDbSavedByObjectVersion
1070
     0
  0
ACAD_PROXY_OBJECT
  5
4C2B
102
{ACAD_REACTORS
330
4C28
102
}
330
4C28
100
AcDbProxyObject
 90
      499
 91
      504
 93
      404
310
41D1DBDD5C985D5910240902404333333333333E33F0000000000000F9010740A9070040501641D405064090741402480A1B50
1001
ACAD
1000
AcDbSavedByObjectVersion
1070
     0
  0
ACAD_PROXY_OBJECT
  5
4C2C
102
{ACAD_REACTORS
330
4C28
102
}
330
4C28
100
AcDbProxyObject
 90
      499
 91
      504
 93
      492
310
4411DBDD5C985D5915DA5D1A115919D95CD0340902404333333333333E33F0000000000000F90107409019070040501600405405064090741402480A1B50
1001
ACAD
1000
AcDbSavedByObjectVersion
1070
     0
  0
ACAD_PROXY_OBJECT
  5
4C2F
102
{ACAD_REACTORS
330
4C28
102
}
330
4C28
100
AcDbProxyObject
 90
      499
 91
      504
 93
      476
310
41921A5919195B90640502408333333333333E33F0000000000000F901079024090700405020000000000001110200405405064090740C02480A0340
1001
ACAD
1000
AcDbSavedByObjectVersion
1070
     0
  0
ACAD_PROXY_OBJECT
  5
4C39
102
{ACAD_REACTORS
330
4C28
102
}
330
4C28
100
AcDbProxyObject
 90
      499
 91
      504
 93
      428
310
42529A5D1D195C93D999914409028333333333333E33F0000000000000F9010790141107004050150A41D405064090741402480A0350
1001
ACAD
1000
AcDbSavedByObjectVersion
1070
     0
  0
ACAD_PROXY_OBJECT
  5
4C36
102
{ACAD_REACTORS
330
4C28
102
}
330
4C28
100
AcDbProxyObject
 90
      499
 91
      504
 93
      444
310
42D31A5B995C185D1D195C9B90E409028333333333333E33F0000000000000F9010790141107004050750841D405064090741402483A0350
1001
ACAD
1000
AcDbSavedByObjectVersion
1070
     0
  0
ACAD_PROXY_OBJECT
  5
4C6A
102
{ACAD_REACTORS
330
4C28
102
}
330
4C28
100
AcDbProxyObject
 90
      499
 91
      504
 93
      412
310
90A409038333333333333E33F0000000000000F901074090290700405010000000000201990108421405064090741402480A1B40
1001
ACAD
1000
AcDbSavedByObjectVersion
1070
     0
  0
ACAD_PROXY_OBJECT
  5
4C3A
102
{ACAD_REACTORS
330
4C28
102
}
330
4C28
100
AcDbProxyObject
 90
      499
 91
      504
 93
      444
310
42D3DD995C9A185B99D3D999915409028333333333333E33F0000000000000F9010790141107004050150941D405064090741402480A0350
1001
ACAD
1000
AcDbSavedByObjectVersion
1070
     0
  0
ACAD_PROXY_OBJECT
  5
4C31
102
{ACAD_REACTORS
330
4C28
102
}
330
4C28
100
AcDbProxyObject
 90
      499
 91
      504
 93
      428
310
425499585B1A5CDD1A58D08409038333333333333E33F0000000000000F9010740A907004050150800405405064090740C02480A1B40
1001
ACAD
1000
AcDbSavedByObjectVersion
1070
     0
  0
ACAD_PROXY_OBJECT
  5
4C40
102
{ACAD_REACTORS
330
4C28
102
}
330
4C28
100
AcDbProxyObject
 90
      499
 91
      504
 93
      420
310
4194DA1859195911B40902404333333333333E33F0000000000000F9010740A41107004050150800405405064090840C02480A0B40
1001
ACAD
1000
AcDbSavedByObjectVersion
1070
     0
  0
ACAD_PROXY_OBJECT
  5
4C3F
102
{ACAD_REACTORS
330
4C28
102
}
330
4C28
100
AcDbProxyObject
 90
      499
 91
      504
 93
      516
310
4454DA18591959081DDA5D1A08195919D95CD1A40902404333333333333E33F0000000000000F901074090142907004050250800405405064090740C02480A0B40
1001
ACAD
1000
AcDbSavedByObjectVersion
1070
     0
  0
ACAD_PROXY_OBJECT
  5
4C3C
102
{ACAD_REACTORS
330
4C28
102
}
330
4C28
100
AcDbProxyObject
 90
      499
 91
      504
 93
      532
310
4394DA1859195CC81BD98811DC985E5174090240C333333333333E33F0000000000000F901079024090741D01000000000000111010841D405064090740C02480A0340
1001
ACAD
1000
AcDbSavedByObjectVersion
1070
     0
  0
ACAD_PROXY_OBJECT
  5
4C3D
102
{ACAD_REACTORS
330
4C28
102
}
330
4C28
100
AcDbProxyObject
 90
      499
 91
      504
 93
      476
310
41D4DAD95D18DA1E51840502408333333333333E33F0000000000000F901079024090741D01000000000000111010B41D405064090741802480A0340
1001
ACAD
1000
AcDbSavedByObjectVersion
1070
     0
  0
ACAD_PROXY_OBJECT
  5
4C35
102
{ACAD_REACTORS
330
4C28
102
}
330
4C28
100
AcDbProxyObject
 90
      499
 91
      504
 93
      412
310
41D51A1A58DAD95B90D409028333333333333E33F0000000000000F9010790141107004050150C41D405064090741402480A0350
1001
ACAD
1000
AcDbSavedByObjectVersion
1070
     0
  0
ACAD_PROXY_OBJECT
  5
4C2E
102
{ACAD_REACTORS
330
4C28
102
}
330
4C28
100
AcDbProxyObject
 90
      499
 91
      504
 93
      420
310
4255DA5C99599C985B595059028333333333333E33F0000000000000F90107901411070040501600405405064090740C02480A0340
1001
ACAD
1000
AcDbSavedByObjectVersion
1070
     0
  0
ACAD_PROXY_OBJECT
  5
4C3E
102
{ACAD_REACTORS
330
4C28
102
}
330
4C28
100
AcDbProxyObject
 90
      499
 91
      504
 93
      404
310
41560B54985E51940902404000000000000E03F0000000000000F9010740501907004050150841D405064090740C02480A1B40
1001
ACAD
1000
AcDbSavedByObjectVersion
1070
     0
  0
XRECORD
  5
607F
102
{ACAD_REACTORS
330
6075
102
}
330
6075
100
AcDbXrecord
340
0
  0
XRECORD
  5
607E
102
{ACAD_REACTORS
330
6075
102
}
330
6075
100
AcDbXrecord
 90
        0
  0
XRECORD
  5
6098
102
{ACAD_REACTORS
330
6075
102
}
330
6075
100
AcDbXrecord
340
2948
  0
XRECORD
  5
6095
102
{ACAD_REACTORS
330
6075
102
}
330
6075
100
AcDbXrecord
1000
DSTYLE
1002
{
1070
   171
 70
     2
1070
   143
 40
0.0394
1070
   274
 70
     2
1070
    41
 40
6.0
1070
   342
340
2AF4
1070
   271
 70
     1
1070
   278
 70
    46
1070
   341
340
2AF4
1070
   272
 70
     1
1070
    48
 40
0.1
1070
   283
 70
     1
1070
    47
 40
0.1
1070
   145
 40
1.0
1070
   340
340
10
1070
   140
 40
8.0
1070
   284
 70
     0
1002
}
  0
XRECORD
  5
6080
102
{ACAD_REACTORS
330
6075
102
}
330
6075
100
AcDbXrecord
  1
{23698909-1D67-4744-B0E2-8DE11E3ED422}
  0
XRECORD
  5
6078
102
{ACAD_REACTORS
330
6075
102
}
330
6075
100
AcDbXrecord
  1

  0
XRECORD
  5
607D
102
{ACAD_REACTORS
330
6075
102
}
330
6075
100
AcDbXrecord
 90
        0
  0
XRECORD
  5
607A
102
{ACAD_REACTORS
330
6075
102
}
330
6075
100
AcDbXrecord
340
2816
  0
XRECORD
  5
607C
102
{ACAD_REACTORS
330
6075
102
}
330
6075
100
AcDbXrecord
 90
    10781
  0
XRECORD
  5
6099
102
{ACAD_REACTORS
330
6075
102
}
330
6075
100
AcDbXrecord
340
2947
  0
XRECORD
  5
607B
102
{ACAD_REACTORS
330
6075
102
}
330
6075
100
AcDbXrecord
340
2817
  0
XRECORD
  5
6082
102
{ACAD_REACTORS
330
6075
102
}
330
6075
100
AcDbXrecord
 40
0.25
  0
XRECORD
  5
6085
102
{ACAD_REACTORS
330
6075
102
}
330
6075
100
AcDbXrecord
340
0
  0
XRECORD
  5
608B
102
{ACAD_REACTORS
330
6075
102
}
330
6075
100
AcDbXrecord
 10
0.0
 20
0.0
 30
0.0
  0
XRECORD
  5
6087
102
{ACAD_REACTORS
330
6075
102
}
330
6075
100
AcDbXrecord
 10
0.0
 20
0.0
 30
0.0
  0
XRECORD
  5
608A
102
{ACAD_REACTORS
330
6075
102
}
330
6075
100
AcDbXrecord
 10
0.0
 20
0.0
 30
0.0
  0
XRECORD
  5
6088
102
{ACAD_REACTORS
330
6075
102
}
330
6075
100
AcDbXrecord
 10
0.0
 20
0.0
 30
0.0
  0
XRECORD
  5
6089
102
{ACAD_REACTORS
330
6075
102
}
330
6075
100
AcDbXrecord
 10
0.0
 20
0.0
 30
0.0
  0
XRECORD
  5
6086
102
{ACAD_REACTORS
330
6075
102
}
330
6075
100
AcDbXrecord
 10
0.0
 20
0.0
 30
0.0
  0
XRECORD
  5
6083
102
{ACAD_REACTORS
330
6075
102
}
330
6075
100
AcDbXrecord
340
0
  0
XRECORD
  5
6084
102
{ACAD_REACTORS
330
6075
102
}
330
6075
100
AcDbXrecord
 70
     0
  0
XRECORD
  5
6079
102
{ACAD_REACTORS
330
6075
102
}
330
6075
100
AcDbXrecord
  1

  0
XRECORD
  5
6076
102
{ACAD_REACTORS
330
6075
102
}
330
6075
100
AcDbXrecord
 90
        1
  0
XRECORD
  5
6077
102
{ACAD_REACTORS
330
6075
102
}
330
6075
100
AcDbXrecord
 90
       70
  0
XRECORD
  5
608E
102
{ACAD_REACTORS
330
6075
102
}
330
6075
100
AcDbXrecord
340
0
  0
XRECORD
  5
6094
102
{ACAD_REACTORS
330
6075
102
}
330
6075
100
AcDbXrecord
 10
0.0
 20
0.0
 30
0.0
  0
XRECORD
  5
6090
102
{ACAD_REACTORS
330
6075
102
}
330
6075
100
AcDbXrecord
 10
0.0
 20
0.0
 30
0.0
  0
XRECORD
  5
6093
102
{ACAD_REACTORS
330
6075
102
}
330
6075
100
AcDbXrecord
 10
0.0
 20
0.0
 30
0.0
  0
XRECORD
  5
6091
102
{ACAD_REACTORS
330
6075
102
}
330
6075
100
AcDbXrecord
 10
0.0
 20
0.0
 30
0.0
  0
XRECORD
  5
6092
102
{ACAD_REACTORS
330
6075
102
}
330
6075
100
AcDbXrecord
 10
0.0
 20
0.0
 30
0.0
  0
XRECORD
  5
608F
102
{ACAD_REACTORS
330
6075
102
}
330
6075
100
AcDbXrecord
 10
0.0
 20
0.0
 30
0.0
  0
XRECORD
  5
608C
102
{ACAD_REACTORS
330
6075
102
}
330
6075
100
AcDbXrecord
340
0
  0
XRECORD
  5
608D
102
{ACAD_REACTORS
330
6075
102
}
330
6075
100
AcDbXrecord
 70
     0
  0
XRECORD
  5
6081
102
{ACAD_REACTORS
330
6075
102
}
330
6075
100
AcDbXrecord
  1
{FB88D5A5-C2B3-44B9-87FE-AD228F2755C0}
  0
DICTIONARYVAR
  5
516D
102
{ACAD_REACTORS
330
516C
102
}
330
516C
100
DictionaryVariables
280
     0
  1
1:1
  0
DICTIONARYVAR
  5
51AE
102
{ACAD_REACTORS
330
516C
102
}
330
516C
100
DictionaryVariables
280
     0
  1
Standard
  0
DICTIONARYVAR
  5
51AD
102
{ACAD_REACTORS
330
516C
102
}
330
516C
100
DictionaryVariables
280
     0
  1
Standard
  0
DICTIONARYVAR
  5
6096
102
{ACAD_REACTORS
330
516C
102
}
330
516C
100
DictionaryVariables
280
     0
  1
1
  0
DICTIONARYVAR
  5
6097
102
{ACAD_REACTORS
330
516C
102
}
330
516C
100
DictionaryVariables
280
     0
  1
0
  0
DICTIONARYVAR
  5
51AF
102
{ACAD_REACTORS
330
516C
102
}
330
516C
100
DictionaryVariables
280
     0
  1
0
  0
DICTIONARYVAR
  5
51B0
102
{ACAD_REACTORS
330
516C
102
}
330
516C
100
DictionaryVariables
280
     0
  1
0
  0
DICTIONARY
  5
5A14
102
{ACAD_REACTORS
330
5A13
102
}
330
5A13
100
AcDbDictionary
  0
DICTIONARY
  5
59E3
102
{ACAD_REACTORS
330
59E2
102
}
330
59E2
100
AcDbDictionary
  0
DICTIONARY
  5
50AA
102
{ACAD_REACTORS
330
50A9
102
}
330
50A9
100
AcDbDictionary
  0
DICTIONARY
  5
50BF
102
{ACAD_REACTORS
330
50BE
102
}
330
50BE
100
AcDbDictionary
  0
DICTIONARY
  5
50D6
102
{ACAD_REACTORS
330
50D5
102
}
330
50D5
100
AcDbDictionary
  0
DICTIONARY
  5
50DA
102
{ACAD_REACTORS
330
50D9
102
}
330
50D9
100
AcDbDictionary
  0
DICTIONARY
  5
50DE
102
{ACAD_REACTORS
330
50DD
102
}
330
50DD
100
AcDbDictionary
  0
DICTIONARY
  5
50E2
102
{ACAD_REACTORS
330
50E1
102
}
330
50E1
100
AcDbDictionary
  0
DICTIONARY
  5
50E6
102
{ACAD_REACTORS
330
50E5
102
}
330
50E5
100
AcDbDictionary
  0
DICTIONARY
  5
50EA
102
{ACAD_REACTORS
330
50E9
102
}
330
50E9
100
AcDbDictionary
  0
DICTIONARY
  5
50EE
102
{ACAD_REACTORS
330
50ED
102
}
330
50ED
100
AcDbDictionary
  0
DICTIONARY
  5
50F2
102
{ACAD_REACTORS
330
50F1
102
}
330
50F1
100
AcDbDictionary
  0
DICTIONARY
  5
5887
102
{ACAD_REACTORS
330
5886
102
}
330
5886
100
AcDbDictionary
  0
DICTIONARY
  5
5970
102
{ACAD_REACTORS
330
596F
102
}
330
596F
100
AcDbDictionary
  0
DICTIONARY
  5
59A8
102
{ACAD_REACTORS
330
59A7
102
}
330
59A7
100
AcDbDictionary
  0
DICTIONARY
  5
5B4A
102
{ACAD_REACTORS
330
5B49
102
}
330
5B49
100
AcDbDictionary
  0
DICTIONARY
  5
5B4E
102
{ACAD_REACTORS
330
5B4D
102
}
330
5B4D
100
AcDbDictionary
  0
DICTIONARY
  5
5B89
102
{ACAD_REACTORS
330
5B88
102
}
330
5B88
100
AcDbDictionary
  0
DICTIONARY
  5
5B8D
102
{ACAD_REACTORS
330
5B8C
102
}
330
5B8C
100
AcDbDictionary
  0
DICTIONARY
  5
5DE2
102
{ACAD_REACTORS
330
5DE1
102
}
330
5DE1
100
AcDbDictionary
  0
DICTIONARY
  5
5DE6
102
{ACAD_REACTORS
330
5DE5
102
}
330
5DE5
100
AcDbDictionary
  0
DICTIONARY
  5
52C0
102
{ACAD_REACTORS
330
52BF
102
}
330
52BF
100
AcDbDictionary
  0
DICTIONARY
  5
52CF
102
{ACAD_REACTORS
330
52CE
102
}
330
52CE
100
AcDbDictionary
  0
DICTIONARY
  5
52D3
102
{ACAD_REACTORS
330
52D2
102
}
330
52D2
100
AcDbDictionary
  0
DICTIONARY
  5
55F8
102
{ACAD_REACTORS
330
55F7
102
}
330
55F7
100
AcDbDictionary
  0
DICTIONARY
  5
5BC5
102
{ACAD_REACTORS
330
5BC4
102
}
330
5BC4
100
AcDbDictionary
  0
DICTIONARY
  5
5F60
102
{ACAD_REACTORS
330
5F5F
102
}
330
5F5F
100
AcDbDictionary
  0
DICTIONARY
  5
609F
330
4C64
100
AcDbDictionary
280
     1
  3
ACAD_XREC_ROUNDTRIP
360
60A0
  0
DICTIONARY
  5
609D
330
4C63
100
AcDbDictionary
280
     1
  3
ACAD_XREC_ROUNDTRIP
360
609E
  0
DICTIONARY
  5
60A1
330
4C65
100
AcDbDictionary
280
     1
  3
ACAD_XREC_ROUNDTRIP
360
60A2
  0
XRECORD
  5
60A0
102
{ACAD_REACTORS
330
609F
102
}
330
609F
100
AcDbXrecord
102
MATERIAL
148
0.0
149
0.0
149
0.0
 93
        0
 94
      127
282
     0
 72
     1
 77
     1
171
     1
175
     1
179
     1
273
     0
  0
XRECORD
  5
609E
102
{ACAD_REACTORS
330
609D
102
}
330
609D
100
AcDbXrecord
102
MATERIAL
148
0.0
149
0.0
149
0.0
 93
        0
 94
      127
282
     0
 72
     1
 77
     1
171
     1
175
     1
179
     1
273
     0
  0
XRECORD
  5
60A2
102
{ACAD_REACTORS
330
60A1
102
}
330
60A1
100
AcDbXrecord
102
MATERIAL
148
0.0
149
0.0
149
0.0
 93
        0
 94
      127
282
     0
 72
     1
 77
     1
171
     1
175
     1
179
     1
273
     0
  0
ENDSEC
  0
EOF
