  0
SECTION
  2
HEADER
  9
$ACADVER
  1
AC1014
  9
$ACADMAINTVER
 70
     9
  9
$DWGCODEPAGE
  3
ANSI_932
  9
$INSBASE
 10
0.0
 20
0.0
 30
0.0
  9
$EXTMIN
 10
-113.577470875451
 20
100.814226757177
 30
0.0
  9
$EXTMAX
 10
620.103588657768
 20
514.476843769938
 30
0.0
  9
$LIMMIN
 10
-360.747566795242
 20
4.457354754526
  9
$LIMMAX
 10
-162.153696144267
 20
287.675440264018
  9
$ORTHOMODE
 70
     0
  9
$REGENMODE
 70
     1
  9
$FILLMODE
 70
     1
  9
$QTEXTMODE
 70
     0
  9
$MIRRTEXT
 70
     1
  9
$DRAGMODE
 70
     2
  9
$LTSCALE
 40
1.0
  9
$OSMODE
 70
   935
  9
$ATTMODE
 70
     1
  9
$TEXTSIZE
 40
4.0
  9
$TRACEWID
 40
1.0
  9
$TEXTSTYLE
  7
STANDARD
  9
$CLAYER
  8
0
  9
$CELTYPE
  6
BYLAYER
  9
$CECOLOR
 62
   256
  9
$CELTSCALE
 40
10.0
  9
$DELOBJ
 70
     1
  9
$DISPSILH
 70
     0
  9
$DIMSCALE
 40
1.0
  9
$DIMASZ
 40
6.0
  9
$DIMEXO
 40
0.625
  9
$DIMDLI
 40
3.75
  9
$DIMRND
 40
0.0
  9
$DIMDLE
 40
0.0
  9
$DIMEXE
 40
1.25
  9
$DIMTP
 40
0.1
  9
$DIMTM
 40
0.1
  9
$DIMTXT
 40
8.0
  9
$DIMCEN
 40
2.5
  9
$DIMTSZ
 40
0.0
  9
$DIMTOL
 70
     0
  9
$DIMLIM
 70
     0
  9
$DIMTIH
 70
     0
  9
$DIMTOH
 70
     0
  9
$DIMSE1
 70
     0
  9
$DIMSE2
 70
     0
  9
$DIMTAD
 70
     1
  9
$DIMZIN
 70
     8
  9
$DIMBLK
  1
OPEN30
  9
$DIMASO
 70
     1
  9
$DIMSHO
 70
     1
  9
$DIMPOST
  1

  9
$DIMAPOST
  1

  9
$DIMALT
 70
     0
  9
$DIMALTD
 70
     2
  9
$DIMALTF
 40
0.0394
  9
$DIMLFAC
 40
1.0
  9
$DIMTOFL
 70
     1
  9
$DIMTVP
 40
1.0
  9
$DIMTIX
 70
     0
  9
$DIMSOXD
 70
     0
  9
$DIMSAH
 70
     0
  9
$DIMBLK1
  1

  9
$DIMBLK2
  1

  9
$DIMSTYLE
  2
ISO-25
  9
$DIMCLRD
 70
     0
  9
$DIMCLRE
 70
     0
  9
$DIMCLRT
 70
     0
  9
$DIMTFAC
 40
1.0
  9
$DIMGAP
 40
0.625
  9
$DIMJUST
 70
     0
  9
$DIMSD1
 70
     0
  9
$DIMSD2
 70
     0
  9
$DIMTOLJ
 70
     1
  9
$DIMTZIN
 70
     0
  9
$DIMALTZ
 70
     0
  9
$DIMALTTZ
 70
     0
  9
$DIMFIT
 70
     3
  9
$DIMUPT
 70
     0
  9
$DIMUNIT
 70
     2
  9
$DIMDEC
 70
     1
  9
$DIMTDEC
 70
     1
  9
$DIMALTU
 70
     2
  9
$DIMALTTD
 70
     2
  9
$DIMTXSTY
  7
STANDARD
  9
$DIMAUNIT
 70
     0
  9
$LUNITS
 70
     2
  9
$LUPREC
 70
     4
  9
$SKETCHINC
 40
1.0
  9
$FILLETRAD
 40
1.0
  9
$AUNITS
 70
     0
  9
$AUPREC
 70
     0
  9
$MENU
  1
.
  9
$ELEVATION
 40
0.0
  9
$PELEVATION
 40
0.0
  9
$THICKNESS
 40
0.0
  9
$LIMCHECK
 70
     0
  9
$CHAMFERA
 40
10.0
  9
$CHAMFERB
 40
10.0
  9
$CHAMFERC
 40
20.0
  9
$CHAMFERD
 40
0.0
  9
$SKPOLY
 70
     0
  9
$TDCREATE
 40
2450576.597302431
  9
$TDUPDATE
 40
2457661.615511921
  9
$TDINDWG
 40
1.3427295139
  9
$TDUSRTIMER
 40
1.3427295139
  9
$USRTIMER
 70
     1
  9
$ANGBASE
 50
0.0
  9
$ANGDIR
 70
     0
  9
$PDMODE
 70
     0
  9
$PDSIZE
 40
0.0
  9
$PLINEWID
 40
0.0
  9
$COORDS
 70
     1
  9
$SPLFRAME
 70
     0
  9
$SPLINETYPE
 70
     6
  9
$SPLINESEGS
 70
     8
  9
$ATTDIA
 70
     0
  9
$ATTREQ
 70
     1
  9
$HANDLING
 70
     1
  9
$HANDSEED
  5
5268
  9
$SURFTAB1
 70
     6
  9
$SURFTAB2
 70
     6
  9
$SURFTYPE
 70
     6
  9
$SURFU
 70
     6
  9
$SURFV
 70
     6
  9
$UCSNAME
  2

  9
$UCSORG
 10
0.0
 20
0.0
 30
0.0
  9
$UCSXDIR
 10
1.0
 20
0.0
 30
0.0
  9
$UCSYDIR
 10
0.0
 20
1.0
 30
0.0
  9
$PUCSNAME
  2

  9
$PUCSORG
 10
0.0
 20
0.0
 30
0.0
  9
$PUCSXDIR
 10
1.0
 20
0.0
 30
0.0
  9
$PUCSYDIR
 10
0.0
 20
1.0
 30
0.0
  9
$USERI1
 70
     0
  9
$USERI2
 70
     0
  9
$USERI3
 70
     0
  9
$USERI4
 70
     0
  9
$USERI5
 70
     0
  9
$USERR1
 40
0.0
  9
$USERR2
 40
0.0
  9
$USERR3
 40
0.0
  9
$USERR4
 40
0.0
  9
$USERR5
 40
0.0
  9
$WORLDVIEW
 70
     1
  9
$SHADEDGE
 70
     3
  9
$SHADEDIF
 70
    70
  9
$TILEMODE
 70
     0
  9
$MAXACTVP
 70
    16
  9
$PINSBASE
 10
0.0
 20
0.0
 30
0.0
  9
$PLIMCHECK
 70
     0
  9
$PEXTMIN
 10
4.746305129083
 20
1.396645458131
 30
0.0
  9
$PEXTMAX
 10
404.746305129083
 20
281.396645458131
 30
0.0
  9
$PLIMMIN
 10
-6.946593322754
 20
-6.94658241272
  9
$PLIMMAX
 10
417.718108215332
 20
293.315276107788
  9
$UNITMODE
 70
     0
  9
$VISRETAIN
 70
     0
  9
$PLINEGEN
 70
     0
  9
$PSLTSCALE
 70
     1
  9
$TREEDEPTH
 70
  3020
  9
$PICKSTYLE
 70
     1
  9
$CMLSTYLE
  2
STANDARD
  9
$CMLJUST
 70
     0
  9
$CMLSCALE
 40
1.0
  9
$PROXYGRAPHICS
 70
     1
  9
$MEASUREMENT
 70
     1
  0
ENDSEC
  0
SECTION
  2
CLASSES
  0
CLASS
  1
ACDBDICTIONARYWDFLT
  2
AcDbDictionaryWithDefault
  3
ObjectDBX Classes
 90
        0
280
     0
281
     0
  0
CLASS
  1
ACDBPLACEHOLDER
  2
AcDbPlaceHolder
  3
ObjectDBX Classes
 90
        0
280
     0
281
     0
  0
CLASS
  1
LAYOUT
  2
AcDbLayout
  3
ObjectDBX Classes
 90
        0
280
     0
281
     0
  0
CLASS
  1
SORTENTSTABLE
  2
AcDbSortentsTable
  3
ObjectDBX Classes
 90
        0
280
     0
281
     0
  0
CLASS
  1
VISUALSTYLE
  2
AcDbVisualStyle
  3
ObjectDBX Classes
 90
     4095
280
     0
281
     0
  0
CLASS
  1
SCALE
  2
AcDbScale
  3
ObjectDBX Classes
 90
     1153
280
     0
281
     0
  0
CLASS
  1
MATERIAL
  2
AcDbMaterial
  3
ObjectDBX Classes
 90
     1153
280
     0
281
     0
  0
CLASS
  1
TABLESTYLE
  2
AcDbTableStyle
  3
ObjectDBX Classes
 90
     4095
280
     0
281
     0
  0
CLASS
  1
MLEADERSTYLE
  2
AcDbMLeaderStyle
  3
ACDB_MLEADERSTYLE_CLASS
 90
     4095
280
     0
281
     0
  0
CLASS
  1
SUN
  2
AcDbSun
  3
SCENEOE
 90
     1153
280
     0
281
     0
  0
CLASS
  1
DICTIONARYVAR
  2
AcDbDictionaryVar
  3
ObjectDBX Classes
 90
        0
280
     0
281
     0
  0
CLASS
  1
CELLSTYLEMAP
  2
AcDbCellStyleMap
  3
ObjectDBX Classes
 90
     1152
280
     0
281
     0
  0
CLASS
  1
XRECORD
  2
AcDbXrecord
  3
ObjectDBX Classes
 90
        0
280
     0
281
     0
  0
CLASS
  1
LWPOLYLINE
  2
AcDbPolyline
  3
ObjectDBX Classes
 90
        0
280
     0
281
     1
  0
CLASS
  1
HATCH
  2
AcDbHatch
  3
ObjectDBX Classes
 90
        0
280
     0
281
     1
  0
ENDSEC
  0
SECTION
  2
TABLES
  0
TABLE
  2
VPORT
  5
8
102
{ACAD_XDICTIONARY
360
5260
102
}
330
0
100
AcDbSymbolTable
 70
     1
  0
VPORT
  5
498C
330
8
100
AcDbSymbolTableRecord
100
AcDbViewportTableRecord
  2
*ACTIVE
 70
     0
 10
0.0
 20
0.0
 11
1.0
 21
1.0
 12
248.387802921667
 22
303.379838666999
 13
0.0
 23
0.0
 14
1.0
 24
1.0
 15
0.0
 25
0.0
 16
0.0
 26
0.0
 36
1.0
 17
0.0
 27
0.0
 37
0.0
 40
430.637890409995
 41
1.759407069555
 42
50.0
 43
0.0
 44
0.0
 50
0.0
 51
0.0
 71
    16
 72
   100
 73
     1
 74
     0
 75
     0
 76
     0
 77
     0
 78
     0
  0
ENDTAB
  0
TABLE
  2
LTYPE
  5
5
330
0
100
AcDbSymbolTable
 70
     6
  0
LTYPE
  5
14
330
5
100
AcDbSymbolTableRecord
100
AcDbLinetypeTableRecord
  2
BYBLOCK
 70
     0
  3

 72
    65
 73
     0
 40
0.0
  0
LTYPE
  5
15
330
5
100
AcDbSymbolTableRecord
100
AcDbLinetypeTableRecord
  2
BYLAYER
 70
     0
  3

 72
    65
 73
     0
 40
0.0
  0
LTYPE
  5
16
330
5
100
AcDbSymbolTableRecord
100
AcDbLinetypeTableRecord
  2
CONTINUOUS
 70
     0
  3
Solid line
 72
    65
 73
     0
 40
0.0
  0
LTYPE
  5
1EC
330
5
100
AcDbSymbolTableRecord
100
AcDbLinetypeTableRecord
  2
CENTER
 70
     0
  3
____ _ ____ _ ____ _ ____ _ ____ _ ____ _ ____ 
 72
    65
 73
     4
 40
2.0
 49
1.25
 74
     0
 49
-0.25
 74
     0
 49
0.25
 74
     0
 49
-0.25
 74
     0
  0
LTYPE
  5
1ED
330
5
100
AcDbSymbolTableRecord
100
AcDbLinetypeTableRecord
  2
DASHED
 70
     0
  3
__ __ __ __ __ __ __ __ __ __ __ __ __ __ __ __
 72
    65
 73
     2
 40
0.75
 49
0.5
 74
     0
 49
-0.25
 74
     0
  0
LTYPE
  5
2B1F
330
5
100
AcDbSymbolTableRecord
100
AcDbLinetypeTableRecord
  2
DASHDOT
 70
     0
  3
一点鎖線
 72
    65
 73
     4
 40
25.6
 49
20.0
 74
     0
 49
-2.0
 74
     0
 49
1.6
 74
     0
 49
-2.0
 74
     0
  0
LTYPE
  5
31A1
330
5
100
AcDbSymbolTableRecord
100
AcDbLinetypeTableRecord
  2
CENTER2
 70
     0
  3
Center (.5x) ___ _ ___ _ ___ _ ___ _ ___ _ ___
 72
    65
 73
     4
 40
28.575
 49
19.05
 74
     0
 49
-3.175
 74
     0
 49
3.175
 74
     0
 49
-3.175
 74
     0
  0
LTYPE
  5
4002
330
5
100
AcDbSymbolTableRecord
100
AcDbLinetypeTableRecord
  2
DASHED2
 70
     0
  3
Dashed (.5x) _ _ _ _ _ _ _ _ _ _ _ _ _ _ _ _ _
 72
    65
 73
     2
 40
9.525
 49
6.35
 74
     0
 49
-3.175
 74
     0
  0
ENDTAB
  0
TABLE
  2
LAYER
  5
2
102
{ACAD_XDICTIONARY
360
29EA
102
}
330
0
100
AcDbSymbolTable
 70
    13
  0
LAYER
  5
F
330
2
100
AcDbSymbolTableRecord
100
AcDbLayerTableRecord
  2
0
 70
     0
 62
     7
  6
CONTINUOUS
  0
LAYER
  5
61
330
2
100
AcDbSymbolTableRecord
100
AcDbLayerTableRecord
  2
図枠太線
 70
     0
 62
   251
  6
CONTINUOUS
  0
LAYER
  5
62
330
2
100
AcDbSymbolTableRecord
100
AcDbLayerTableRecord
  2
図枠細線
 70
     0
 62
   252
  6
CONTINUOUS
  0
LAYER
  5
63
330
2
100
AcDbSymbolTableRecord
100
AcDbLayerTableRecord
  2
図枠ロゴマーク
 70
     0
 62
   253
  6
CONTINUOUS
  0
LAYER
  5
1EF
330
2
100
AcDbSymbolTableRecord
100
AcDbLayerTableRecord
  2
外形線
 70
     0
 62
     7
  6
CONTINUOUS
  0
LAYER
  5
1F0
330
2
100
AcDbSymbolTableRecord
100
AcDbLayerTableRecord
  2
寸法線
 70
     0
 62
     1
  6
CONTINUOUS
  0
LAYER
  5
1F1
330
2
100
AcDbSymbolTableRecord
100
AcDbLayerTableRecord
  2
中心線
 70
     0
 62
     4
  6
CENTER
  0
LAYER
  5
1F4
330
2
100
AcDbSymbolTableRecord
100
AcDbLayerTableRecord
  2
DEFPOINTS
 70
     0
 62
     7
  6
CONTINUOUS
  0
LAYER
  5
2AA2
330
2
100
AcDbSymbolTableRecord
100
AcDbLayerTableRecord
  2
下書線
 70
     0
 62
     2
  6
CONTINUOUS
  0
LAYER
  5
2AA3
330
2
100
AcDbSymbolTableRecord
100
AcDbLayerTableRecord
  2
隠れ線
 70
     0
 62
     3
  6
DASHED
  0
LAYER
  5
2AA4
330
2
100
AcDbSymbolTableRecord
100
AcDbLayerTableRecord
  2
細線
 70
     0
 62
     6
  6
CONTINUOUS
  0
LAYER
  5
2AA5
330
2
100
AcDbSymbolTableRecord
100
AcDbLayerTableRecord
  2
太線
 70
     0
 62
   190
  6
CONTINUOUS
  0
LAYER
  5
475F
330
2
100
AcDbSymbolTableRecord
100
AcDbLayerTableRecord
  2
LAY-1
 70
     0
 62
     7
  6
CONTINUOUS
  0
ENDTAB
  0
TABLE
  2
STYLE
  5
3
330
0
100
AcDbSymbolTable
 70
     2
  0
STYLE
  5
10
330
3
100
AcDbSymbolTableRecord
100
AcDbTextStyleTableRecord
  2
STANDARD
 70
     0
 40
0.0
 41
1.0
 50
0.0
 71
     0
 42
4.0
  3
ISOCP
  4
bigfont.shx
  0
STYLE
  5
64
330
3
100
AcDbSymbolTableRecord
100
AcDbTextStyleTableRecord
  2
EXCADSTD
 70
     0
 40
0.0
 41
1.0
 50
0.0
 71
     0
 42
0.2
  3
monotxt
  4
bigfont
  0
ENDTAB
  0
TABLE
  2
VIEW
  5
6
330
0
100
AcDbSymbolTable
 70
     0
  0
ENDTAB
  0
TABLE
  2
UCS
  5
7
330
0
100
AcDbSymbolTable
 70
     0
  0
ENDTAB
  0
TABLE
  2
APPID
  5
9
330
0
100
AcDbSymbolTable
 70
     6
  0
APPID
  5
11
330
9
100
AcDbSymbolTableRecord
100
AcDbRegAppTableRecord
  2
ACAD
 70
     0
  0
APPID
  5
3507
330
9
100
AcDbSymbolTableRecord
100
AcDbRegAppTableRecord
  2
ACAD_DIMASSOC_CALC_DIMLFAC
 70
     0
  0
APPID
  5
3508
330
9
100
AcDbSymbolTableRecord
100
AcDbRegAppTableRecord
  2
ACAD_DIMASSOC_DIMLFAC
 70
     0
  0
APPID
  5
3509
330
9
100
AcDbSymbolTableRecord
100
AcDbRegAppTableRecord
  2
ACAD_DIMASSOC_OVERRIDDEN_D
 70
     0
  0
APPID
  5
4A41
330
9
100
AcDbSymbolTableRecord
100
AcDbRegAppTableRecord
  2
ACAD_MLEADERVER
 70
     0
  0
APPID
  5
4B68
330
9
100
AcDbSymbolTableRecord
100
AcDbRegAppTableRecord
  2
ACADANNOTATIVE
 70
     0
  0
ENDTAB
  0
TABLE
  2
DIMSTYLE
  5
A
330
0
100
AcDbSymbolTable
 70
     2
  0
DIMSTYLE
105
1D
330
A
100
AcDbSymbolTableRecord
100
AcDbDimStyleTableRecord
  2
STANDARD
 70
     0
  3

  4

  5

  6

  7

 40
1.0
 41
0.18
 42
0.0625
 43
0.38
 44
0.18
 45
0.0
 46
0.0
 47
0.0
 48
0.0
140
0.18
141
0.09
142
0.0
143
25.4
144
1.0
145
0.0
146
1.0
147
0.09
 71
     0
 72
     0
 73
     1
 74
     1
 75
     0
 76
     0
 77
     0
 78
     0
170
     0
171
     2
172
     0
173
     0
174
     0
175
     0
176
     0
177
     0
178
     0
270
     2
271
     4
272
     4
273
     2
274
     2
340
10
275
     0
280
     0
281
     0
282
     0
283
     1
284
     0
285
     0
286
     0
287
     3
288
     0
  0
DIMSTYLE
105
24
102
{ACAD_REACTORS
330
4D44
330
4D53
330
4D57
330
4D66
330
4D69
330
4D6A
330
4D6B
330
4D6C
330
4D7D
330
4D7E
102
}
330
A
100
AcDbSymbolTableRecord
100
AcDbDimStyleTableRecord
  2
ISO-25
 70
     0
  3

  4

  5

  6

  7

 40
1.0
 41
2.5
 42
0.625
 43
3.75
 44
1.25
 45
0.0
 46
0.0
 47
0.0
 48
0.0
140
2.5
141
2.5
142
0.0
143
0.0394
144
1.0
145
1.0
146
1.0
147
0.625
 71
     0
 72
     0
 73
     1
 74
     0
 75
     0
 76
     0
 77
     1
 78
     8
170
     0
171
     2
172
     1
173
     0
174
     0
175
     0
176
     0
177
     0
178
     0
270
     2
271
     4
272
     4
273
     2
274
     2
340
10
275
     0
280
     0
281
     0
282
     0
283
     1
284
     0
285
     0
286
     0
287
     3
288
     0
  0
ENDTAB
  0
TABLE
  2
BLOCK_RECORD
  5
1
330
0
100
AcDbSymbolTable
 70
    39
  0
BLOCK_RECORD
  5
1A
102
{ACAD_XDICTIONARY
360
45A8
102
}
330
1
100
AcDbSymbolTableRecord
100
AcDbBlockTableRecord
  2
*MODEL_SPACE
  0
BLOCK_RECORD
  5
28FB
330
1
100
AcDbSymbolTableRecord
100
AcDbBlockTableRecord
  2
*PAPER_SPACE
  0
BLOCK_RECORD
  5
65
330
1
100
AcDbSymbolTableRecord
100
AcDbBlockTableRecord
  2
A$C3392
  0
BLOCK_RECORD
  5
29BF
330
1
100
AcDbSymbolTableRecord
100
AcDbBlockTableRecord
  2
A4横用_タイトル
1001
ACAD
1000
DesignCenter Data
1002
{
1070
     1
1070
     4
1002
}
  0
BLOCK_RECORD
  5
29F4
330
1
100
AcDbSymbolTableRecord
100
AcDbBlockTableRecord
  2
A4縦用_タイトル
1001
ACAD
1000
DesignCenter Data
1002
{
1070
     1
1070
     4
1002
}
  0
BLOCK_RECORD
  5
2A32
330
1
100
AcDbSymbolTableRecord
100
AcDbBlockTableRecord
  2
A3横用_タイトル
1001
ACAD
1000
DesignCenter Data
1002
{
1070
     1
1070
     4
1002
}
  0
BLOCK_RECORD
  5
2A6C
330
1
100
AcDbSymbolTableRecord
100
AcDbBlockTableRecord
  2
A3縦用_タイトル
1001
ACAD
1000
DesignCenter Data
1002
{
1070
     1
1070
     4
1002
}
  0
BLOCK_RECORD
  5
2AF4
330
1
100
AcDbSymbolTableRecord
100
AcDbBlockTableRecord
  2
_OPEN30
  0
BLOCK_RECORD
  5
4CA7
330
1
100
AcDbSymbolTableRecord
100
AcDbBlockTableRecord
  2
4840138
  0
BLOCK_RECORD
  5
4CB3
330
1
100
AcDbSymbolTableRecord
100
AcDbBlockTableRecord
  2
2420094
  0
BLOCK_RECORD
  5
4D7F
330
1
100
AcDbSymbolTableRecord
100
AcDbBlockTableRecord
  2
*D29
  0
BLOCK_RECORD
  5
4D8B
330
1
100
AcDbSymbolTableRecord
100
AcDbBlockTableRecord
  2
*D30
  0
BLOCK_RECORD
  5
4D96
330
1
100
AcDbSymbolTableRecord
100
AcDbBlockTableRecord
  2
*D31
  0
BLOCK_RECORD
  5
4DA2
330
1
100
AcDbSymbolTableRecord
100
AcDbBlockTableRecord
  2
*D32
  0
BLOCK_RECORD
  5
4DAE
330
1
100
AcDbSymbolTableRecord
100
AcDbBlockTableRecord
  2
*D33
  0
BLOCK_RECORD
  5
4DB9
330
1
100
AcDbSymbolTableRecord
100
AcDbBlockTableRecord
  2
*D34
  0
BLOCK_RECORD
  5
4DC5
330
1
100
AcDbSymbolTableRecord
100
AcDbBlockTableRecord
  2
*D35
  0
BLOCK_RECORD
  5
4DD3
330
1
100
AcDbSymbolTableRecord
100
AcDbBlockTableRecord
  2
*D36
  0
BLOCK_RECORD
  5
4DDE
330
1
100
AcDbSymbolTableRecord
100
AcDbBlockTableRecord
  2
*D37
  0
BLOCK_RECORD
  5
4DEA
330
1
100
AcDbSymbolTableRecord
100
AcDbBlockTableRecord
  2
*D38
  0
ENDTAB
  0
ENDSEC
  0
SECTION
  2
BLOCKS
  0
BLOCK
  5
1B
330
1A
100
AcDbEntity
  8
0
100
AcDbBlockBegin
  2
*MODEL_SPACE
 70
     0
 10
0.0
 20
0.0
 30
0.0
  3
*MODEL_SPACE
  1

  0
ENDBLK
  5
1C
330
1A
100
AcDbEntity
  8
0
100
AcDbBlockEnd
  0
BLOCK
  5
28FD
330
28FB
100
AcDbEntity
 67
     1
  8
0
 48
10.0
100
AcDbBlockBegin
  2
*PAPER_SPACE
 70
     0
 10
0.0
 20
0.0
 30
0.0
  3
*PAPER_SPACE
  1

  0
ENDBLK
  5
28FE
330
28FB
100
AcDbEntity
 67
     1
  8
0
 48
10.0
100
AcDbBlockEnd
  0
BLOCK
  5
93
330
65
100
AcDbEntity
  8
0
100
AcDbBlockBegin
  2
A$C3392
 70
     0
 10
0.0
 20
0.0
 30
0.0
  3
A$C3392
  1

  0
LINE
  5
66
330
65
100
AcDbEntity
  8
図枠太線
  6
CONTINUOUS
100
AcDbLine
 10
211.858584505185
 20
30.927375675439
 30
0.0
 11
211.858584505185
 21
0.927375675439
 31
0.0
  0
LINE
  5
67
330
65
100
AcDbEntity
  8
図枠細線
  6
CONTINUOUS
100
AcDbLine
 10
231.858592505185
 20
15.927377675439
 30
0.0
 11
287.858592505185
 21
15.927375675439
 31
0.0
  0
LINE
  5
68
330
65
100
AcDbEntity
  8
図枠細線
  6
CONTINUOUS
100
AcDbLine
 10
211.858592505185
 20
15.927377675439
 30
0.0
 11
231.858592505185
 21
15.927377675439
 31
0.0
  0
LINE
  5
69
330
65
100
AcDbEntity
  8
図枠太線
  6
CONTINUOUS
 62
   251
100
AcDbLine
 10
1.858584505185
 20
0.927375675439
 30
0.0
 11
1.858584505185
 21
275.927375675439
 31
0.0
  0
TEXT
  5
6A
330
65
100
AcDbEntity
  8
図枠細線
  6
CONTINUOUS
 62
   252
100
AcDbText
 10
351.358592505185
 20
28.427377675439
 30
0.0
 40
2.0
  1
ＴＩＴＬＥ
 41
0.903614457831
  7
EXCADSTD
 72
     5
 11
361.358592505185
 21
28.427377675439
 31
0.0
100
AcDbText
  0
TEXT
  5
6B
330
65
100
AcDbEntity
  8
図枠細線
  6
CONTINUOUS
 62
   252
100
AcDbText
 10
345.358592505185
 20
28.427377675439
 30
0.0
 40
2.0
  1
名称
 41
1.171875
  7
EXCADSTD
 72
     5
 11
350.358592505185
 21
28.427377675439
 31
0.0
100
AcDbText
  0
TEXT
  5
6C
330
65
100
AcDbEntity
  8
図枠細線
  6
CONTINUOUS
 62
   252
100
AcDbText
 10
274.358592505185
 20
25.927377675439
 30
0.0
 40
2.0
  1
ＤＲＡＷＮ
 41
0.882352941176
  7
EXCADSTD
 72
     5
 11
284.358592505185
 21
25.927377675439
 31
0.0
100
AcDbText
  0
TEXT
  5
6D
330
65
100
AcDbEntity
  8
図枠細線
  6
CONTINUOUS
 62
   252
100
AcDbText
 10
260.358592505185
 20
25.927377675439
 30
0.0
 40
2.0
  1
ＤＥＳＩＧＮＥＤ
 41
0.713043472041
  7
EXCADSTD
 72
     5
 11
273.478592390744
 21
25.927377675439
 31
0.0
100
AcDbText
  0
TEXT
  5
6E
330
65
100
AcDbEntity
  8
図枠細線
  6
CONTINUOUS
 62
   252
100
AcDbText
 10
246.358592505185
 20
25.927377675439
 30
0.0
 40
2.0
  1
ＣＨＥＣＫＥＤ
 41
0.831249989569
  7
EXCADSTD
 72
     5
 11
259.658592338292
 21
25.927377675439
 31
0.0
100
AcDbText
  0
TEXT
  5
6F
330
65
100
AcDbEntity
  8
図枠細線
  6
CONTINUOUS
 62
   252
100
AcDbText
 10
274.358592505185
 20
28.427377675439
 30
0.0
 40
2.0
  1
製図
 41
1.209677419355
  7
EXCADSTD
 72
     5
 11
279.358592505185
 21
28.427377675439
 31
0.0
100
AcDbText
  0
TEXT
  5
70
330
65
100
AcDbEntity
  8
図枠細線
  6
CONTINUOUS
 62
   252
100
AcDbText
 10
260.358592505185
 20
28.427377675439
 30
0.0
 40
2.0
  1
設計
 41
1.171875
  7
EXCADSTD
 72
     5
 11
265.358592505185
 21
28.427377675439
 31
0.0
100
AcDbText
  0
TEXT
  5
71
330
65
100
AcDbEntity
  8
図枠細線
  6
CONTINUOUS
 62
   252
100
AcDbText
 10
246.358592505185
 20
28.427377675439
 30
0.0
 40
2.0
  1
検図
 41
1.209677419355
  7
EXCADSTD
 72
     5
 11
251.358592505185
 21
28.427377675439
 31
0.0
100
AcDbText
  0
TEXT
  5
72
330
65
100
AcDbEntity
  8
図枠細線
  6
CONTINUOUS
 62
   252
100
AcDbText
 10
232.358592505185
 20
25.927377675439
 30
0.0
 40
2.0
  1
ＡＰＰＲＯＶＥＤ
 41
0.695652184279
  7
EXCADSTD
 72
     5
 11
245.15859269592
 21
25.927377675439
 31
0.0
100
AcDbText
  0
TEXT
  5
73
330
65
100
AcDbEntity
  8
図枠細線
  6
CONTINUOUS
 62
   252
100
AcDbText
 10
232.358592505185
 20
28.427377675439
 30
0.0
 40
2.0
  1
承認
 41
1.171875
  7
EXCADSTD
 72
     5
 11
237.358592505185
 21
28.427377675439
 31
0.0
100
AcDbText
  0
TEXT
  5
74
330
65
100
AcDbEntity
  8
図枠細線
  6
CONTINUOUS
 62
   252
100
AcDbText
 10
290.069888505185
 20
2.574868675439
 30
0.0
 40
3.5
  1
ＴＯＷＡ　ＳＥＩＤＥＮ　ＩＮＤＵＳＴＲＩＡＬ　ＣＯ．，ＬＴＤ．
 41
0.414568012377
  7
EXCADSTD
 72
     5
 11
342.692388209546
 21
2.574868675439
 31
0.0
100
AcDbText
  0
TEXT
  5
75
330
65
100
AcDbEntity
  8
図枠ロゴマーク
  6
CONTINUOUS
 62
   253
100
AcDbText
 10
290.107348505185
 20
7.519769675439
 30
0.0
 40
7.0
  1
東和制電工業株式会社
 41
0.639204545455
  7
EXCADSTD
 72
     5
 11
342.607348505185
 21
7.519769675439
 31
0.0
100
AcDbText
  0
TEXT
  5
76
330
65
100
AcDbEntity
  8
図枠細線
  6
CONTINUOUS
 62
   252
100
AcDbText
 10
232.499705505185
 20
5.759088675439
 30
0.0
 40
2.0
  1
ＰＲＯＪＥＣＴＩＯＮ
 41
0.754285710199
  7
EXCADSTD
 72
     5
 11
250.099705409817
 21
5.759088675439
 31
0.0
100
AcDbText
  0
TEXT
  5
77
330
65
100
AcDbEntity
  8
図枠細線
  6
CONTINUOUS
 62
   252
100
AcDbText
 10
232.574629505185
 20
8.681077675439
 30
0.0
 40
2.0
  1
ＴＨＩＲＤ　ＡＮＧＬＥ
 41
0.691099486738
  7
EXCADSTD
 72
     5
 11
250.174629767445
 21
8.681077675439
 31
0.0
100
AcDbText
  0
TEXT
  5
78
330
65
100
AcDbEntity
  8
図枠細線
  6
CONTINUOUS
 62
   252
100
AcDbText
 10
256.823999505185
 20
13.427377675439
 30
0.0
 40
2.0
  1
ＳＣＡＬＥ
 41
0.903614457831
  7
EXCADSTD
 72
     5
 11
266.823999505185
 21
13.427377675439
 31
0.0
100
AcDbText
  0
TEXT
  5
79
330
65
100
AcDbEntity
  8
図枠細線
  6
CONTINUOUS
 62
   252
100
AcDbText
 10
274.858592505185
 20
13.427377675439
 30
0.0
 40
2.0
  1
ＤＡＴＥ
 41
0.923076923077
  7
EXCADSTD
 72
     5
 11
282.858592505185
 21
13.427377675439
 31
0.0
100
AcDbText
  0
TEXT
  5
7A
330
65
100
AcDbEntity
  8
図枠細線
  6
CONTINUOUS
 62
   252
100
AcDbText
 10
356.358592505185
 20
13.427377675439
 30
0.0
 40
2.0
  1
ＤＲＧ．ＮＯ．
 41
0.9375
  7
EXCADSTD
 72
     5
 11
370.358592505185
 21
13.427377675439
 31
0.0
100
AcDbText
  0
TEXT
  5
7B
330
65
100
AcDbEntity
  8
図枠細線
  6
CONTINUOUS
 62
   252
100
AcDbText
 10
345.358592505185
 20
13.427377675439
 30
0.0
 40
2.0
  1
図面番号
 41
1.102941176471
  7
EXCADSTD
 72
     5
 11
355.358592505185
 21
13.427377675439
 31
0.0
100
AcDbText
  0
TEXT
  5
7C
330
65
100
AcDbEntity
  8
図枠細線
  6
CONTINUOUS
 62
   252
100
AcDbText
 10
269.358592505185
 20
13.427377675439
 30
0.0
 40
2.0
  1
日付
 41
1.171875
  7
EXCADSTD
 72
     5
 11
274.358592505185
 21
13.427377675439
 31
0.0
100
AcDbText
  0
TEXT
  5
7D
330
65
100
AcDbEntity
  8
図枠細線
  6
CONTINUOUS
 62
   252
100
AcDbText
 10
251.451512505185
 20
13.427377675439
 30
0.0
 40
2.0
  1
尺度
 41
1.171875
  7
EXCADSTD
 72
     5
 11
256.451512505185
 21
13.427377675439
 31
0.0
100
AcDbText
  0
TEXT
  5
7E
330
65
100
AcDbEntity
  8
図枠細線
  6
CONTINUOUS
 62
   252
100
AcDbText
 10
232.358592505185
 20
13.427377675439
 30
0.0
 40
2.0
  1
第三角法
 41
1.102941176471
  7
EXCADSTD
 72
     5
 11
242.358592505185
 21
13.427377675439
 31
0.0
100
AcDbText
  0
TEXT
  5
7F
330
65
100
AcDbEntity
  8
図枠細線
  6
CONTINUOUS
 62
   252
100
AcDbText
 10
212.358592505185
 20
28.427377675439
 30
0.0
 40
2.0
  1
ＮＯＴＥ
 41
0.923076923077
  7
EXCADSTD
 72
     5
 11
220.358592505185
 21
28.427377675439
 31
0.0
100
AcDbText
  0
LINE
  5
80
330
65
100
AcDbEntity
  8
図枠細線
  6
CONTINUOUS
 62
   252
100
AcDbLine
 10
287.858592505185
 20
23.427375675439
 30
0.0
 11
344.858592505185
 21
23.427375675439
 31
0.0
  0
LINE
  5
81
330
65
100
AcDbEntity
  8
図枠太線
  6
CONTINUOUS
 62
   251
100
AcDbLine
 10
287.858584505185
 20
15.927375675439
 30
0.0
 11
344.858592505185
 21
15.927375675439
 31
0.0
  0
LINE
  5
82
330
65
100
AcDbEntity
  8
図枠細線
  6
CONTINUOUS
 62
   252
100
AcDbLine
 10
344.858592505185
 20
15.927375675439
 30
0.0
 11
401.858584505185
 21
15.927375675439
 31
0.0
  0
LINE
  5
83
330
65
100
AcDbEntity
  8
図枠太線
  6
CONTINUOUS
 62
   251
100
AcDbLine
 10
344.858592505185
 20
0.927377675439
 30
0.0
 11
344.858592505185
 21
30.927375675439
 31
0.0
  0
LINE
  5
84
330
65
100
AcDbEntity
  8
図枠太線
  6
CONTINUOUS
 62
   251
100
AcDbLine
 10
287.858592505185
 20
0.927377675439
 30
0.0
 11
287.858592505185
 21
30.927375675439
 31
0.0
  0
LINE
  5
85
330
65
100
AcDbEntity
  8
図枠細線
  6
CONTINUOUS
 62
   252
100
AcDbLine
 10
268.858592505185
 20
0.927377675439
 30
0.0
 11
268.858592505185
 21
15.927375675439
 31
0.0
  0
LINE
  5
86
330
65
100
AcDbEntity
  8
図枠細線
  6
CONTINUOUS
 62
   252
100
AcDbLine
 10
250.858592505185
 20
0.927377675439
 30
0.0
 11
250.858592505185
 21
15.927375675439
 31
0.0
  0
LINE
  5
87
330
65
100
AcDbEntity
  8
図枠細線
  6
CONTINUOUS
 62
   252
100
AcDbLine
 10
273.858592505185
 20
30.927375675439
 30
0.0
 11
273.858592505185
 21
15.927375675439
 31
0.0
  0
LINE
  5
88
330
65
100
AcDbEntity
  8
図枠細線
  6
CONTINUOUS
 62
   252
100
AcDbLine
 10
259.858592505185
 20
30.927375675439
 30
0.0
 11
259.858592505185
 21
15.927375675439
 31
0.0
  0
LINE
  5
89
330
65
100
AcDbEntity
  8
図枠細線
  6
CONTINUOUS
 62
   252
100
AcDbLine
 10
245.858592505185
 20
30.927375675439
 30
0.0
 11
245.858592505185
 21
15.927375675439
 31
0.0
  0
LINE
  5
8A
330
65
100
AcDbEntity
  8
図枠太線
  6
CONTINUOUS
 62
   251
100
AcDbLine
 10
231.858592505185
 20
0.927377675439
 30
0.0
 11
231.858592505185
 21
30.927375675439
 31
0.0
  0
LINE
  5
8B
330
65
100
AcDbEntity
  8
図枠細線
  6
CONTINUOUS
 62
   252
100
AcDbLine
 10
211.858592505185
 20
25.927375675439
 30
0.0
 11
231.858592505185
 21
25.927375675439
 31
0.0
  0
LINE
  5
8C
330
65
100
AcDbEntity
  8
図枠細線
  6
CONTINUOUS
 62
   252
100
AcDbLine
 10
211.858592505185
 20
20.927375675439
 30
0.0
 11
231.858592505185
 21
20.927375675439
 31
0.0
  0
LINE
  5
8D
330
65
100
AcDbEntity
  8
図枠細線
  6
CONTINUOUS
 62
   252
100
AcDbLine
 10
211.858592505185
 20
10.927375675439
 30
0.0
 11
231.858592505185
 21
10.927375675439
 31
0.0
  0
LINE
  5
8E
330
65
100
AcDbEntity
  8
図枠細線
  6
CONTINUOUS
 62
   252
100
AcDbLine
 10
211.858592505185
 20
5.927377675439
 30
0.0
 11
231.858592505185
 21
5.927377675439
 31
0.0
  0
LINE
  5
8F
330
65
100
AcDbEntity
  8
図枠太線
  6
CONTINUOUS
 62
   251
100
AcDbLine
 10
211.858592505185
 20
30.927375675439
 30
0.0
 11
401.858584505185
 21
30.927375675439
 31
0.0
  0
LINE
  5
90
330
65
100
AcDbEntity
  8
図枠太線
  6
CONTINUOUS
 62
   251
100
AcDbLine
 10
1.858584505185
 20
275.927375675439
 30
0.0
 11
401.858584505185
 21
275.927375675439
 31
0.0
  0
LINE
  5
91
330
65
100
AcDbEntity
  8
図枠太線
  6
CONTINUOUS
 62
   251
100
AcDbLine
 10
401.858584505185
 20
0.927375675439
 30
0.0
 11
401.858584505185
 21
275.927375675439
 31
0.0
  0
LINE
  5
92
330
65
100
AcDbEntity
  8
図枠太線
  6
CONTINUOUS
 62
   251
100
AcDbLine
 10
1.858584505185
 20
0.927375675439
 30
0.0
 11
401.858584505185
 21
0.927375675439
 31
0.0
  0
ENDBLK
  5
94
330
65
100
AcDbEntity
  8
0
100
AcDbBlockEnd
  0
BLOCK
  5
29C0
330
29BF
100
AcDbEntity
  8
0
100
AcDbBlockBegin
  2
A4横用_タイトル
 70
     0
 10
0.0
 20
0.0
 30
0.0
  3
A4横用_タイトル
  1

  0
LINE
  5
29C1
330
29BF
100
AcDbEntity
  8
図枠細線
  6
CONTINUOUS
100
AcDbLine
 10
75.061011071051
 20
16.806607253358
 30
0.0
 11
144.061011071051
 21
16.806604789072
 31
0.0
  0
LINE
  5
29C2
330
29BF
100
AcDbEntity
  8
図枠細線
  6
CONTINUOUS
 62
   252
100
AcDbLine
 10
4.061011071051
 20
11.806606253358
 30
0.0
 11
75.061011071051
 21
11.806606253358
 31
0.0
  0
LINE
  5
29C3
330
29BF
100
AcDbEntity
  8
図枠細線
  6
CONTINUOUS
 62
   252
100
AcDbLine
 10
4.061011071051
 20
21.806606253358
 30
0.0
 11
75.061011071051
 21
21.806606253358
 31
0.0
  0
LINE
  5
29C4
330
29BF
100
AcDbEntity
  8
図枠細線
  6
CONTINUOUS
 62
   252
100
AcDbLine
 10
4.061011071051
 20
26.806606253358
 30
0.0
 11
75.061011071051
 21
26.806606253358
 31
0.0
  0
LINE
  5
29C5
330
29BF
100
AcDbEntity
  8
図枠細線
  6
CONTINUOUS
100
AcDbLine
 10
4.061011071051
 20
16.806608253358
 30
0.0
 11
75.061011071051
 21
16.806608253358
 31
0.0
  0
TEXT
  5
29C6
330
29BF
100
AcDbEntity
  8
図枠細線
  6
CONTINUOUS
 62
   252
100
AcDbText
 10
76.405475827713
 20
9.560308253358
 30
0.0
 40
2.0
  1
ＴＨＩＲＤ　ＡＮＧＬＥ
 41
0.691099486738
  7
EXCADSTD
 72
     5
 11
94.005476089973
 21
9.560308253358
 31
0.0
100
AcDbText
  0
TEXT
  5
29C7
330
29BF
100
AcDbEntity
  8
図枠細線
  6
CONTINUOUS
 62
   252
100
AcDbText
 10
76.705775880921
 20
14.306608253358
 30
0.0
 40
2.0
  1
第三角法
 41
1.102941176471
  7
EXCADSTD
 72
     5
 11
86.705775880921
 21
14.306608253358
 31
0.0
100
AcDbText
  0
TEXT
  5
29C8
330
29BF
100
AcDbEntity
  8
図枠細線
  6
CONTINUOUS
 62
   252
100
AcDbText
 10
76.705775880921
 20
26.806608253358
 30
0.0
 40
2.0
  1
ＡＰＰＲＯＶＥＤ
 41
0.695652184279
  7
EXCADSTD
 72
     5
 11
89.505776071656
 21
26.806608253358
 31
0.0
100
AcDbText
  0
TEXT
  5
29C9
330
29BF
100
AcDbEntity
  8
図枠細線
  6
CONTINUOUS
 62
   252
100
AcDbText
 10
76.705775880921
 20
29.306608253358
 30
0.0
 40
2.0
  1
承認
 41
1.171875
  7
EXCADSTD
 72
     5
 11
81.705775880921
 21
29.306608253358
 31
0.0
100
AcDbText
  0
LINE
  5
29CA
330
29BF
100
AcDbEntity
  8
図枠細線
  6
CONTINUOUS
 62
   252
100
AcDbLine
 10
98.061011071051
 20
31.806606253358
 30
0.0
 11
98.061011071051
 21
16.806606253358
 31
0.0
  0
TEXT
  5
29CB
330
29BF
100
AcDbEntity
  8
図枠細線
  6
CONTINUOUS
 62
   252
100
AcDbText
 10
104.216531119804
 20
14.306608253358
 30
0.0
 40
2.0
  1
ＳＣＡＬＥ
 41
0.903614457831
  7
EXCADSTD
 72
     5
 11
114.216531119804
 21
14.306608253358
 31
0.0
100
AcDbText
  0
TEXT
  5
29CC
330
29BF
100
AcDbEntity
  8
図枠細線
  6
CONTINUOUS
 62
   252
100
AcDbText
 10
98.844044119804
 20
14.306608253358
 30
0.0
 40
2.0
  1
尺度
 41
1.171875
  7
EXCADSTD
 72
     5
 11
103.844044119804
 21
14.306608253358
 31
0.0
100
AcDbText
  0
TEXT
  5
29CD
330
29BF
100
AcDbEntity
  8
図枠細線
  6
CONTINUOUS
 62
   252
100
AcDbText
 10
98.968727707497
 20
26.806608253358
 30
0.0
 40
2.0
  1
ＣＨＥＣＫＥＤ
 41
0.831249989569
  7
EXCADSTD
 72
     5
 11
112.268727540604
 21
26.806608253358
 31
0.0
100
AcDbText
  0
TEXT
  5
29CE
330
29BF
100
AcDbEntity
  8
図枠細線
  6
CONTINUOUS
 62
   252
100
AcDbText
 10
98.968727707497
 20
29.306608253358
 30
0.0
 40
2.0
  1
検図
 41
1.209677419355
  7
EXCADSTD
 72
     5
 11
103.968727707497
 21
29.306608253358
 31
0.0
100
AcDbText
  0
LINE
  5
29CF
330
29BF
100
AcDbEntity
  8
図枠細線
  6
CONTINUOUS
 62
   252
100
AcDbLine
 10
121.061011071051
 20
31.806606253358
 30
0.0
 11
121.061011071051
 21
16.806606253358
 31
0.0
  0
TEXT
  5
29D0
330
29BF
100
AcDbEntity
  8
図枠細線
  6
CONTINUOUS
 62
   252
100
AcDbText
 10
128.001465247253
 20
14.306608253358
 30
0.0
 40
2.0
  1
ＤＡＴＥ
 41
0.923076923077
  7
EXCADSTD
 72
     5
 11
136.001465247253
 21
14.306608253358
 31
0.0
100
AcDbText
  0
TEXT
  5
29D1
330
29BF
100
AcDbEntity
  8
図枠細線
  6
CONTINUOUS
 62
   252
100
AcDbText
 10
122.066415498841
 20
14.306608253358
 30
0.0
 40
2.0
  1
日付
 41
1.171875
  7
EXCADSTD
 72
     5
 11
127.066415498841
 21
14.306608253358
 31
0.0
100
AcDbText
  0
TEXT
  5
29D2
330
29BF
100
AcDbEntity
  8
図枠細線
  6
CONTINUOUS
 62
   252
100
AcDbText
 10
121.59429406571
 20
29.306608253358
 30
0.0
 40
2.0
  1
製図
 41
1.209677419355
  7
EXCADSTD
 72
     5
 11
126.59429406571
 21
29.306608253358
 31
0.0
100
AcDbText
  0
TEXT
  5
29D3
330
29BF
100
AcDbEntity
  8
図枠細線
  6
CONTINUOUS
 62
   252
100
AcDbText
 10
121.59429406571
 20
26.806608253358
 30
0.0
 40
2.0
  1
ＤＲＡＷＮ
 41
0.882352941176
  7
EXCADSTD
 72
     5
 11
131.59429406571
 21
26.806608253358
 31
0.0
100
AcDbText
  0
TEXT
  5
29D4
330
29BF
100
AcDbEntity
  8
図枠細線
  6
CONTINUOUS
 62
   252
100
AcDbText
 10
226.591229661348
 20
14.306608253358
 30
0.0
 40
2.0
  1
ＤＲＧ．ＮＯ．
 41
0.9375
  7
EXCADSTD
 72
     5
 11
240.591229661348
 21
14.306608253358
 31
0.0
100
AcDbText
  0
LINE
  5
29D5
330
29BF
100
AcDbEntity
  8
図枠太線
  6
CONTINUOUS
 62
   251
100
AcDbLine
 10
144.061003071051
 20
16.806606253358
 30
0.0
 11
214.061011071051
 21
16.806606253358
 31
0.0
  0
LINE
  5
29D6
330
29BF
100
AcDbEntity
  8
図枠細線
  6
CONTINUOUS
 62
   252
100
AcDbLine
 10
144.061011071051
 20
24.306606253358
 30
0.0
 11
214.061011071051
 21
24.306606253358
 31
0.0
  0
TEXT
  5
29D7
330
29BF
100
AcDbEntity
  8
図枠ロゴマーク
  6
CONTINUOUS
 62
   253
100
AcDbText
 10
146.433776781596
 20
8.399000253358
 30
0.0
 40
7.0
  1
東和制電工業株式会社
 41
0.80361088462
  7
EXCADSTD
 72
     5
 11
212.437017438349
 21
8.399000253358
 31
0.0
100
AcDbText
  0
TEXT
  5
29D8
330
29BF
100
AcDbEntity
  8
図枠細線
  6
CONTINUOUS
 62
   252
100
AcDbText
 10
215.156179912936
 20
14.306608253358
 30
0.0
 40
2.0
  1
図面番号
 41
1.102941176471
  7
EXCADSTD
 72
     5
 11
225.156179912936
 21
14.306608253358
 31
0.0
100
AcDbText
  0
TEXT
  5
29D9
330
29BF
100
AcDbEntity
  8
図枠細線
  6
CONTINUOUS
 62
   252
100
AcDbText
 10
221.591229661348
 20
29.306608253358
 30
0.0
 40
2.0
  1
ＴＩＴＬＥ
 41
0.903614457831
  7
EXCADSTD
 72
     5
 11
231.591229661348
 21
29.306608253358
 31
0.0
100
AcDbText
  0
TEXT
  5
29DA
330
29BF
100
AcDbEntity
  8
図枠細線
  6
CONTINUOUS
 62
   252
100
AcDbText
 10
215.156179912936
 20
29.306608253358
 30
0.0
 40
2.0
  1
名称
 41
1.171875
  7
EXCADSTD
 72
     5
 11
220.156179912936
 21
29.306608253358
 31
0.0
100
AcDbText
  0
LINE
  5
29DB
330
29BF
100
AcDbEntity
  8
図枠太線
  6
CONTINUOUS
 62
   251
100
AcDbLine
 10
4.061011071051
 20
1.806608253358
 30
0.0
 11
284.061011071051
 21
1.806608253358
 31
0.0
  0
LINE
  5
29DC
330
29BF
100
AcDbEntity
  8
図枠細線
  6
CONTINUOUS
 62
   252
100
AcDbLine
 10
4.061011071051
 20
6.806608253358
 30
0.0
 11
75.061011071051
 21
6.806608253358
 31
0.0
  0
LINE
  5
29DD
330
29BF
100
AcDbEntity
  8
図枠太線
  6
CONTINUOUS
 62
   251
100
AcDbLine
 10
75.061011071051
 20
1.806608253358
 30
0.0
 11
75.061011071051
 21
31.806606253358
 31
0.0
  0
TEXT
  5
29DE
330
29BF
100
AcDbEntity
  8
図枠細線
  6
CONTINUOUS
 62
   252
100
AcDbText
 10
76.330551827713
 20
6.638319253358
 30
0.0
 40
2.0
  1
ＰＲＯＪＥＣＴＩＯＮ
 41
0.754285710199
  7
EXCADSTD
 72
     5
 11
93.930551732346
 21
6.638319253358
 31
0.0
100
AcDbText
  0
LINE
  5
29DF
330
29BF
100
AcDbEntity
  8
図枠細線
  6
CONTINUOUS
 62
   252
100
AcDbLine
 10
98.061011071051
 20
1.806606931929
 30
0.0
 11
98.061011071051
 21
16.806604931929
 31
0.0
  0
LINE
  5
29E0
330
29BF
100
AcDbEntity
  8
図枠細線
  6
CONTINUOUS
 62
   252
100
AcDbLine
 10
121.061011071051
 20
1.806607574787
 30
0.0
 11
121.061011071051
 21
16.806605574787
 31
0.0
  0
LINE
  5
29E1
330
29BF
100
AcDbEntity
  8
図枠太線
  6
CONTINUOUS
 62
   251
100
AcDbLine
 10
284.061011071051
 20
1.806608253358
 30
0.0
 11
284.061011071051
 21
31.806606253358
 31
0.0
  0
LINE
  5
29E2
330
29BF
100
AcDbEntity
  8
図枠細線
  6
CONTINUOUS
 62
   252
100
AcDbLine
 10
214.061011071051
 20
16.806606253358
 30
0.0
 11
284.061011071051
 21
16.806606253358
 31
0.0
  0
TEXT
  5
29E3
330
29BF
100
AcDbEntity
  8
図枠細線
  6
CONTINUOUS
 62
   252
100
AcDbText
 10
146.199593676182
 20
3.454099253358
 30
0.0
 40
3.5
  1
ＴＯＷＡ　ＳＥＩＤＥＮ　ＩＮＤＵＳＴＲＩＡＬ　ＣＯ．，ＬＴＤ．
 41
0.528937826907
  7
EXCADSTD
 72
     5
 11
213.339435171588
 21
3.454099253358
 31
0.0
100
AcDbText
  0
LINE
  5
29E4
330
29BF
100
AcDbEntity
  8
図枠太線
  6
CONTINUOUS
 62
   251
100
AcDbLine
 10
144.061011071051
 20
1.806608253358
 30
0.0
 11
144.061011071051
 21
31.806606253358
 31
0.0
  0
LINE
  5
29E5
330
29BF
100
AcDbEntity
  8
図枠太線
  6
CONTINUOUS
 62
   251
100
AcDbLine
 10
214.061011071051
 20
1.806608253358
 30
0.0
 11
214.061011071051
 21
31.806606253358
 31
0.0
  0
MTEXT
  5
29E6
330
29BF
100
AcDbEntity
  8
図枠太線
100
AcDbMText
 10
5.064337346478
 20
31.010982137407
 30
0.0
 40
2.5
 41
8.67856098472
 71
     1
 72
     5
  1
{\Fmonotxt.shx,bigfont.shx|c128;図暦}
  0
LINE
  5
29E7
330
29BF
100
AcDbEntity
  8
図枠太線
  6
CONTINUOUS
 62
   251
100
AcDbLine
 10
4.061011071051
 20
1.806608253358
 30
0.0
 11
4.061011071051
 21
31.806606253358
 31
0.0
  0
TEXT
  5
29E8
330
29BF
100
AcDbEntity
  8
図枠細線
 48
10.0
100
AcDbText
 10
12.260817420402
 20
28.625419626495
 30
0.0
 40
2.0
  1
CHANGE NOTICE
100
AcDbText
  0
ENDBLK
  5
29E9
330
29BF
100
AcDbEntity
  8
0
100
AcDbBlockEnd
  0
BLOCK
  5
29F5
330
29F4
100
AcDbEntity
  8
0
100
AcDbBlockBegin
  2
A4縦用_タイトル
 70
     0
 10
0.0
 20
0.0
 30
0.0
  3
A4縦用_タイトル
  1

  0
LINE
  5
29F6
330
29F4
100
AcDbEntity
  8
図枠太線
  6
CONTINUOUS
 62
   251
100
AcDbLine
 10
2.368253864267
 20
4.525433224584
 30
0.0
 11
192.368245864267
 21
4.525433224584
 31
0.0
  0
LINE
  5
29F7
330
29F4
100
AcDbEntity
  8
図枠太線
  6
CONTINUOUS
 62
   251
100
AcDbLine
 10
78.368245864267
 20
19.525431224584
 30
0.0
 11
135.368253864267
 21
19.525431224584
 31
0.0
  0
LINE
  5
29F8
330
29F4
100
AcDbEntity
  8
図枠細線
  6
CONTINUOUS
 62
   252
100
AcDbLine
 10
78.368253864267
 20
27.025431224584
 30
0.0
 11
135.368253864267
 21
27.025431224584
 31
0.0
  0
TEXT
  5
29F9
330
29F4
100
AcDbEntity
  8
図枠ロゴマーク
  6
CONTINUOUS
 62
   253
100
AcDbText
 10
80.617009864267
 20
11.117825224584
 30
0.0
 40
7.0
  1
東和制電工業株式会社
 41
0.639204545455
  7
EXCADSTD
 72
     5
 11
133.117009864267
 21
11.117825224584
 31
0.0
100
AcDbText
  0
TEXT
  5
29FA
330
29F4
100
AcDbEntity
  8
図枠細線
  6
CONTINUOUS
 62
   252
100
AcDbText
 10
80.579549864267
 20
6.172924224584
 30
0.0
 40
3.5
  1
ＴＯＷＡ　ＳＥＩＤＥＮ　ＩＮＤＵＳＴＲＩＡＬ　ＣＯ．，ＬＴＤ．
 41
0.414568012377
  7
EXCADSTD
 72
     5
 11
133.202049568628
 21
6.172924224584
 31
0.0
100
AcDbText
  0
LINE
  5
29FB
330
29F4
100
AcDbEntity
  8
図枠太線
  6
CONTINUOUS
 62
   251
100
AcDbLine
 10
2.368253864267
 20
4.525433224584
 30
0.0
 11
2.368253864267
 21
34.525431224584
 31
0.0
  0
TEXT
  5
29FC
330
29F4
100
AcDbEntity
  8
図枠細線
  6
CONTINUOUS
 62
   252
100
AcDbText
 10
22.504308136501
 20
12.279133224584
 30
0.0
 40
2.0
  1
ＴＨＩＲＤ　ＡＮＧＬＥ
 41
0.691099486738
  7
EXCADSTD
 72
     5
 11
40.104308398762
 21
12.279133224584
 31
0.0
100
AcDbText
  0
TEXT
  5
29FD
330
29F4
100
AcDbEntity
  8
図枠細線
  6
CONTINUOUS
 62
   252
100
AcDbText
 10
22.429384136501
 20
9.357144224584
 30
0.0
 40
2.0
  1
ＰＲＯＪＥＣＴＩＯＮ
 41
0.754285710199
  7
EXCADSTD
 72
     5
 11
40.029384041134
 21
9.357144224584
 31
0.0
100
AcDbText
  0
LINE
  5
29FE
330
29F4
100
AcDbEntity
  8
図枠細線
  6
CONTINUOUS
100
AcDbLine
 10
22.368253864267
 20
19.525433224584
 30
0.0
 11
78.368253864267
 21
19.525431224584
 31
0.0
  0
TEXT
  5
29FF
330
29F4
100
AcDbEntity
  8
図枠細線
  6
CONTINUOUS
 62
   252
100
AcDbText
 10
22.868253864267
 20
17.025433224584
 30
0.0
 40
2.0
  1
第三角法
 41
1.102941176471
  7
EXCADSTD
 72
     5
 11
32.868253864267
 21
17.025433224584
 31
0.0
100
AcDbText
  0
TEXT
  5
2A00
330
29F4
100
AcDbEntity
  8
図枠細線
  6
CONTINUOUS
 62
   252
100
AcDbText
 10
22.868253864267
 20
29.525433224584
 30
0.0
 40
2.0
  1
ＡＰＰＲＯＶＥＤ
 41
0.695652184279
  7
EXCADSTD
 72
     5
 11
35.668254055002
 21
29.525433224584
 31
0.0
100
AcDbText
  0
LINE
  5
2A01
330
29F4
100
AcDbEntity
  8
図枠細線
  6
CONTINUOUS
 62
   252
100
AcDbLine
 10
2.368253864267
 20
9.525433224584
 30
0.0
 11
22.368253864267
 21
9.525433224584
 31
0.0
  0
LINE
  5
2A02
330
29F4
100
AcDbEntity
  8
図枠細線
  6
CONTINUOUS
 62
   252
100
AcDbLine
 10
2.368253864267
 20
14.525431224584
 30
0.0
 11
22.368253864267
 21
14.525431224584
 31
0.0
  0
LINE
  5
2A03
330
29F4
100
AcDbEntity
  8
図枠細線
  6
CONTINUOUS
 62
   252
100
AcDbLine
 10
2.368253864267
 20
24.525431224584
 30
0.0
 11
22.368253864267
 21
24.525431224584
 31
0.0
  0
LINE
  5
2A04
330
29F4
100
AcDbEntity
  8
図枠細線
  6
CONTINUOUS
 62
   252
100
AcDbLine
 10
2.368253864267
 20
29.525431224584
 30
0.0
 11
22.368253864267
 21
29.525431224584
 31
0.0
  0
LINE
  5
2A05
330
29F4
100
AcDbEntity
  8
図枠細線
  6
CONTINUOUS
100
AcDbLine
 10
2.368253864267
 20
19.525433224584
 30
0.0
 11
22.368253864267
 21
19.525433224584
 31
0.0
  0
TEXT
  5
2A06
330
29F4
100
AcDbEntity
  8
図枠細線
  6
CONTINUOUS
 62
   252
100
AcDbText
 10
2.868253864267
 20
32.025433224584
 30
0.0
 40
2.0
  1
ＮＯＴＥ
 41
0.923076923077
  7
EXCADSTD
 72
     5
 11
10.868253864267
 21
32.025433224584
 31
0.0
100
AcDbText
  0
LINE
  5
2A07
330
29F4
100
AcDbEntity
  8
図枠太線
  6
CONTINUOUS
 62
   251
100
AcDbLine
 10
22.368253864267
 20
4.525433224584
 30
0.0
 11
22.368253864267
 21
34.525431224584
 31
0.0
  0
TEXT
  5
2A08
330
29F4
100
AcDbEntity
  8
図枠細線
  6
CONTINUOUS
 62
   252
100
AcDbText
 10
22.868253864267
 20
32.025433224584
 30
0.0
 40
2.0
  1
承認
 41
1.171875
  7
EXCADSTD
 72
     5
 11
27.868253864267
 21
32.025433224584
 31
0.0
100
AcDbText
  0
TEXT
  5
2A09
330
29F4
100
AcDbEntity
  8
図枠細線
  6
CONTINUOUS
 62
   252
100
AcDbText
 10
60.711709035982
 20
32.025433224584
 30
0.0
 40
2.0
  1
製図
 41
1.209677419355
  7
EXCADSTD
 72
     5
 11
65.711709035982
 21
32.025433224584
 31
0.0
100
AcDbText
  0
TEXT
  5
2A0A
330
29F4
100
AcDbEntity
  8
図枠細線
  6
CONTINUOUS
 62
   252
100
AcDbText
 10
60.711709035982
 20
29.525433224584
 30
0.0
 40
2.0
  1
ＤＲＡＷＮ
 41
0.882352941176
  7
EXCADSTD
 72
     5
 11
70.711709035982
 21
29.525433224584
 31
0.0
100
AcDbText
  0
TEXT
  5
2A0B
330
29F4
100
AcDbEntity
  8
図枠細線
  6
CONTINUOUS
 62
   252
100
AcDbText
 10
60.834891743877
 20
17.025433224584
 30
0.0
 40
2.0
  1
日付
 41
1.171875
  7
EXCADSTD
 72
     5
 11
65.834891743877
 21
17.025433224584
 31
0.0
100
AcDbText
  0
TEXT
  5
2A0C
330
29F4
100
AcDbEntity
  8
図枠細線
  6
CONTINUOUS
 62
   252
100
AcDbText
 10
47.333660864267
 20
17.025433224584
 30
0.0
 40
2.0
  1
ＳＣＡＬＥ
 41
0.903614457831
  7
EXCADSTD
 72
     5
 11
57.333660864267
 21
17.025433224584
 31
0.0
100
AcDbText
  0
TEXT
  5
2A0D
330
29F4
100
AcDbEntity
  8
図枠細線
  6
CONTINUOUS
 62
   252
100
AcDbText
 10
42.281425990082
 20
29.525433224584
 30
0.0
 40
2.0
  1
ＣＨＥＣＫＥＤ
 41
0.831249989569
  7
EXCADSTD
 72
     5
 11
55.581425823189
 21
29.525433224584
 31
0.0
100
AcDbText
  0
LINE
  5
2A0E
330
29F4
100
AcDbEntity
  8
図枠細線
  6
CONTINUOUS
 62
   252
100
AcDbLine
 10
40.968253864267
 20
34.525431224584
 30
0.0
 11
40.968253864267
 21
19.525431224584
 31
0.0
  0
LINE
  5
2A0F
330
29F4
100
AcDbEntity
  8
図枠細線
  6
CONTINUOUS
 62
   252
100
AcDbLine
 10
40.968253864267
 20
4.525433224584
 30
0.0
 11
40.968253864267
 21
19.525431224584
 31
0.0
  0
TEXT
  5
2A10
330
29F4
100
AcDbEntity
  8
図枠細線
  6
CONTINUOUS
 62
   252
100
AcDbText
 10
41.961173864267
 20
17.025433224584
 30
0.0
 40
2.0
  1
尺度
 41
1.171875
  7
EXCADSTD
 72
     5
 11
46.961173864267
 21
17.025433224584
 31
0.0
100
AcDbText
  0
TEXT
  5
2A11
330
29F4
100
AcDbEntity
  8
図枠細線
  6
CONTINUOUS
 62
   252
100
AcDbText
 10
42.281425990082
 20
32.025433224584
 30
0.0
 40
2.0
  1
検図
 41
1.209677419355
  7
EXCADSTD
 72
     5
 11
47.281425990082
 21
32.025433224584
 31
0.0
100
AcDbText
  0
LINE
  5
2A12
330
29F4
100
AcDbEntity
  8
図枠細線
  6
CONTINUOUS
 62
   252
100
AcDbLine
 10
59.768253864267
 20
34.525431224584
 30
0.0
 11
59.768253864267
 21
19.525431224584
 31
0.0
  0
LINE
  5
2A13
330
29F4
100
AcDbEntity
  8
図枠細線
  6
CONTINUOUS
 62
   252
100
AcDbLine
 10
59.768253864267
 20
4.525433224584
 30
0.0
 11
59.768253864267
 21
19.525431224584
 31
0.0
  0
LINE
  5
2A14
330
29F4
100
AcDbEntity
  8
図枠太線
  6
CONTINUOUS
 62
   251
100
AcDbLine
 10
78.368253864267
 20
4.525433224584
 30
0.0
 11
78.368253864267
 21
34.525431224584
 31
0.0
  0
TEXT
  5
2A15
330
29F4
100
AcDbEntity
  8
図枠細線
  6
CONTINUOUS
 62
   252
100
AcDbText
 10
66.334891743877
 20
17.025433224584
 30
0.0
 40
2.0
  1
ＤＡＴＥ
 41
0.923076923077
  7
EXCADSTD
 72
     5
 11
74.334891743877
 21
17.025433224584
 31
0.0
100
AcDbText
  0
LINE
  5
2A16
330
29F4
100
AcDbEntity
  8
図枠細線
  6
CONTINUOUS
 62
   252
100
AcDbLine
 10
135.368253864267
 20
19.525431224584
 30
0.0
 11
192.368245864267
 21
19.525431224584
 31
0.0
  0
TEXT
  5
2A17
330
29F4
100
AcDbEntity
  8
図枠細線
  6
CONTINUOUS
 62
   252
100
AcDbText
 10
141.868253864267
 20
32.025433224584
 30
0.0
 40
2.0
  1
ＴＩＴＬＥ
 41
0.903614457831
  7
EXCADSTD
 72
     5
 11
151.868253864267
 21
32.025433224584
 31
0.0
100
AcDbText
  0
LINE
  5
2A18
330
29F4
100
AcDbEntity
  8
図枠太線
  6
CONTINUOUS
 62
   251
100
AcDbLine
 10
135.368253864267
 20
4.525433224584
 30
0.0
 11
135.368253864267
 21
34.525431224584
 31
0.0
  0
TEXT
  5
2A19
330
29F4
100
AcDbEntity
  8
図枠細線
  6
CONTINUOUS
 62
   252
100
AcDbText
 10
135.868253864267
 20
17.025433224584
 30
0.0
 40
2.0
  1
図面番号
 41
1.102941176471
  7
EXCADSTD
 72
     5
 11
145.868253864267
 21
17.025433224584
 31
0.0
100
AcDbText
  0
TEXT
  5
2A1A
330
29F4
100
AcDbEntity
  8
図枠細線
  6
CONTINUOUS
 62
   252
100
AcDbText
 10
135.868253864267
 20
32.025433224584
 30
0.0
 40
2.0
  1
名称
 41
1.171875
  7
EXCADSTD
 72
     5
 11
140.868253864267
 21
32.025433224584
 31
0.0
100
AcDbText
  0
TEXT
  5
2A1B
330
29F4
100
AcDbEntity
  8
図枠細線
  6
CONTINUOUS
 62
   252
100
AcDbText
 10
146.868253864267
 20
17.025433224584
 30
0.0
 40
2.0
  1
ＤＲＧ．ＮＯ．
 41
0.9375
  7
EXCADSTD
 72
     5
 11
160.868253864267
 21
17.025433224584
 31
0.0
100
AcDbText
  0
LINE
  5
2A1C
330
29F4
100
AcDbEntity
  8
図枠太線
  6
CONTINUOUS
 62
   251
100
AcDbLine
 10
192.368245864267
 20
4.525433224584
 30
0.0
 11
192.368245864267
 21
34.525431224584
 31
0.0
  0
ENDBLK
  5
2A1D
330
29F4
100
AcDbEntity
  8
0
100
AcDbBlockEnd
  0
BLOCK
  5
2A33
330
2A32
100
AcDbEntity
  8
0
100
AcDbBlockBegin
  2
A3横用_タイトル
 70
     0
 10
0.0
 20
0.0
 30
0.0
  3
A3横用_タイトル
  1

  0
LINE
  5
2A34
330
2A32
100
AcDbEntity
  8
図枠細線
  6
CONTINUOUS
 62
   252
100
AcDbLine
 10
205.098414535793
 20
33.525959753527
 30
0.0
 11
305.098414535793
 21
33.525959753527
 31
0.0
  0
LINE
  5
2A35
330
2A32
100
AcDbEntity
  8
図枠太線
  6
CONTINUOUS
 62
   251
100
AcDbLine
 10
205.098414535793
 20
23.525959753527
 30
0.0
 11
305.098414535793
 21
23.525959753527
 31
0.0
  0
LINE
  5
2A36
330
2A32
100
AcDbEntity
  8
図枠細線
  6
CONTINUOUS
100
AcDbLine
 10
5.098414535793
 20
23.525959753527
 30
0.0
 11
105.098414535793
 21
23.525959753527
 31
0.0
  0
LINE
  5
2A37
330
2A32
100
AcDbEntity
  8
図枠細線
  6
CONTINUOUS
 62
   252
100
AcDbLine
 10
5.098414535793
 20
36.725957753527
 30
0.0
 11
105.098414535793
 21
36.725957753527
 31
0.0
  0
LINE
  5
2A38
330
2A32
100
AcDbEntity
  8
図枠細線
  6
CONTINUOUS
 62
   252
100
AcDbLine
 10
5.098414535793
 20
30.125957753527
 30
0.0
 11
105.098414535793
 21
30.125957753527
 31
0.0
  0
LINE
  5
2A39
330
2A32
100
AcDbEntity
  8
図枠細線
  6
CONTINUOUS
 62
   252
100
AcDbLine
 10
5.098414535793
 20
16.725959753527
 30
0.0
 11
105.098414535793
 21
16.725959753527
 31
0.0
  0
LINE
  5
2A3A
330
2A32
100
AcDbEntity
  8
図枠細線
  6
CONTINUOUS
 62
   252
100
AcDbLine
 10
5.098414535793
 20
10.125959753527
 30
0.0
 11
105.098414535793
 21
10.125959753527
 31
0.0
  0
LINE
  5
2A3B
330
2A32
100
AcDbEntity
  8
図枠細線
  6
CONTINUOUS
100
AcDbLine
 10
105.098414535793
 20
23.525961753527
 30
0.0
 11
205.098414535793
 21
23.525959753527
 31
0.0
  0
LINE
  5
2A3C
330
2A32
100
AcDbEntity
  8
図枠細線
  6
CONTINUOUS
 62
   252
100
AcDbLine
 10
138.398414535793
 20
43.525959753527
 30
0.0
 11
138.398414535793
 21
18.525957753527
 31
0.0
  0
LINE
  5
2A3D
330
2A32
100
AcDbEntity
  8
図枠細線
  6
CONTINUOUS
 62
   252
100
AcDbLine
 10
171.698414535793
 20
43.525959753527
 30
0.0
 11
171.698414535793
 21
18.525957753527
 31
0.0
  0
LINE
  5
2A3E
330
2A32
100
AcDbEntity
  8
図枠細線
  6
CONTINUOUS
 62
   252
100
AcDbLine
 10
305.098414535793
 20
23.525959753527
 30
0.0
 11
405.098414535793
 21
23.525959753527
 31
0.0
  0
TEXT
  5
2A3F
330
2A32
100
AcDbEntity
  8
図枠ロゴマーク
  6
CONTINUOUS
 62
   253
100
AcDbText
 10
206.102509212755
 20
13.294257570546
 30
0.0
 40
7.0
  1
東和制電工業株式会社
 50
0.016555220185
 41
1.186384129432
  7
EXCADSTD
 72
     5
 11
303.544188309143
 21
13.322412672217
 31
0.0
100
AcDbText
  0
MTEXT
  5
2A40
330
2A32
100
AcDbEntity
  8
図枠細線
100
AcDbMText
 10
6.356764112375
 20
41.976594175478
 30
0.0
 40
2.5
 41
49.938282706292
 71
     1
 72
     5
  1
{\Fmonotxt.shx,bigfont.shx|c128;図暦　CHANGE　NOTICE}
  0
MTEXT
  5
2A41
330
2A32
100
AcDbEntity
  8
図枠細線
 48
10.0
100
AcDbMText
 10
306.544114926828
 20
41.701835800934
 30
0.0
 40
2.5
 41
28.002809618823
 71
     1
 72
     5
  1
{\Fmonotxt.shx,bigfont.shx|c128;名称　TITLE}
  0
MTEXT
  5
2A42
330
2A32
100
AcDbEntity
  8
図枠細線
 48
10.0
100
AcDbMText
 10
307.329617114284
 20
21.606206797226
 30
0.0
 40
2.5
 41
24.385612216707
 71
     1
 72
     5
  1
{\Fmonotxt.shx,bigfont.shx|c128;図面番号\PDRG.　No.}
  0
MTEXT
  5
2A43
330
2A32
100
AcDbEntity
  8
図枠細線
 48
10.0
100
AcDbMText
 10
173.726349404609
 20
21.73680662198
 30
0.0
 40
2.5
 41
25.735090160813
 71
     1
 72
     5
  1
{\Fmonotxt.shx,bigfont.shx|c128;日付 DATE}
  0
MTEXT
  5
2A44
330
2A32
100
AcDbEntity
  8
図枠細線
 48
10.0
100
AcDbMText
 10
173.48708833982
 20
41.621592044998
 30
0.0
 40
2.5
 41
24.983741184205
 71
     1
 72
     5
  1
{\Fmonotxt.shx,bigfont.shx|c128;製図　DRAWN}
  0
MTEXT
  5
2A45
330
2A32
100
AcDbEntity
  8
図枠細線
 48
10.0
100
AcDbMText
 10
139.28009927741
 20
21.866713069868
 30
0.0
 40
2.5
 41
22.629632913243
 71
     1
 72
     5
  1
{\Fmonotxt.shx,bigfont.shx|c128;尺度　SCALE}
  0
MTEXT
  5
2A46
330
2A32
100
AcDbEntity
  8
図枠細線
 48
10.0
100
AcDbMText
 10
139.910091179835
 20
41.311840415554
 30
0.0
 40
2.5
 41
28.998753428368
 71
     1
 72
     5
  1
{\Fmonotxt.shx,bigfont.shx|c128;検図  CHECKED}
  0
MTEXT
  5
2A47
330
2A32
100
AcDbEntity
  8
図枠細線
 48
10.0
100
AcDbMText
 10
114.253294667728
 20
21.916124850174
 30
0.0
 40
3.0
 41
19.692400475383
 71
     1
 72
     5
  1
{\Fmonotxt.shx,bigfont.shx|c128;第三角法}
  0
MTEXT
  5
2A48
330
2A32
100
AcDbEntity
  8
図枠細線
 48
10.0
100
AcDbMText
 10
108.986959929915
 20
15.282880185837
 30
0.0
 40
2.5
 41
27.954882823547
 71
     1
 72
     5
  1
{\Fmonotxt.shx,bigfont.shx|c128;THIRD ANGLE\PPROJECTION}
  0
MTEXT
  5
2A49
330
2A32
100
AcDbEntity
  8
図枠細線
 48
10.0
100
AcDbMText
 10
106.319432640184
 20
41.511437145487
 30
0.0
 40
2.5
 41
28.233595265074
 71
     1
 72
     5
  1
{\Fmonotxt.shx,bigfont.shx|c128;承認 APPROVED}
  0
LINE
  5
2A4A
330
2A32
100
AcDbEntity
  8
図枠太線
  6
CONTINUOUS
 62
   251
100
AcDbLine
 10
5.098414535793
 20
3.525959753527
 30
0.0
 11
405.098414535793
 21
3.525959753527
 31
0.0
  0
LINE
  5
2A4B
330
2A32
100
AcDbEntity
  8
図枠太線
 48
10.0
100
AcDbLine
 10
5.098414535793
 20
3.525959753527
 30
0.0
 11
5.098414535793
 21
43.525959753527
 31
0.0
  0
LINE
  5
2A4C
330
2A32
100
AcDbEntity
  8
図枠太線
  6
CONTINUOUS
 62
   251
100
AcDbLine
 10
105.098414535793
 20
3.525959753527
 30
0.0
 11
105.098414535793
 21
43.525959753527
 31
0.0
  0
LINE
  5
2A4D
330
2A32
100
AcDbEntity
  8
図枠細線
  6
CONTINUOUS
 62
   252
100
AcDbLine
 10
138.398414535793
 20
3.525959753527
 30
0.0
 11
138.398414535793
 21
18.525957753527
 31
0.0
  0
LINE
  5
2A4E
330
2A32
100
AcDbEntity
  8
図枠細線
  6
CONTINUOUS
 62
   252
100
AcDbLine
 10
171.698414535793
 20
3.525959753527
 30
0.0
 11
171.698414535793
 21
18.525957753527
 31
0.0
  0
LINE
  5
2A4F
330
2A32
100
AcDbEntity
  8
図枠太線
  6
CONTINUOUS
 62
   251
100
AcDbLine
 10
205.098414535793
 20
3.525959753527
 30
0.0
 11
205.098414535793
 21
43.525959753527
 31
0.0
  0
LINE
  5
2A50
330
2A32
100
AcDbEntity
  8
図枠太線
 48
10.0
100
AcDbLine
 10
405.098414535793
 20
43.525959753527
 30
0.0
 11
405.098414535793
 21
3.525959753527
 31
0.0
  0
TEXT
  5
2A51
330
2A32
100
AcDbEntity
  8
図枠細線
  6
CONTINUOUS
 62
   252
100
AcDbText
 10
208.519754474572
 20
6.482358407285
 30
0.0
 40
3.5
  1
ＴＯＷＡ　ＳＥＩＤＥＮ　ＩＮＤＵＳＴＲＩＡＬ　ＣＯ．，ＬＴＤ．
 41
0.746656297509
  7
EXCADSTD
 72
     5
 11
303.295327171727
 21
6.482358407285
 31
0.0
100
AcDbText
  0
LINE
  5
2A52
330
2A32
100
AcDbEntity
  8
図枠太線
  6
CONTINUOUS
 62
   251
100
AcDbLine
 10
305.098414535793
 20
3.525959753527
 30
0.0
 11
305.098414535793
 21
43.525959753527
 31
0.0
  0
ENDBLK
  5
2A53
330
2A32
100
AcDbEntity
  8
0
100
AcDbBlockEnd
  0
BLOCK
  5
2A6D
330
2A6C
100
AcDbEntity
  8
0
100
AcDbBlockBegin
  2
A3縦用_タイトル
 70
     0
 10
0.0
 20
0.0
 30
0.0
  3
A3縦用_タイトル
  1

  0
MTEXT
  5
2A6E
330
2A6C
100
AcDbEntity
  8
図枠細線
100
AcDbMText
 10
5.040804501593
 20
31.626098649005
 30
0.0
 40
2.5
 41
49.938282706292
 71
     1
 72
     5
  1
{\Fmonotxt.shx,bigfont.shx|c128;図暦　CHANGE　NOTICE}
  0
LINE
  5
2A6F
330
2A6C
100
AcDbEntity
  8
図枠太線
  6
CONTINUOUS
 62
   251
100
AcDbLine
 10
283.577871882961
 20
2.820844689254
 30
0.0
 11
283.577871882961
 21
32.820842689254
 31
0.0
  0
MTEXT
  5
2A70
330
2A6C
100
AcDbEntity
  8
図枠細線
 48
10.0
100
AcDbMText
 10
214.912458947454
 20
31.621488632308
 30
0.0
 40
2.5
 41
28.002809618823
 71
     1
 72
     5
  1
{\Fmonotxt.shx,bigfont.shx|c128;名称　TITLE}
  0
MTEXT
  5
2A71
330
2A6C
100
AcDbEntity
  8
図枠細線
 48
10.0
100
AcDbMText
 10
214.740030458938
 20
16.310225796722
 30
0.0
 40
2.5
 41
24.385612216707
 71
     1
 72
     5
  1
{\Fmonotxt.shx,bigfont.shx|c128;図面番号\PDRG.　No.}
  0
LINE
  5
2A72
330
2A6C
100
AcDbEntity
  8
図枠太線
  6
CONTINUOUS
 62
   251
100
AcDbLine
 10
213.577871882961
 20
2.820844689254
 30
0.0
 11
213.577871882961
 21
32.820842689254
 31
0.0
  0
LINE
  5
2A73
330
2A6C
100
AcDbEntity
  8
図枠太線
  6
CONTINUOUS
 62
   251
100
AcDbLine
 10
143.577871882961
 20
2.820844689254
 30
0.0
 11
143.577871882961
 21
32.820842689254
 31
0.0
  0
TEXT
  5
2A74
330
2A6C
100
AcDbEntity
  8
図枠細線
  6
CONTINUOUS
 62
   252
100
AcDbText
 10
145.716454488093
 20
4.468335689254
 30
0.0
 40
3.5
  1
ＴＯＷＡ　ＳＥＩＤＥＮ　ＩＮＤＵＳＴＲＩＡＬ　ＣＯ．，ＬＴＤ．
 41
0.528937826907
  7
EXCADSTD
 72
     5
 11
212.856295983498
 21
4.468335689254
 31
0.0
100
AcDbText
  0
TEXT
  5
2A75
330
2A6C
100
AcDbEntity
  8
図枠ロゴマーク
  6
CONTINUOUS
 62
   253
100
AcDbText
 10
145.950637593507
 20
9.413236689254
 30
0.0
 40
7.0
  1
東和制電工業株式会社
 41
0.80361088462
  7
EXCADSTD
 72
     5
 11
211.953878250259
 21
9.413236689254
 31
0.0
100
AcDbText
  0
LINE
  5
2A76
330
2A6C
100
AcDbEntity
  8
図枠細線
  6
CONTINUOUS
 62
   252
100
AcDbLine
 10
143.577871882961
 20
25.320842689254
 30
0.0
 11
213.577871882961
 21
25.320842689254
 31
0.0
  0
LINE
  5
2A77
330
2A6C
100
AcDbEntity
  8
図枠太線
  6
CONTINUOUS
 62
   251
100
AcDbLine
 10
143.577863882961
 20
17.820842689254
 30
0.0
 11
213.577871882961
 21
17.820842689254
 31
0.0
  0
LINE
  5
2A78
330
2A6C
100
AcDbEntity
  8
図枠細線
  6
CONTINUOUS
 62
   252
100
AcDbLine
 10
213.577871882961
 20
17.820842689254
 30
0.0
 11
283.577871882961
 21
17.820842689254
 31
0.0
  0
LINE
  5
2A79
330
2A6C
100
AcDbEntity
  8
図枠細線
  6
CONTINUOUS
 62
   252
100
AcDbLine
 10
120.577871882961
 20
32.820842689254
 30
0.0
 11
120.577871882961
 21
17.820842689254
 31
0.0
  0
MTEXT
  5
2A7A
330
2A6C
100
AcDbEntity
  8
図枠細線
 48
10.0
100
AcDbMText
 10
121.100885670352
 20
16.33785922638
 30
0.0
 40
2.0
 41
17.705978285068
 71
     1
 72
     5
  1
{\Fmonotxt.shx,bigfont.shx|c128;日付 DATE}
  0
MTEXT
  5
2A7B
330
2A6C
100
AcDbEntity
  8
図枠細線
 48
10.0
100
AcDbMText
 10
121.254842273491
 20
31.208993514037
 30
0.0
 40
2.0
 41
18.363799568758
 71
     1
 72
     5
  1
{\Fmonotxt.shx,bigfont.shx|c128;製図　DRAWN}
  0
LINE
  5
2A7C
330
2A6C
100
AcDbEntity
  8
図枠細線
  6
CONTINUOUS
 62
   252
100
AcDbLine
 10
97.577871882961
 20
32.820842689254
 30
0.0
 11
97.577871882961
 21
17.820842689254
 31
0.0
  0
MTEXT
  5
2A7D
330
2A6C
100
AcDbEntity
  8
図枠細線
 48
10.0
100
AcDbMText
 10
98.239734796872
 20
16.467764839281
 30
0.0
 40
2.0
 41
17.757791689903
 71
     1
 72
     5
  1
{\Fmonotxt.shx,bigfont.shx|c128;尺度　SCALE}
  0
MTEXT
  5
2A7E
330
2A6C
100
AcDbEntity
  8
図枠細線
 48
10.0
100
AcDbMText
 10
97.864744625154
 20
31.298433377664
 30
0.0
 40
2.0
 41
23.162655920976
 71
     1
 72
     5
  1
{\Fmonotxt.shx,bigfont.shx|c128;検図  CHECKED}
  0
LINE
  5
2A7F
330
2A6C
100
AcDbEntity
  8
図枠細線
  6
CONTINUOUS
 62
   252
100
AcDbLine
 10
97.577871882961
 20
2.820843367826
 30
0.0
 11
97.577871882961
 21
17.820841367826
 31
0.0
  0
LINE
  5
2A80
330
2A6C
100
AcDbEntity
  8
図枠細線
  6
CONTINUOUS
 62
   252
100
AcDbLine
 10
120.577871882961
 20
2.820844010683
 30
0.0
 11
120.577871882961
 21
17.820842010683
 31
0.0
  0
MTEXT
  5
2A81
330
2A6C
100
AcDbEntity
  8
図枠細線
 48
10.0
100
AcDbMText
 10
81.402399084102
 20
16.316484117426
 30
0.0
 40
2.0
 41
12.920322819369
 71
     1
 72
     5
  1
{\Fmonotxt.shx,bigfont.shx|c128;第三角法}
  0
MTEXT
  5
2A82
330
2A6C
100
AcDbEntity
  8
図枠細線
 48
10.0
100
AcDbMText
 10
75.736576535096
 20
11.080410931319
 30
0.0
 40
2.0
 41
21.072870671471
 71
     1
 72
     5
  1
{\Fmonotxt.shx,bigfont.shx|c128;THIRD ANGLE\PPROJECTION}
  0
LINE
  5
2A83
330
2A6C
100
AcDbEntity
  8
図枠太線
  6
CONTINUOUS
 62
   251
100
AcDbLine
 10
74.577871882961
 20
2.820844689254
 30
0.0
 11
74.577871882961
 21
32.820842689254
 31
0.0
  0
MTEXT
  5
2A84
330
2A6C
100
AcDbEntity
  8
図枠細線
 48
10.0
100
AcDbMText
 10
75.060214781573
 20
31.298434778555
 30
0.0
 40
2.0
 41
22.240928805967
 71
     1
 72
     5
  1
{\Fmonotxt.shx,bigfont.shx|c128;承認 APPROVED}
  0
LINE
  5
2A85
330
2A6C
100
AcDbEntity
  8
図枠細線
  6
CONTINUOUS
100
AcDbLine
 10
3.577871882961
 20
17.820844689254
 30
0.0
 11
74.577871882961
 21
17.820844689254
 31
0.0
  0
LINE
  5
2A86
330
2A6C
100
AcDbEntity
  8
図枠細線
  6
CONTINUOUS
 62
   252
100
AcDbLine
 10
3.577871882961
 20
27.820842689254
 30
0.0
 11
74.577871882961
 21
27.820842689254
 31
0.0
  0
LINE
  5
2A87
330
2A6C
100
AcDbEntity
  8
図枠細線
  6
CONTINUOUS
 62
   252
100
AcDbLine
 10
3.577871882961
 20
22.820842689254
 30
0.0
 11
74.577871882961
 21
22.820842689254
 31
0.0
  0
LINE
  5
2A88
330
2A6C
100
AcDbEntity
  8
図枠細線
  6
CONTINUOUS
 62
   252
100
AcDbLine
 10
3.577871882961
 20
12.820842689254
 30
0.0
 11
74.577871882961
 21
12.820842689254
 31
0.0
  0
LINE
  5
2A89
330
2A6C
100
AcDbEntity
  8
図枠細線
  6
CONTINUOUS
 62
   252
100
AcDbLine
 10
3.577871882961
 20
7.820844689254
 30
0.0
 11
74.577871882961
 21
7.820844689254
 31
0.0
  0
LINE
  5
2A8A
330
2A6C
100
AcDbEntity
  8
図枠細線
  6
CONTINUOUS
100
AcDbLine
 10
74.577871882961
 20
17.820843689254
 30
0.0
 11
143.577871882961
 21
17.820841224969
 31
0.0
  0
LINE
  5
2A8B
330
2A6C
100
AcDbEntity
  8
図枠太線
  6
CONTINUOUS
 62
   251
100
AcDbLine
 10
3.577871882961
 20
2.820844689254
 30
0.0
 11
283.577871882961
 21
2.820844689254
 31
0.0
  0
LINE
  5
2A8C
330
2A6C
100
AcDbEntity
  8
図枠太線
  6
CONTINUOUS
 62
   251
100
AcDbLine
 10
3.577871882961
 20
2.820844689254
 30
0.0
 11
3.577871882961
 21
32.820842689254
 31
0.0
  0
ENDBLK
  5
2A8D
330
2A6C
100
AcDbEntity
  8
0
100
AcDbBlockEnd
  0
BLOCK
  5
2AF8
330
2AF4
100
AcDbEntity
  8
0
 48
10.0
100
AcDbBlockBegin
  2
_OPEN30
 70
     0
 10
0.0
 20
0.0
 30
0.0
  3
_OPEN30
  1

  0
LINE
  5
2AF5
330
2AF4
100
AcDbEntity
  8
0
  6
BYBLOCK
 62
     0
100
AcDbLine
 10
-1.0
 20
0.26794919
 30
0.0
 11
0.0
 21
0.0
 31
0.0
  0
LINE
  5
2AF6
330
2AF4
100
AcDbEntity
  8
0
  6
BYBLOCK
 62
     0
100
AcDbLine
 10
0.0
 20
0.0
 30
0.0
 11
-1.0
 21
-0.26794919
 31
0.0
  0
LINE
  5
2AF7
330
2AF4
100
AcDbEntity
  8
0
  6
BYBLOCK
 62
     0
100
AcDbLine
 10
0.0
 20
0.0
 30
0.0
 11
-1.0
 21
0.0
 31
0.0
  0
ENDBLK
  5
2AF9
330
2AF4
100
AcDbEntity
  8
0
 48
10.0
100
AcDbBlockEnd
  0
BLOCK
  5
4CEF
330
4CA7
100
AcDbEntity
  8
0
100
AcDbBlockBegin
  2
4840138
 70
     0
 10
0.0
 20
0.0
 30
0.0
  3
4840138
  1

  0
LWPOLYLINE
  5
4CA9
330
4CA7
100
AcDbEntity
  8
寸法線
100
AcDbPolyline
 90
        8
 70
     0
 43
0.0
 10
2.190265478566
 20
4.332167481305
 10
2.725448111072
 20
3.796984848101
 42
-0.414213562373
 10
2.725448111072
 20
3.203015151899
 10
2.190875384957
 20
2.668442425318
 10
2.666051141918
 20
2.193266668357
 10
3.200623868033
 20
2.727839394938
 42
-0.414213562373
 10
3.794593567029
 20
2.727839394938
 10
4.330548537895
 20
2.191884422908
  0
LWPOLYLINE
  5
4CAA
330
4CA7
100
AcDbEntity
  8
寸法線
100
AcDbPolyline
 90
        8
 70
     0
 43
0.0
 10
2.659887647256
 20
4.812896827469
 10
3.200623868033
 20
4.272160605062
 42
0.414213562373
 10
3.794593567029
 20
4.272160605062
 10
4.329166291282
 20
4.806733331643
 10
4.804342048243
 20
4.331557574682
 10
4.26976932399
 20
3.796984848101
 42
0.414213562373
 10
4.26976932399
 20
3.203015151899
 10
4.804342048243
 20
2.668442425318
  0
LINE
  5
4CAB
330
4CA7
100
AcDbEntity
  8
寸法線
 48
10.0
100
AcDbLine
 10
2.190265478566
 20
4.332167481072
 30
0.0
 11
2.659887647256
 21
4.812896827934
 31
0.0
  0
LINE
  5
4CAC
330
4CA7
100
AcDbEntity
  8
寸法線
 48
10.0
100
AcDbLine
 10
4.804342048243
 20
2.668442425318
 30
0.0
 11
4.330247215927
 21
2.191581341904
 31
0.0
  0
CIRCLE
  5
4CAD
330
4CA7
100
AcDbEntity
  8
外形線
 48
10.0
100
AcDbCircle
 10
3.5
 20
3.5
 30
0.0
 40
3.5
  0
ENDBLK
  5
4CF0
330
4CA7
100
AcDbEntity
  8
0
100
AcDbBlockEnd
  0
BLOCK
  5
4CF1
330
4CB3
100
AcDbEntity
  8
0
100
AcDbBlockBegin
  2
2420094
 70
     0
 10
0.0
 20
0.0
 30
0.0
  3
2420094
  1

  0
LINE
  5
4CB5
330
4CB3
100
AcDbEntity
  8
外形線
 48
10.0
100
AcDbLine
 10
0.0
 20
0.0
 30
0.0
 11
7.0
 21
0.0
 31
0.0
  0
ARC
  5
4CB6
330
4CB3
100
AcDbEntity
  8
外形線
 48
10.0
100
AcDbCircle
 10
3.5
 20
-1.513043478131
 30
0.0
 40
3.813043478209453
100
AcDbArc
 50
23.378738349091
 51
156.621261650909
  0
ENDBLK
  5
4CF2
330
4CB3
100
AcDbEntity
  8
0
100
AcDbBlockEnd
  0
BLOCK
  5
4D80
330
4D7F
100
AcDbEntity
  8
0
100
AcDbBlockBegin
  2
*D29
 70
     1
 10
0.0
 20
0.0
 30
0.0
  3
*D29
  1

  0
LINE
  5
4D82
330
4D7F
100
AcDbEntity
  8
寸法線
 62
     0
 48
10.0
100
AcDbLine
 10
361.882272781167
 20
313.192735965639
 30
0.0
 11
384.390009750906
 21
313.192735965639
 31
0.0
  0
LINE
  5
4D83
330
4D7F
100
AcDbEntity
  8
寸法線
 62
     0
 48
10.0
100
AcDbLine
 10
346.382272781167
 20
373.192735965639
 30
0.0
 11
384.390009750906
 21
373.192735965639
 31
0.0
  0
LINE
  5
4D84
330
4D7F
100
AcDbEntity
  8
寸法線
 62
     0
 48
10.0
100
AcDbLine
 10
383.140009750906
 20
319.192735965639
 30
0.0
 11
383.140009750906
 21
367.192735965639
 31
0.0
  0
INSERT
  5
4D85
330
4D7F
100
AcDbEntity
  8
寸法線
 62
     0
100
AcDbBlockReference
  2
_OPEN30
 10
383.140009750906
 20
313.192735965639
 30
0.0
 41
6.0
 42
6.0
 43
6.0
 50
270.0
  0
INSERT
  5
4D86
330
4D7F
100
AcDbEntity
  8
寸法線
 62
     0
100
AcDbBlockReference
  2
_OPEN30
 10
383.140009750906
 20
373.192735965639
 30
0.0
 41
6.0
 42
6.0
 43
6.0
 50
90.0
  0
MTEXT
  5
4D87
330
4D7F
100
AcDbEntity
  8
寸法線
 62
     0
 48
10.0
100
AcDbMText
 10
378.515009750906
 20
343.192735965639
 30
0.0
 40
8.0
 41
0.0
 71
     5
 72
     1
  1
\A1;60
 11
0.0
 21
1.0
 31
0.0
  0
POINT
  5
4D88
330
4D7F
100
AcDbEntity
  8
DEFPOINTS
 62
     0
100
AcDbPoint
 10
361.257272781167
 20
313.192735965639
 30
0.0
  0
POINT
  5
4D89
330
4D7F
100
AcDbEntity
  8
DEFPOINTS
 62
     0
100
AcDbPoint
 10
345.757272781167
 20
373.192735965639
 30
0.0
  0
POINT
  5
4D8A
330
4D7F
100
AcDbEntity
  8
DEFPOINTS
 62
     0
100
AcDbPoint
 10
383.140009750906
 20
373.192735965639
 30
0.0
  0
ENDBLK
  5
4D81
330
4D7F
100
AcDbEntity
  8
0
100
AcDbBlockEnd
  0
BLOCK
  5
4D8C
330
4D8B
100
AcDbEntity
  8
0
100
AcDbBlockBegin
  2
*D30
 70
     1
 10
0.0
 20
0.0
 30
0.0
  3
*D30
  1

  0
LINE
  5
4D8E
330
4D8B
100
AcDbEntity
  8
寸法線
 62
     0
 48
10.0
100
AcDbLine
 10
472.630807616629
 20
352.561908642971
 30
0.0
 11
490.792834057982
 21
339.393946006784
 31
0.0
  0
LINE
  5
4D8F
330
4D8B
100
AcDbEntity
  8
寸法線
 62
     0
 48
10.0
100
AcDbLine
 10
451.5812078768
 20
367.823440376546
 30
0.0
 11
446.723607937062
 21
371.345332314902
 31
0.0
  0
MTEXT
  5
4D90
330
4D8B
100
AcDbEntity
  8
寸法線
 62
     0
 48
10.0
100
AcDbMText
 10
486.855412509657
 20
347.961381309247
 30
0.0
 40
8.0
 41
0.0
 71
     5
 72
     1
  1
\A1;%%c14
 11
0.809599989956331
 21
-0.5869819897260126
 31
0.0
  0
LINE
  5
4D91
330
4D8B
100
AcDbEntity
  8
寸法線
 62
     0
 48
10.0
100
AcDbLine
 10
456.438807816538
 20
364.30154843819
 30
0.0
 11
467.773207676891
 21
356.083800581327
 31
0.0
  0
INSERT
  5
4D92
330
4D8B
100
AcDbEntity
  8
寸法線
 62
     0
100
AcDbBlockReference
  2
_OPEN30
 10
456.438807816538
 20
364.30154843819
 30
0.0
 41
6.0
 42
6.0
 43
6.0
 50
324.056867747671
  0
INSERT
  5
4D93
330
4D8B
100
AcDbEntity
  8
寸法線
 62
     0
100
AcDbBlockReference
  2
_OPEN30
 10
467.773207676891
 20
356.083800581327
 30
0.0
 41
6.0
 42
6.0
 43
6.0
 50
144.056867747671
  0
POINT
  5
4D94
330
4D8B
100
AcDbEntity
  8
DEFPOINTS
 62
     0
100
AcDbPoint
 10
467.773207676891
 20
356.083800581327
 30
0.0
  0
POINT
  5
4D95
330
4D8B
100
AcDbEntity
  8
DEFPOINTS
 62
     0
100
AcDbPoint
 10
456.438807816538
 20
364.30154843819
 30
0.0
  0
ENDBLK
  5
4D8D
330
4D8B
100
AcDbEntity
  8
0
100
AcDbBlockEnd
  0
BLOCK
  5
4D97
330
4D96
100
AcDbEntity
  8
0
100
AcDbBlockBegin
  2
*D31
 70
     1
 10
0.0
 20
0.0
 30
0.0
  3
*D31
  1

  0
LINE
  5
4D99
330
4D96
100
AcDbEntity
  8
寸法線
 62
     0
 48
10.0
100
AcDbLine
 10
62.173691545907
 20
349.407019969352
 30
0.0
 11
62.173691545907
 21
331.876965816176
 31
0.0
  0
LINE
  5
4D9A
330
4D96
100
AcDbEntity
  8
寸法線
 62
     0
 48
10.0
100
AcDbLine
 10
102.173691545907
 20
349.407019969352
 30
0.0
 11
102.173691545907
 21
331.876965816176
 31
0.0
  0
LINE
  5
4D9B
330
4D96
100
AcDbEntity
  8
寸法線
 62
     0
 48
10.0
100
AcDbLine
 10
68.173691545907
 20
333.126965816176
 30
0.0
 11
96.173691545907
 21
333.126965816176
 31
0.0
  0
INSERT
  5
4D9C
330
4D96
100
AcDbEntity
  8
寸法線
 62
     0
100
AcDbBlockReference
  2
_OPEN30
 10
62.173691545907
 20
333.126965816176
 30
0.0
 41
6.0
 42
6.0
 43
6.0
 50
180.0
  0
INSERT
  5
4D9D
330
4D96
100
AcDbEntity
  8
寸法線
 62
     0
100
AcDbBlockReference
  2
_OPEN30
 10
102.173691545907
 20
333.126965816176
 30
0.0
 41
6.0
 42
6.0
 43
6.0
  0
MTEXT
  5
4D9E
330
4D96
100
AcDbEntity
  8
寸法線
 62
     0
 48
10.0
100
AcDbMText
 10
82.173691545907
 20
337.751965816176
 30
0.0
 40
8.0
 41
0.0
 71
     5
 72
     1
  1
\A1;40
  0
POINT
  5
4D9F
330
4D96
100
AcDbEntity
  8
DEFPOINTS
 62
     0
100
AcDbPoint
 10
62.173691545907
 20
350.032019969352
 30
0.0
  0
POINT
  5
4DA0
330
4D96
100
AcDbEntity
  8
DEFPOINTS
 62
     0
100
AcDbPoint
 10
102.173691545907
 20
350.032019969352
 30
0.0
  0
POINT
  5
4DA1
330
4D96
100
AcDbEntity
  8
DEFPOINTS
 62
     0
100
AcDbPoint
 10
102.173691545907
 20
333.126965816176
 30
0.0
  0
ENDBLK
  5
4D98
330
4D96
100
AcDbEntity
  8
0
100
AcDbBlockEnd
  0
BLOCK
  5
4DA3
330
4DA2
100
AcDbEntity
  8
0
100
AcDbBlockBegin
  2
*D32
 70
     1
 10
0.0
 20
0.0
 30
0.0
  3
*D32
  1

  0
LINE
  5
4DA5
330
4DA2
100
AcDbEntity
  8
寸法線
 62
     0
 48
10.0
100
AcDbLine
 10
162.257272781167
 20
312.567735965639
 30
0.0
 11
162.257272781167
 21
288.91269752341
 31
0.0
  0
LINE
  5
4DA6
330
4DA2
100
AcDbEntity
  8
寸法線
 62
     0
 48
10.0
100
AcDbLine
 10
361.257272781167
 20
312.567735965639
 30
0.0
 11
361.257272781167
 21
288.91269752341
 31
0.0
  0
LINE
  5
4DA7
330
4DA2
100
AcDbEntity
  8
寸法線
 62
     0
 48
10.0
100
AcDbLine
 10
168.257272781167
 20
290.16269752341
 30
0.0
 11
355.257272781167
 21
290.16269752341
 31
0.0
  0
INSERT
  5
4DA8
330
4DA2
100
AcDbEntity
  8
寸法線
 62
     0
100
AcDbBlockReference
  2
_OPEN30
 10
162.257272781167
 20
290.16269752341
 30
0.0
 41
6.0
 42
6.0
 43
6.0
 50
180.0
  0
INSERT
  5
4DA9
330
4DA2
100
AcDbEntity
  8
寸法線
 62
     0
100
AcDbBlockReference
  2
_OPEN30
 10
361.257272781167
 20
290.16269752341
 30
0.0
 41
6.0
 42
6.0
 43
6.0
  0
MTEXT
  5
4DAA
330
4DA2
100
AcDbEntity
  8
寸法線
 62
     0
 48
10.0
100
AcDbMText
 10
261.757272781167
 20
294.78769752341
 30
0.0
 40
8.0
 41
0.0
 71
     5
 72
     1
  1
\A1;199
  0
POINT
  5
4DAB
330
4DA2
100
AcDbEntity
  8
DEFPOINTS
 62
     0
100
AcDbPoint
 10
162.257272781167
 20
313.192735965639
 30
0.0
  0
POINT
  5
4DAC
330
4DA2
100
AcDbEntity
  8
DEFPOINTS
 62
     0
100
AcDbPoint
 10
361.257272781167
 20
313.192735965639
 30
0.0
  0
POINT
  5
4DAD
330
4DA2
100
AcDbEntity
  8
DEFPOINTS
 62
     0
100
AcDbPoint
 10
361.257272781167
 20
290.16269752341
 30
0.0
  0
ENDBLK
  5
4DA4
330
4DA2
100
AcDbEntity
  8
0
100
AcDbBlockEnd
  0
BLOCK
  5
4DAF
330
4DAE
100
AcDbEntity
  8
0
100
AcDbBlockBegin
  2
*D33
 70
     1
 10
0.0
 20
0.0
 30
0.0
  3
*D33
  1

  0
LINE
  5
4DB1
330
4DAE
100
AcDbEntity
  8
寸法線
 62
     0
 48
10.0
100
AcDbLine
 10
55.33436068933
 20
349.137259792176
 30
0.0
 11
43.532130774861
 21
330.059476548558
 31
0.0
  0
LINE
  5
4DB2
330
4DAE
100
AcDbEntity
  8
寸法線
 62
     0
 48
10.0
100
AcDbLine
 10
69.013022402484
 20
371.248212139103
 30
0.0
 11
72.169636644095
 21
376.350739603964
 31
0.0
  0
MTEXT
  5
4DB3
330
4DAE
100
AcDbEntity
  8
寸法線
 62
     0
 48
10.0
100
AcDbMText
 10
43.921740357127
 20
339.480327915845
 30
0.0
 40
8.0
 41
0.0
 71
     5
 72
     1
  1
\A1;%%c14
 11
0.5261023736018896
 21
0.8504212441434292
 31
0.0
  0
LINE
  5
4DB4
330
4DAE
100
AcDbEntity
  8
寸法線
 62
     0
 48
10.0
100
AcDbLine
 10
65.856408160872
 20
366.145684674243
 30
0.0
 11
58.490974930942
 21
354.239787257036
 31
0.0
  0
INSERT
  5
4DB5
330
4DAE
100
AcDbEntity
  8
寸法線
 62
     0
100
AcDbBlockReference
  2
_OPEN30
 10
65.856408160872
 20
366.145684674243
 30
0.0
 41
6.0
 42
6.0
 43
6.0
 50
238.257515812276
  0
INSERT
  5
4DB6
330
4DAE
100
AcDbEntity
  8
寸法線
 62
     0
100
AcDbBlockReference
  2
_OPEN30
 10
58.490974930942
 20
354.239787257036
 30
0.0
 41
6.0
 42
6.0
 43
6.0
 50
58.257515812276
  0
POINT
  5
4DB7
330
4DAE
100
AcDbEntity
  8
DEFPOINTS
 62
     0
100
AcDbPoint
 10
58.490974930942
 20
354.239787257036
 30
0.0
  0
POINT
  5
4DB8
330
4DAE
100
AcDbEntity
  8
DEFPOINTS
 62
     0
100
AcDbPoint
 10
65.856408160872
 20
366.145684674243
 30
0.0
  0
ENDBLK
  5
4DB0
330
4DAE
100
AcDbEntity
  8
0
100
AcDbBlockEnd
  0
BLOCK
  5
4DBA
330
4DB9
100
AcDbEntity
  8
0
100
AcDbBlockBegin
  2
*D34
 70
     1
 10
0.0
 20
0.0
 30
0.0
  3
*D34
  1

  0
LINE
  5
4DBC
330
4DB9
100
AcDbEntity
  8
寸法線
 62
     0
 48
10.0
100
AcDbLine
 10
169.757271279875
 20
463.463526900901
 30
0.0
 11
169.757271279875
 21
399.904230098749
 31
0.0
  0
LINE
  5
4DBD
330
4DB9
100
AcDbEntity
  8
寸法線
 62
     0
 48
10.0
100
AcDbLine
 10
353.757272781167
 20
463.367061786629
 30
0.0
 11
353.757272781167
 21
399.904230098749
 31
0.0
  0
LINE
  5
4DBE
330
4DB9
100
AcDbEntity
  8
寸法線
 62
     0
 48
10.0
100
AcDbLine
 10
175.757271279875
 20
401.154230098749
 30
0.0
 11
347.757272781167
 21
401.154230098749
 31
0.0
  0
INSERT
  5
4DBF
330
4DB9
100
AcDbEntity
  8
寸法線
 62
     0
100
AcDbBlockReference
  2
_OPEN30
 10
169.757271279875
 20
401.154230098749
 30
0.0
 41
6.0
 42
6.0
 43
6.0
 50
180.0
  0
INSERT
  5
4DC0
330
4DB9
100
AcDbEntity
  8
寸法線
 62
     0
100
AcDbBlockReference
  2
_OPEN30
 10
353.757272781167
 20
401.154230098749
 30
0.0
 41
6.0
 42
6.0
 43
6.0
  0
MTEXT
  5
4DC1
330
4DB9
100
AcDbEntity
  8
寸法線
 62
     0
 48
10.0
100
AcDbMText
 10
261.757272030521
 20
405.787563432082
 30
0.0
 40
8.0
 41
0.0
 71
     5
 72
     1
  1
\A1;184
  0
POINT
  5
4DC2
330
4DB9
100
AcDbEntity
  8
DEFPOINTS
 62
     0
100
AcDbPoint
 10
169.757271279875
 20
464.088526900901
 30
0.0
  0
POINT
  5
4DC3
330
4DB9
100
AcDbEntity
  8
DEFPOINTS
 62
     0
100
AcDbPoint
 10
353.757272781167
 20
463.992061786629
 30
0.0
  0
POINT
  5
4DC4
330
4DB9
100
AcDbEntity
  8
DEFPOINTS
 62
     0
100
AcDbPoint
 10
353.757272781167
 20
401.154230098749
 30
0.0
  0
ENDBLK
  5
4DBB
330
4DB9
100
AcDbEntity
  8
0
100
AcDbBlockEnd
  0
BLOCK
  5
4DC6
330
4DC5
100
AcDbEntity
  8
0
100
AcDbBlockBegin
  2
*D35
 70
     1
 10
0.0
 20
0.0
 30
0.0
  3
*D35
  1

  0
LINE
  5
4DC8
330
4DC5
100
AcDbEntity
  8
寸法線
 62
     0
 48
10.0
100
AcDbLine
 10
161.632272781167
 20
470.471362075578
 30
0.0
 11
151.062537511173
 21
470.471362075578
 31
0.0
  0
LINE
  5
4DC9
330
4DC5
100
AcDbEntity
  8
寸法線
 62
     0
 48
10.0
100
AcDbLine
 10
161.632272781167
 20
465.471362075578
 30
0.0
 11
151.062537511173
 21
465.471362075578
 31
0.0
  0
LINE
  5
4DCA
330
4DC5
100
AcDbEntity
  8
寸法線
 62
     0
 48
10.0
100
AcDbLine
 10
152.312537511173
 20
470.471362075578
 30
0.0
 11
152.312537511173
 21
465.471362075578
 31
0.0
  0
LINE
  5
4DCB
330
4DC5
100
AcDbEntity
  8
寸法線
 62
     0
 48
10.0
100
AcDbLine
 10
152.312537511173
 20
476.471362075578
 30
0.0
 11
152.312537511173
 21
482.471362075578
 31
0.0
  0
LINE
  5
4DCC
330
4DC5
100
AcDbEntity
  8
寸法線
 62
     0
 48
10.0
100
AcDbLine
 10
152.312537511173
 20
459.471362075578
 30
0.0
 11
152.312537511173
 21
453.471362075578
 31
0.0
  0
INSERT
  5
4DCD
330
4DC5
100
AcDbEntity
  8
寸法線
 62
     0
100
AcDbBlockReference
  2
_OPEN30
 10
152.312537511173
 20
470.471362075578
 30
0.0
 41
6.0
 42
6.0
 43
6.0
 50
270.0
  0
INSERT
  5
4DCE
330
4DC5
100
AcDbEntity
  8
寸法線
 62
     0
100
AcDbBlockReference
  2
_OPEN30
 10
152.312537511173
 20
465.471362075578
 30
0.0
 41
6.0
 42
6.0
 43
6.0
 50
90.0
  0
MTEXT
  5
4DCF
330
4DC5
100
AcDbEntity
  8
寸法線
 62
     0
 48
10.0
100
AcDbMText
 10
147.687537511173
 20
467.971362075578
 30
0.0
 40
8.0
 41
0.0
 71
     5
 72
     1
  1
\A1;5
 11
0.0
 21
1.0
 31
0.0
  0
POINT
  5
4DD0
330
4DC5
100
AcDbEntity
  8
DEFPOINTS
 62
     0
100
AcDbPoint
 10
162.257272781167
 20
470.471362075578
 30
0.0
  0
POINT
  5
4DD1
330
4DC5
100
AcDbEntity
  8
DEFPOINTS
 62
     0
100
AcDbPoint
 10
162.257272781167
 20
465.471362075578
 30
0.0
  0
POINT
  5
4DD2
330
4DC5
100
AcDbEntity
  8
DEFPOINTS
 62
     0
100
AcDbPoint
 10
152.312537511173
 20
465.471362075578
 30
0.0
  0
ENDBLK
  5
4DC7
330
4DC5
100
AcDbEntity
  8
0
100
AcDbBlockEnd
  0
BLOCK
  5
4DD4
330
4DD3
100
AcDbEntity
  8
0
100
AcDbBlockBegin
  2
*D36
 70
     1
 10
0.0
 20
0.0
 30
0.0
  3
*D36
  1

  0
LINE
  5
4DD6
330
4DD3
100
AcDbEntity
  8
寸法線
 62
     0
 48
10.0
100
AcDbLine
 10
361.497055149104
 20
471.490498405031
 30
0.0
 11
377.553309551859
 21
478.779609393241
 31
0.0
  0
LINE
  5
4DD7
330
4DD3
100
AcDbEntity
  8
寸法線
 62
     0
 48
10.0
100
AcDbLine
 10
346.01749041323
 20
464.463189134844
 30
0.0
 11
340.554114624012
 21
461.982962333563
 31
0.0
  0
MTEXT
  5
4DD8
330
4DD3
100
AcDbEntity
  8
寸法線
 62
     0
 48
10.0
100
AcDbMText
 10
370.345028752436
 20
480.586519470632
 30
0.0
 40
8.0
 41
0.0
 71
     5
 72
     1
  1
\A1;%%c5
 11
0.9105626315362191
 21
0.4133711335468844
 31
0.0
  0
LINE
  5
4DD9
330
4DD3
100
AcDbEntity
  8
寸法線
 62
     0
 48
10.0
100
AcDbLine
 10
351.480866202447
 20
466.943415936125
 30
0.0
 11
356.033679359886
 21
469.01027160375
 31
0.0
  0
INSERT
  5
4DDA
330
4DD3
100
AcDbEntity
  8
寸法線
 62
     0
100
AcDbBlockReference
  2
_OPEN30
 10
351.480866202447
 20
466.943415936125
 30
0.0
 41
6.0
 42
6.0
 43
6.0
 50
24.416780813914
  0
INSERT
  5
4DDB
330
4DD3
100
AcDbEntity
  8
寸法線
 62
     0
100
AcDbBlockReference
  2
_OPEN30
 10
356.033679359886
 20
469.01027160375
 30
0.0
 41
6.0
 42
6.0
 43
6.0
 50
204.416780813914
  0
POINT
  5
4DDC
330
4DD3
100
AcDbEntity
  8
DEFPOINTS
 62
     0
100
AcDbPoint
 10
356.033679359886
 20
469.01027160375
 30
0.0
  0
POINT
  5
4DDD
330
4DD3
100
AcDbEntity
  8
DEFPOINTS
 62
     0
100
AcDbPoint
 10
351.480866202447
 20
466.943415936125
 30
0.0
  0
ENDBLK
  5
4DD5
330
4DD3
100
AcDbEntity
  8
0
100
AcDbBlockEnd
  0
BLOCK
  5
4DDF
330
4DDE
100
AcDbEntity
  8
0
100
AcDbBlockBegin
  2
*D37
 70
     1
 10
0.0
 20
0.0
 30
0.0
  3
*D37
  1

  0
LINE
  5
4DE1
330
4DDE
100
AcDbEntity
  8
寸法線
 62
     0
 48
10.0
100
AcDbLine
 10
35.673691545907
 20
312.567735965639
 30
0.0
 11
35.673691545907
 21
288.880536962576
 31
0.0
  0
LINE
  5
4DE2
330
4DDE
100
AcDbEntity
  8
寸法線
 62
     0
 48
10.0
100
AcDbLine
 10
128.673691545907
 20
312.567735965639
 30
0.0
 11
128.673691545907
 21
288.880536962576
 31
0.0
  0
LINE
  5
4DE3
330
4DDE
100
AcDbEntity
  8
寸法線
 62
     0
 48
10.0
100
AcDbLine
 10
41.673691545907
 20
290.130536962576
 30
0.0
 11
122.673691545907
 21
290.130536962576
 31
0.0
  0
INSERT
  5
4DE4
330
4DDE
100
AcDbEntity
  8
寸法線
 62
     0
100
AcDbBlockReference
  2
_OPEN30
 10
35.673691545907
 20
290.130536962576
 30
0.0
 41
6.0
 42
6.0
 43
6.0
 50
180.0
  0
INSERT
  5
4DE5
330
4DDE
100
AcDbEntity
  8
寸法線
 62
     0
100
AcDbBlockReference
  2
_OPEN30
 10
128.673691545907
 20
290.130536962576
 30
0.0
 41
6.0
 42
6.0
 43
6.0
  0
MTEXT
  5
4DE6
330
4DDE
100
AcDbEntity
  8
寸法線
 62
     0
 48
10.0
100
AcDbMText
 10
82.173691545907
 20
294.759703629243
 30
0.0
 40
8.0
 41
0.0
 71
     5
 72
     1
  1
\A1;93
  0
POINT
  5
4DE7
330
4DDE
100
AcDbEntity
  8
DEFPOINTS
 62
     0
100
AcDbPoint
 10
35.673691545907
 20
313.192735965639
 30
0.0
  0
POINT
  5
4DE8
330
4DDE
100
AcDbEntity
  8
DEFPOINTS
 62
     0
100
AcDbPoint
 10
128.673691545907
 20
313.192735965639
 30
0.0
  0
POINT
  5
4DE9
330
4DDE
100
AcDbEntity
  8
DEFPOINTS
 62
     0
100
AcDbPoint
 10
128.673691545907
 20
290.130536962576
 30
0.0
  0
ENDBLK
  5
4DE0
330
4DDE
100
AcDbEntity
  8
0
100
AcDbBlockEnd
  0
BLOCK
  5
4DEB
330
4DEA
100
AcDbEntity
  8
0
100
AcDbBlockBegin
  2
*D38
 70
     1
 10
0.0
 20
0.0
 30
0.0
  3
*D38
  1

  0
LINE
  5
4DED
330
4DEA
100
AcDbEntity
  8
寸法線
 62
     0
 48
10.0
100
AcDbLine
 10
177.757272781167
 20
373.817735965639
 30
0.0
 11
177.757272781167
 21
390.276430417594
 31
0.0
  0
LINE
  5
4DEE
330
4DEA
100
AcDbEntity
  8
寸法線
 62
     0
 48
10.0
100
AcDbLine
 10
345.757272781167
 20
373.817735965639
 30
0.0
 11
345.757272781167
 21
390.276430417594
 31
0.0
  0
LINE
  5
4DEF
330
4DEA
100
AcDbEntity
  8
寸法線
 62
     0
 48
10.0
100
AcDbLine
 10
183.757272781167
 20
389.026430417594
 30
0.0
 11
339.757272781167
 21
389.026430417594
 31
0.0
  0
INSERT
  5
4DF0
330
4DEA
100
AcDbEntity
  8
寸法線
 62
     0
100
AcDbBlockReference
  2
_OPEN30
 10
177.757272781167
 20
389.026430417594
 30
0.0
 41
6.0
 42
6.0
 43
6.0
 50
180.0
  0
INSERT
  5
4DF1
330
4DEA
100
AcDbEntity
  8
寸法線
 62
     0
100
AcDbBlockReference
  2
_OPEN30
 10
345.757272781167
 20
389.026430417594
 30
0.0
 41
6.0
 42
6.0
 43
6.0
  0
MTEXT
  5
4DF2
330
4DEA
100
AcDbEntity
  8
寸法線
 62
     0
 48
10.0
100
AcDbMText
 10
261.757272781167
 20
393.65559708426
 30
0.0
 40
8.0
 41
0.0
 71
     5
 72
     1
  1
\A1;168
  0
POINT
  5
4DF3
330
4DEA
100
AcDbEntity
  8
DEFPOINTS
 62
     0
100
AcDbPoint
 10
177.757272781167
 20
373.192735965639
 30
0.0
  0
POINT
  5
4DF4
330
4DEA
100
AcDbEntity
  8
DEFPOINTS
 62
     0
100
AcDbPoint
 10
345.757272781167
 20
373.192735965639
 30
0.0
  0
POINT
  5
4DF5
330
4DEA
100
AcDbEntity
  8
DEFPOINTS
 62
     0
100
AcDbPoint
 10
345.757272781167
 20
389.026430417594
 30
0.0
  0
ENDBLK
  5
4DEC
330
4DEA
100
AcDbEntity
  8
0
100
AcDbBlockEnd
  0
ENDSEC
  0
SECTION
  2
ENTITIES
  0
CIRCLE
  5
4ADA
330
1A
100
AcDbEntity
  8
寸法線
 48
10.0
100
AcDbCircle
 10
42.897615283584
 20
176.473899263703
 30
0.0
 40
2.5
  0
CIRCLE
  5
4ADB
330
1A
100
AcDbEntity
  8
寸法線
 48
10.0
100
AcDbCircle
 10
42.897615283584
 20
176.473899263703
 30
0.0
 40
1.25
  0
CIRCLE
  5
4ADC
330
1A
100
AcDbEntity
  8
寸法線
 48
10.0
100
AcDbCircle
 10
42.897615283584
 20
154.907260159543
 30
0.0
 40
2.5
  0
CIRCLE
  5
4ADD
330
1A
100
AcDbEntity
  8
寸法線
 48
10.0
100
AcDbCircle
 10
42.897615283584
 20
154.907260159543
 30
0.0
 40
1.25
  0
CIRCLE
  5
4ADE
330
1A
100
AcDbEntity
  8
寸法線
 48
10.0
100
AcDbCircle
 10
42.897615283584
 20
133.340621055151
 30
0.0
 40
2.5
  0
CIRCLE
  5
4ADF
330
1A
100
AcDbEntity
  8
寸法線
 48
10.0
100
AcDbCircle
 10
42.897615283584
 20
133.340621055151
 30
0.0
 40
1.25
  0
CIRCLE
  5
4AE0
330
1A
100
AcDbEntity
  8
寸法線
 48
10.0
100
AcDbCircle
 10
-52.520965784932
 20
179.985594127607
 30
0.0
 40
2.5
  0
CIRCLE
  5
4AE1
330
1A
100
AcDbEntity
  8
寸法線
 48
10.0
100
AcDbCircle
 10
-52.520965784932
 20
179.985594127607
 30
0.0
 40
1.25
  0
CIRCLE
  5
4AE2
330
1A
100
AcDbEntity
  8
寸法線
 48
10.0
100
AcDbCircle
 10
-52.520965784932
 20
159.985594127607
 30
0.0
 40
2.5
  0
CIRCLE
  5
4AE3
330
1A
100
AcDbEntity
  8
寸法線
 48
10.0
100
AcDbCircle
 10
-52.520965784932
 20
159.985594127607
 30
0.0
 40
1.25
  0
CIRCLE
  5
4AE4
330
1A
100
AcDbEntity
  8
寸法線
 48
10.0
100
AcDbCircle
 10
-52.520965784932
 20
139.776303592884
 30
0.0
 40
2.5
  0
CIRCLE
  5
4AE5
330
1A
100
AcDbEntity
  8
寸法線
 48
10.0
100
AcDbCircle
 10
-52.520965784932
 20
139.776303592884
 30
0.0
 40
1.25
  0
CIRCLE
  5
4AE6
330
1A
100
AcDbEntity
  8
寸法線
 48
10.0
100
AcDbCircle
 10
42.897615283584
 20
119.69796962482
 30
0.0
 40
2.5
  0
CIRCLE
  5
4AE7
330
1A
100
AcDbEntity
  8
寸法線
 48
10.0
100
AcDbCircle
 10
42.897615283584
 20
119.69796962482
 30
0.0
 40
1.25
  0
CIRCLE
  5
4AE8
330
1A
100
AcDbEntity
  8
寸法線
 48
10.0
100
AcDbCircle
 10
-35.020965784932
 20
217.616550694267
 30
0.0
 40
2.5
  0
CIRCLE
  5
4AE9
330
1A
100
AcDbEntity
  8
寸法線
 48
10.0
100
AcDbCircle
 10
-35.020965784932
 20
217.616550694267
 30
0.0
 40
1.25
  0
CIRCLE
  5
4AEA
330
1A
100
AcDbEntity
  8
寸法線
 48
10.0
100
AcDbCircle
 10
-15.020965784932
 20
217.616550694267
 30
0.0
 40
2.5
  0
CIRCLE
  5
4AEB
330
1A
100
AcDbEntity
  8
寸法線
 48
10.0
100
AcDbCircle
 10
-15.020965784932
 20
217.616550694267
 30
0.0
 40
1.25
  0
CIRCLE
  5
4AEC
330
1A
100
AcDbEntity
  8
寸法線
 48
10.0
100
AcDbCircle
 10
5.188324749326
 20
217.616550694267
 30
0.0
 40
2.5
  0
CIRCLE
  5
4AED
330
1A
100
AcDbEntity
  8
寸法線
 48
10.0
100
AcDbCircle
 10
5.188324749326
 20
217.616550694267
 30
0.0
 40
1.25
  0
CIRCLE
  5
4AEE
330
1A
100
AcDbEntity
  8
寸法線
 48
10.0
100
AcDbCircle
 10
25.397615283584
 20
217.616550694267
 30
0.0
 40
2.5
  0
CIRCLE
  5
4AEF
330
1A
100
AcDbEntity
  8
寸法線
 48
10.0
100
AcDbCircle
 10
25.397615283584
 20
217.616550694267
 30
0.0
 40
1.25
  0
LINE
  5
4AF0
330
1A
100
AcDbEntity
  8
寸法線
 48
10.0
100
AcDbLine
 10
-42.520965784932
 20
217.616550694267
 30
0.0
 11
-52.520965784932
 21
217.616550694267
 31
0.0
  0
LINE
  5
4AF1
330
1A
100
AcDbEntity
  8
寸法線
 48
10.0
100
AcDbLine
 10
32.897615283584
 20
217.616550694267
 30
0.0
 11
42.897615283584
 21
217.616550694267
 31
0.0
  0
LINE
  5
4AF2
330
1A
100
AcDbEntity
  8
寸法線
 48
10.0
100
AcDbLine
 10
-52.520965784932
 20
217.616550694267
 30
0.0
 11
-52.520965784932
 21
187.616550694267
 31
0.0
  0
LINE
  5
4AF3
330
1A
100
AcDbEntity
  8
寸法線
 48
10.0
100
AcDbLine
 10
42.897615283584
 20
217.616550694267
 30
0.0
 11
42.897615283584
 21
187.616550694267
 31
0.0
  0
LINE
  5
4AF4
330
1A
100
AcDbEntity
  8
寸法線
 48
10.0
100
AcDbLine
 10
42.897615283584
 20
112.152994236723
 30
0.0
 11
42.897615283584
 21
102.466804975691
 31
0.0
  0
LINE
  5
4AF5
330
1A
100
AcDbEntity
  8
寸法線
 48
10.0
100
AcDbLine
 10
42.897615283584
 20
102.466804975691
 30
0.0
 11
-52.520965784932
 21
102.466804975691
 31
0.0
  0
LINE
  5
4AF6
330
1A
100
AcDbEntity
  8
寸法線
 48
10.0
100
AcDbLine
 10
-52.520965784932
 20
132.362284771447
 30
0.0
 11
-52.520965784932
 21
102.466804975691
 31
0.0
  0
LINE
  5
4AF7
330
1A
100
AcDbEntity
  8
寸法線
 48
10.0
100
AcDbLine
 10
-35.020965784932
 20
215.116550694267
 30
0.0
 11
-35.020965784932
 21
205.116904458777
 31
0.0
  0
LINE
  5
4AF8
330
1A
100
AcDbEntity
  8
寸法線
 48
10.0
100
AcDbLine
 10
-40.285085730399
 20
205.116904458777
 30
0.0
 11
10.243154162397
 21
205.116904458777
 31
0.0
  0
LINE
  5
4AF9
330
1A
100
AcDbEntity
  8
寸法線
 48
10.0
100
AcDbLine
 10
-15.020965784932
 20
215.116550694267
 30
0.0
 11
-15.020965784932
 21
205.116904458777
 31
0.0
  0
LINE
  5
4AFA
330
1A
100
AcDbEntity
  8
寸法線
 48
10.0
100
AcDbLine
 10
5.188324749326
 20
215.116550694267
 30
0.0
 11
5.188324749326
 21
205.116904458777
 31
0.0
  0
LINE
  5
4AFB
330
1A
100
AcDbEntity
  8
寸法線
 48
10.0
100
AcDbLine
 10
25.397615283584
 20
215.116550694267
 30
0.0
 11
25.397615283584
 21
210.989593654918
 31
0.0
  0
LINE
  5
4AFC
330
1A
100
AcDbEntity
  8
寸法線
 48
10.0
100
AcDbLine
 10
25.397615283584
 20
210.989593654918
 30
0.0
 11
5.188324749326
 21
210.989593654918
 31
0.0
  0
LINE
  5
4AFD
330
1A
100
AcDbEntity
  8
寸法線
 48
10.0
100
AcDbLine
 10
-40.285085730399
 20
205.116904458777
 30
0.0
 11
-40.285085730399
 21
194.887076031929
 31
0.0
  0
LINE
  5
4AFE
330
1A
100
AcDbEntity
  8
寸法線
 48
10.0
100
AcDbLine
 10
10.243154162397
 20
205.116904458777
 30
0.0
 11
10.243154162397
 21
194.887076031929
 31
0.0
  0
LINE
  5
4AFF
330
1A
100
AcDbEntity
  8
寸法線
 48
10.0
100
AcDbLine
 10
40.397615283584
 20
119.69796962482
 30
0.0
 11
20.459976885324
 21
119.69796962482
 31
0.0
  0
LINE
  5
4B00
330
1A
100
AcDbEntity
  8
寸法線
 48
10.0
100
AcDbLine
 10
20.459976885324
 20
126.679982921389
 30
0.0
 11
20.459976885324
 21
112.715956328251
 31
0.0
  0
LINE
  5
4B01
330
1A
100
AcDbEntity
  8
寸法線
 48
10.0
100
AcDbLine
 10
20.459976885324
 20
126.679982921389
 30
0.0
 11
11.25221393243
 21
126.679982921389
 31
0.0
  0
LINE
  5
4B02
330
1A
100
AcDbEntity
  8
寸法線
 48
10.0
100
AcDbLine
 10
20.459976885324
 20
112.715956328251
 30
0.0
 11
10.973801655551
 21
112.715956328251
 31
0.0
  0
LINE
  5
4B03
330
1A
100
AcDbEntity
  8
寸法線
 48
10.0
100
AcDbLine
 10
-50.029741693432
 20
180.194884662331
 30
0.0
 11
-14.007610090221
 21
180.194884662331
 31
0.0
  0
LINE
  5
4B04
330
1A
100
AcDbEntity
  8
寸法線
 48
10.0
100
AcDbLine
 10
-50.020965784932
 20
159.985594127607
 30
0.0
 11
-37.839810809265
 21
159.985594127607
 31
0.0
  0
LINE
  5
4B05
330
1A
100
AcDbEntity
  8
寸法線
 48
10.0
100
AcDbLine
 10
-50.020965784932
 20
139.776303592884
 30
0.0
 11
-14.007610090221
 21
139.776303592884
 31
0.0
  0
LINE
  5
4B06
330
1A
100
AcDbEntity
  8
寸法線
 48
10.0
100
AcDbLine
 10
-14.007610090221
 20
180.194884662331
 30
0.0
 11
-14.007610090221
 21
170.61838689684
 31
0.0
  0
LINE
  5
4B07
330
1A
100
AcDbEntity
  8
寸法線
 48
10.0
100
AcDbLine
 10
-14.007610090221
 20
149.352801358374
 30
0.0
 11
-14.007610090221
 21
139.776303592884
 31
0.0
  0
LINE
  5
4B08
330
1A
100
AcDbEntity
  8
寸法線
 48
10.0
100
AcDbLine
 10
-37.839810809265
 20
159.985594127607
 30
0.0
 11
-10.640013402472
 21
147.850340124034
 31
0.0
  0
LINE
  5
4B09
330
1A
100
AcDbEntity
  8
寸法線
 48
10.0
100
AcDbLine
 10
40.397615283584
 20
176.473899263703
 30
0.0
 11
18.224042702322
 21
176.473899263703
 31
0.0
  0
LINE
  5
4B0A
330
1A
100
AcDbEntity
  8
寸法線
 48
10.0
100
AcDbLine
 10
40.397615283584
 20
154.907260159543
 30
0.0
 11
21.63114138492
 21
154.907260159543
 31
0.0
  0
LINE
  5
4B0B
330
1A
100
AcDbEntity
  8
寸法線
 48
10.0
100
AcDbLine
 10
40.397615283584
 20
133.340621055151
 30
0.0
 11
18.224042702322
 21
133.340621055151
 31
0.0
  0
ELLIPSE
  5
4B0C
330
1A
100
AcDbEntity
  8
寸法線
 48
10.0
100
AcDbEllipse
 10
18.224042702322
 20
174.146486061207
 30
0.0
 11
-4.414522407576442
 21
0.0
 31
0.0
210
0.0
220
0.0
230
-1.0
 40
0.527217439989
 41
3.830732468089261
 42
7.853981633974483
  0
ELLIPSE
  5
4B0D
330
1A
100
AcDbEntity
  8
寸法線
 48
10.0
100
AcDbEllipse
 10
18.224042702322
 20
171.18660515342
 30
0.0
 11
-4.414522407576442
 21
0.0
 31
0.0
210
0.0
220
0.0
230
-1.0
 40
0.527217439989
 41
3.83073246815407
 42
8.735638146269912
  0
ELLIPSE
  5
4B0E
330
1A
100
AcDbEntity
  8
寸法線
 48
10.0
100
AcDbEllipse
 10
18.224042702322
 20
168.2267242454
 30
0.0
 11
-4.414522407576442
 21
0.0
 31
0.0
210
0.0
220
0.0
230
-1.0
 40
0.527217439989
 41
3.83073246815407
 42
8.735638146205103
  0
ELLIPSE
  5
4B0F
330
1A
100
AcDbEntity
  8
寸法線
 48
10.0
100
AcDbEllipse
 10
18.224042702322
 20
165.26684333738
 30
0.0
 11
-4.414522407576442
 21
0.0
 31
0.0
210
0.0
220
0.0
230
-1.0
 40
0.527217439989
 41
3.83073246815407
 42
8.735638146205103
  0
ELLIPSE
  5
4B10
330
1A
100
AcDbEntity
  8
寸法線
 48
10.0
100
AcDbEllipse
 10
18.224042702322
 20
162.30696242936
 30
0.0
 11
-4.414522407576442
 21
0.0
 31
0.0
210
0.0
220
0.0
230
-1.0
 40
0.527217439989
 41
3.830732468089261
 42
8.735638146205103
  0
ELLIPSE
  5
4B11
330
1A
100
AcDbEntity
  8
寸法線
 48
10.0
100
AcDbEllipse
 10
18.224042702322
 20
159.347081521573
 30
0.0
 11
-4.414522407576442
 21
0.0
 31
0.0
210
0.0
220
0.0
230
-1.0
 40
0.527217439989
 41
3.83073246815407
 42
8.735638146269912
  0
ELLIPSE
  5
4B12
330
1A
100
AcDbEntity
  8
寸法線
 48
10.0
100
AcDbEllipse
 10
18.224042702322
 20
153.427319705533
 30
0.0
 11
-4.414522407576442
 21
0.0
 31
0.0
210
0.0
220
0.0
230
-1.0
 40
0.527217439989
 41
3.83073246815407
 42
8.735638146205103
  0
ELLIPSE
  5
4B13
330
1A
100
AcDbEntity
  8
寸法線
 48
10.0
100
AcDbEllipse
 10
18.224042702322
 20
150.467438797514
 30
0.0
 11
-4.414522407576442
 21
0.0
 31
0.0
210
0.0
220
0.0
230
-1.0
 40
0.527217439989
 41
3.83073246815407
 42
8.735638146172967
  0
ELLIPSE
  5
4B14
330
1A
100
AcDbEntity
  8
寸法線
 48
10.0
100
AcDbEllipse
 10
18.224042702322
 20
147.507557889494
 30
0.0
 11
-4.414522407576442
 21
0.0
 31
0.0
210
0.0
220
0.0
230
-1.0
 40
0.527217439989
 41
3.83073246815407
 42
8.735638146205103
  0
ELLIPSE
  5
4B15
330
1A
100
AcDbEntity
  8
寸法線
 48
10.0
100
AcDbEllipse
 10
18.224042702322
 20
144.547676981474
 30
0.0
 11
-4.414522407576442
 21
0.0
 31
0.0
210
0.0
220
0.0
230
-1.0
 40
0.527217439989
 41
3.83073246815407
 42
8.735638146205103
  0
ELLIPSE
  5
4B16
330
1A
100
AcDbEntity
  8
寸法線
 48
10.0
100
AcDbEllipse
 10
18.224042702322
 20
141.587796073454
 30
0.0
 11
-4.414522407576442
 21
0.0
 31
0.0
210
0.0
220
0.0
230
-1.0
 40
0.527217439989
 41
3.830732468089261
 42
8.735638146205103
  0
ELLIPSE
  5
4B17
330
1A
100
AcDbEntity
  8
寸法線
 48
10.0
100
AcDbEllipse
 10
18.224042702322
 20
138.627915165667
 30
0.0
 11
-4.414522407576442
 21
0.0
 31
0.0
210
0.0
220
0.0
230
-1.0
 40
0.527217439989
 41
3.83073246815407
 42
8.735638146269912
  0
ELLIPSE
  5
4B18
330
1A
100
AcDbEntity
  8
寸法線
 48
10.0
100
AcDbEllipse
 10
18.224042702322
 20
135.668034257647
 30
0.0
 11
-4.414522407576442
 21
0.0
 31
0.0
210
0.0
220
0.0
230
-1.0
 40
0.527217439989
 41
4.71238898038469
 42
8.735638146172967
  0
LINE
  5
4B19
330
1A
100
AcDbEntity
  8
寸法線
 48
10.0
100
AcDbLine
 10
12.356875739848
 20
174.907260159543
 30
0.0
 11
12.356875739848
 21
134.733862859011
 31
0.0
  0
LINE
  5
4B1A
330
1A
100
AcDbEntity
  8
寸法線
 48
10.0
100
AcDbLine
 10
10.435917511438
 20
174.907260159543
 30
0.0
 11
10.435917511438
 21
134.733862859011
 31
0.0
  0
ELLIPSE
  5
4B1B
330
1A
100
AcDbEntity
  8
寸法線
 48
10.0
100
AcDbEllipse
 10
18.224042702322
 20
156.387200613553
 30
0.0
 11
-4.414522407576442
 21
0.0
 31
0.0
210
0.0
220
0.0
230
-1.0
 40
0.527217439989
 41
3.83073246815407
 42
8.735638146269912
  0
TEXT
  5
4B1C
330
1A
100
AcDbEntity
  8
寸法線
100
AcDbText
 10
-104.286384128523
 20
156.742343004365
 30
0.0
 40
8.0
  1
output
100
AcDbText
  0
TEXT
  5
4B1D
330
1A
100
AcDbEntity
  8
寸法線
100
AcDbText
 10
-63.331322659598
 20
137.490609125702
 30
0.0
 40
8.0
  1
b
100
AcDbText
  0
TEXT
  5
4B1E
330
1A
100
AcDbEntity
  8
寸法線
100
AcDbText
 10
-63.131322659598
 20
157.490609125702
 30
0.0
 40
8.0
  1
c
100
AcDbText
  0
TEXT
  5
4B1F
330
1A
100
AcDbEntity
  8
寸法線
100
AcDbText
 10
-63.731322659598
 20
177.490609125702
 30
0.0
 40
8.0
  1
a
100
AcDbText
  0
TEXT
  5
4B20
330
1A
100
AcDbEntity
  8
寸法線
100
AcDbText
 10
53.210378357641
 20
130.599141039455
 30
0.0
 40
8.0
  1
0V
100
AcDbText
  0
TEXT
  5
4B21
330
1A
100
AcDbEntity
  8
寸法線
100
AcDbText
 10
52.610378357641
 20
170.563205916068
 30
0.0
 40
8.0
  1
210V
100
AcDbText
  0
MTEXT
  5
4B22
102
{ACAD_XDICTIONARY
360
4B69
102
}
330
1A
100
AcDbEntity
  8
寸法線
 48
10.0
100
AcDbMText
 10
87.809147227537
 20
166.550596281748
 30
0.0
 40
8.0
 41
191.2
 71
     1
 72
     5
  1
power\Psupply
1001
ACADANNOTATIVE
1000
AnnotativeData
1002
{
1070
     1
1070
     0
1002
}
  0
TEXT
  5
4B23
330
1A
100
AcDbEntity
  8
寸法線
100
AcDbText
 10
53.051089634339
 20
150.850914490708
 30
0.0
 40
8.0
  1
105V
100
AcDbText
  0
TEXT
  5
4B24
330
1A
100
AcDbEntity
  8
寸法線
100
AcDbText
 10
55.052823502752
 20
115.608553790361
 30
0.0
 40
8.0
  1
E
100
AcDbText
  0
TEXT
  5
4B25
330
1A
100
AcDbEntity
  8
寸法線
100
AcDbText
 10
86.617749560717
 20
117.094363116596
 30
0.0
 40
8.0
  1
EARTH
100
AcDbText
  0
LINE
  5
4B26
330
1A
100
AcDbEntity
  8
寸法線
100
AcDbLine
 10
4.027857876306
 20
237.702000708381
 30
0.0
 11
4.027857876306
 21
253.702000708381
 31
0.0
  0
ARC
  5
4B27
330
1A
100
AcDbEntity
  8
寸法線
100
AcDbCircle
 10
8.027857876306
 20
253.702000708381
 30
0.0
 40
4.0
100
AcDbArc
 50
90.0
 51
180.0
  0
LINE
  5
4B28
330
1A
100
AcDbEntity
  8
寸法線
100
AcDbLine
 10
-15.972142123694
 20
237.702000708381
 30
0.0
 11
-15.972142123694
 21
253.702000708381
 31
0.0
  0
ARC
  5
4B29
330
1A
100
AcDbEntity
  8
寸法線
100
AcDbCircle
 10
-11.972142123694
 20
253.702000708381
 30
0.0
 40
4.0
100
AcDbArc
 50
90.0
 51
180.0
  0
ARC
  5
4B2A
330
1A
100
AcDbEntity
  8
寸法線
100
AcDbCircle
 10
-31.972142123694
 20
253.702000708381
 30
0.0
 40
4.0
100
AcDbArc
 50
90.0
 51
180.0
  0
LINE
  5
4B2B
330
1A
100
AcDbEntity
  8
寸法線
100
AcDbLine
 10
24.027857876306
 20
251.419612965091
 30
0.0
 11
24.027857876306
 21
237.702000708381
 31
0.0
  0
TEXT
  5
4B2C
330
1A
100
AcDbEntity
  8
寸法線
100
AcDbText
 10
41.877447934353
 20
224.575988863791
 30
0.0
 40
8.0
  1
shield wire
100
AcDbText
  0
TEXT
  5
4B2D
330
1A
100
AcDbEntity
  8
寸法線
100
AcDbText
 10
52.127857876306
 20
254.202000708381
 30
0.0
 40
8.0
  1
to DETECTOR
100
AcDbText
  0
LINE
  5
4B2E
330
1A
100
AcDbEntity
  8
寸法線
100
AcDbLine
 10
-31.972142123694
 20
257.702000708381
 30
0.0
 11
50.027857876306
 21
257.702000708381
 31
0.0
  0
LINE
  5
4B2F
330
1A
100
AcDbEntity
  8
寸法線
100
AcDbLine
 10
-35.972142123694
 20
237.702000708381
 30
0.0
 11
-35.972142123694
 21
253.702000708381
 31
0.0
  0
LINE
  5
4B30
330
1A
100
AcDbEntity
  8
隠れ線
 48
10.0
100
AcDbLine
 10
19.727405463059
 20
258.978497936471
 30
0.0
 11
19.727405463059
 21
255.4885716885
 31
0.0
  0
LINE
  5
4B31
330
1A
100
AcDbEntity
  8
隠れ線
 48
10.0
100
AcDbLine
 10
27.877784233312
 20
255.4885716885
 30
0.0
 11
27.877784233312
 21
258.978497936471
 31
0.0
  0
ARC
  5
4B32
330
1A
100
AcDbEntity
  8
隠れ線
 48
10.0
100
AcDbCircle
 10
23.802594848186
 20
255.4885716885
 30
0.0
 40
4.07518938512618
100
AcDbArc
 50
180.0
 51
0.0
  0
ARC
  5
4B33
330
1A
100
AcDbEntity
  8
隠れ線
 48
10.0
100
AcDbCircle
 10
23.802594848186
 20
258.978497936471
 30
0.0
 40
4.07518938512618
100
AcDbArc
 50
0.0
 51
180.0
  0
TEXT
  5
4B34
330
1A
100
AcDbEntity
  8
寸法線
100
AcDbText
 10
18.231053413491
 20
223.410757203297
 30
0.0
 40
8.0
  1
SH
100
AcDbText
  0
TEXT
  5
4B35
330
1A
100
AcDbEntity
  8
寸法線
100
AcDbText
 10
-0.829871089407
 20
223.410757203297
 30
0.0
 40
8.0
  1
B2
100
AcDbText
  0
TEXT
  5
4B36
330
1A
100
AcDbEntity
  8
寸法線
100
AcDbText
 10
-20.22612113208
 20
223.410757203297
 30
0.0
 40
8.0
  1
NC
100
AcDbText
  0
TEXT
  5
4B37
330
1A
100
AcDbEntity
  8
寸法線
100
AcDbText
 10
-40.650822203175
 20
223.410757203297
 30
0.0
 40
8.0
  1
B1
100
AcDbText
  0
TEXT
  5
4B67
330
1A
100
AcDbEntity
  8
寸法線
100
AcDbText
 10
-104.267528292257
 20
143.448939907848
 30
0.0
 40
8.0
  1
circuit
100
AcDbText
  0
MTEXT
  5
4B9D
102
{ACAD_XDICTIONARY
360
4B9E
102
}
330
1A
100
AcDbEntity
  8
寸法線
 48
10.0
100
AcDbMText
 10
342.972196284923
 20
202.90874713912
 30
0.0
 40
8.0
 41
0.0
 71
     1
 72
     1
  1
INTRINSIC SAFETY TYPE OF EXPLOTION-PROTECTION\PExplotion class and Ignition of explosive gases:ia3nG5
1001
ACADANNOTATIVE
1000
AnnotativeData
1002
{
1070
     1
1070
     0
1002
}
  0
LINE
  5
4CF7
330
1A
100
AcDbEntity
  8
下書線
 48
10.0
100
AcDbLine
 10
-113.577470875451
 20
290.16269752341
 30
0.0
 11
584.044238986673
 21
290.16269752341
 31
0.0
  0
LINE
  5
4CF8
330
1A
100
AcDbEntity
  8
外形線
 48
10.0
100
AcDbLine
 10
415.572748144451
 20
373.192735965639
 30
0.0
 11
508.572748144451
 21
373.192735965639
 31
0.0
  0
LINE
  5
4CF9
330
1A
100
AcDbEntity
  8
外形線
 48
10.0
100
AcDbLine
 10
508.572748144451
 20
373.192735965639
 30
0.0
 11
508.572748144451
 21
369.192735965639
 31
0.0
  0
LINE
  5
4CFA
330
1A
100
AcDbEntity
  8
外形線
 48
10.0
100
AcDbLine
 10
415.572748144451
 20
373.192735965639
 30
0.0
 11
415.572748144451
 21
369.192735965639
 31
0.0
  0
LINE
  5
4CFB
330
1A
100
AcDbEntity
  8
外形線
 48
10.0
100
AcDbLine
 10
415.572748144451
 20
369.192735965639
 30
0.0
 11
416.572748144451
 21
369.192735965639
 31
0.0
  0
LINE
  5
4CFC
330
1A
100
AcDbEntity
  8
外形線
 48
10.0
100
AcDbLine
 10
416.572748144451
 20
369.192735965639
 30
0.0
 11
416.572748144451
 21
372.192735965639
 31
0.0
  0
LINE
  5
4CFD
330
1A
100
AcDbEntity
  8
外形線
 48
10.0
100
AcDbLine
 10
508.572748144451
 20
369.192735965639
 30
0.0
 11
507.572748144451
 21
369.192735965639
 31
0.0
  0
LINE
  5
4CFE
330
1A
100
AcDbEntity
  8
外形線
 48
10.0
100
AcDbLine
 10
507.572748144451
 20
369.192735965639
 30
0.0
 11
507.572748144451
 21
372.192735965639
 31
0.0
  0
LINE
  5
4CFF
330
1A
100
AcDbEntity
  8
外形線
 48
10.0
100
AcDbLine
 10
300.257272781167
 20
514.476843769938
 30
0.0
 11
300.257272781167
 21
421.476843769938
 31
0.0
  0
LINE
  5
4D00
330
1A
100
AcDbEntity
  8
外形線
 48
10.0
100
AcDbLine
 10
300.257272781167
 20
421.476843769938
 30
0.0
 11
345.757272781167
 21
421.476843769938
 31
0.0
  0
LINE
  5
4D01
330
1A
100
AcDbEntity
  8
外形線
 48
10.0
100
AcDbLine
 10
345.757272781167
 20
421.461726888359
 30
0.0
 11
345.757272781167
 21
514.476843769938
 31
0.0
  0
LINE
  5
4D02
330
1A
100
AcDbEntity
  8
外形線
 48
10.0
100
AcDbLine
 10
345.757272781167
 20
514.476843769938
 30
0.0
 11
300.257272781167
 21
514.476843769938
 31
0.0
  0
LINE
  5
4D03
330
1A
100
AcDbEntity
  8
外形線
 48
10.0
100
AcDbLine
 10
300.257272781167
 20
373.192735965639
 30
0.0
 11
345.757272781167
 21
373.192735965639
 31
0.0
  0
LINE
  5
4D04
330
1A
100
AcDbEntity
  8
外形線
 48
10.0
100
AcDbLine
 10
345.757272781167
 20
373.192735965639
 30
0.0
 11
345.757272781167
 21
370.692735965639
 31
0.0
  0
LINE
  5
4D05
330
1A
100
AcDbEntity
  8
外形線
 48
10.0
100
AcDbLine
 10
35.673691545907
 20
373.192735965639
 30
0.0
 11
128.673691545907
 21
373.192735965639
 31
0.0
  0
LINE
  5
4D06
330
1A
100
AcDbEntity
  8
外形線
 48
10.0
100
AcDbLine
 10
128.673691545907
 20
373.192735965639
 30
0.0
 11
128.673691545907
 21
369.192735965639
 31
0.0
  0
LINE
  5
4D07
330
1A
100
AcDbEntity
  8
外形線
 48
10.0
100
AcDbLine
 10
35.673691545907
 20
373.192735965639
 30
0.0
 11
35.673691545907
 21
369.192735965639
 31
0.0
  0
LINE
  5
4D08
330
1A
100
AcDbEntity
  8
外形線
 48
10.0
100
AcDbLine
 10
35.673691545907
 20
369.192735965639
 30
0.0
 11
36.673691545907
 21
369.192735965639
 31
0.0
  0
LINE
  5
4D09
330
1A
100
AcDbEntity
  8
外形線
 48
10.0
100
AcDbLine
 10
36.673691545907
 20
369.192735965639
 30
0.0
 11
36.673691545907
 21
372.192735965639
 31
0.0
  0
LINE
  5
4D0A
330
1A
100
AcDbEntity
  8
外形線
 48
10.0
100
AcDbLine
 10
36.673691545907
 20
372.192735965639
 30
0.0
 11
127.673691545907
 21
372.192735965639
 31
0.0
  0
LINE
  5
4D0B
330
1A
100
AcDbEntity
  8
外形線
 48
10.0
100
AcDbLine
 10
128.673691545907
 20
369.192735965639
 30
0.0
 11
127.673691545907
 21
369.192735965639
 31
0.0
  0
LINE
  5
4D0C
330
1A
100
AcDbEntity
  8
外形線
 48
10.0
100
AcDbLine
 10
127.673691545907
 20
369.192735965639
 30
0.0
 11
127.673691545907
 21
372.192735965639
 31
0.0
  0
LINE
  5
4D0D
330
1A
100
AcDbEntity
  8
外形線
 48
10.0
100
AcDbLine
 10
177.757272781167
 20
514.476843769938
 30
0.0
 11
177.757272781167
 21
421.476843769938
 31
0.0
  0
LINE
  5
4D0E
330
1A
100
AcDbEntity
  8
外形線
 48
10.0
100
AcDbLine
 10
177.757272781167
 20
421.476843769938
 30
0.0
 11
300.257272781167
 21
421.476843769938
 31
0.0
  0
LINE
  5
4D0F
330
1A
100
AcDbEntity
  8
外形線
 48
10.0
100
AcDbLine
 10
300.257272781167
 20
421.476843769938
 30
0.0
 11
300.257272781167
 21
514.476843769938
 31
0.0
  0
LINE
  5
4D10
330
1A
100
AcDbEntity
  8
外形線
 48
10.0
100
AcDbLine
 10
300.257272781167
 20
514.476843769938
 30
0.0
 11
177.757272781167
 21
514.476843769938
 31
0.0
  0
LINE
  5
4D11
330
1A
100
AcDbEntity
  8
外形線
 48
10.0
100
AcDbLine
 10
177.757272781167
 20
373.192735965639
 30
0.0
 11
300.257272781167
 21
373.192735965639
 31
0.0
  0
LINE
  5
4D12
330
1A
100
AcDbEntity
  8
外形線
 48
10.0
100
AcDbLine
 10
300.257272781167
 20
373.192735965639
 30
0.0
 11
300.257272781167
 21
370.692735965639
 31
0.0
  0
LINE
  5
4D13
330
1A
100
AcDbEntity
  8
外形線
 48
10.0
100
AcDbLine
 10
298.757272781167
 20
369.192735965639
 30
0.0
 11
179.257272781167
 21
369.192735965639
 31
0.0
  0
LINE
  5
4D14
330
1A
100
AcDbEntity
  8
外形線
 48
10.0
100
AcDbLine
 10
177.757272781167
 20
373.192735965639
 30
0.0
 11
177.757272781167
 21
370.692735965639
 31
0.0
  0
LINE
  5
4D15
330
1A
100
AcDbEntity
  8
外形線
 48
10.0
100
AcDbLine
 10
179.257272781167
 20
369.192735965639
 30
0.0
 11
177.757272781167
 21
370.692735965639
 31
0.0
  0
LINE
  5
4D16
330
1A
100
AcDbEntity
  8
外形線
 48
10.0
100
AcDbLine
 10
298.757272781167
 20
369.192735965639
 30
0.0
 11
300.257272781167
 21
370.692735965639
 31
0.0
  0
LINE
  5
4D17
330
1A
100
AcDbEntity
  8
外形線
 48
10.0
100
AcDbLine
 10
344.257272781167
 20
369.192735965639
 30
0.0
 11
301.757272781167
 21
369.192735965639
 31
0.0
  0
LINE
  5
4D18
330
1A
100
AcDbEntity
  8
外形線
 48
10.0
100
AcDbLine
 10
301.757272781167
 20
369.192735965639
 30
0.0
 11
300.257272781167
 21
370.692735965639
 31
0.0
  0
LINE
  5
4D19
330
1A
100
AcDbEntity
  8
外形線
 48
10.0
100
AcDbLine
 10
344.257272781167
 20
369.192735965639
 30
0.0
 11
345.757272781167
 21
370.692735965639
 31
0.0
  0
LINE
  5
4D1A
330
1A
100
AcDbEntity
  8
外形線
 48
10.0
100
AcDbLine
 10
300.257272781167
 20
373.192735965639
 30
0.0
 11
300.257272781167
 21
370.692735965639
 31
0.0
  0
LINE
  5
4D1B
330
1A
100
AcDbEntity
  8
外形線
 48
10.0
100
AcDbLine
 10
416.572748144451
 20
372.192735965639
 30
0.0
 11
507.572748144451
 21
372.192735965639
 31
0.0
  0
LINE
  5
4D1C
330
1A
100
AcDbEntity
  8
外形線
 48
10.0
100
AcDbLine
 10
177.257272781167
 20
514.476843769938
 30
0.0
 11
345.757272781167
 21
514.476843769938
 31
0.0
  0
LINE
  5
4D1D
330
1A
100
AcDbEntity
  8
外形線
 48
10.0
100
AcDbLine
 10
345.257272781167
 20
421.476843769938
 30
0.0
 11
177.757272781167
 21
421.476843769938
 31
0.0
  0
LINE
  5
4D1E
330
1A
100
AcDbEntity
  8
外形線
 48
10.0
100
AcDbLine
 10
177.757272781167
 20
421.476843769938
 30
0.0
 11
177.757272781167
 21
514.476843769938
 31
0.0
  0
LINE
  5
4D1F
330
1A
100
AcDbEntity
  8
外形線
 48
10.0
100
AcDbLine
 10
345.757272781167
 20
514.476843769938
 30
0.0
 11
356.257272781167
 21
514.476843769938
 31
0.0
  0
LINE
  5
4D20
330
1A
100
AcDbEntity
  8
外形線
 48
10.0
100
AcDbLine
 10
361.257272781167
 20
509.476843769938
 30
0.0
 11
361.257272781167
 21
426.476843769938
 31
0.0
  0
LINE
  5
4D21
330
1A
100
AcDbEntity
  8
外形線
 48
10.0
100
AcDbLine
 10
356.257272781167
 20
421.476843769938
 30
0.0
 11
344.757272781167
 21
421.476843769938
 31
0.0
  0
LINE
  5
4D22
330
1A
100
AcDbEntity
  8
外形線
 48
10.0
100
AcDbLine
 10
177.757272781167
 20
514.476843769938
 30
0.0
 11
167.257272781167
 21
514.476843769938
 31
0.0
  0
LINE
  5
4D23
330
1A
100
AcDbEntity
  8
外形線
 48
10.0
100
AcDbLine
 10
162.257272781167
 20
509.476843769938
 30
0.0
 11
162.257272781167
 21
470.471362075578
 31
0.0
  0
LINE
  5
4D24
330
1A
100
AcDbEntity
  8
外形線
 48
10.0
100
AcDbLine
 10
167.257272781167
 20
421.476843769938
 30
0.0
 11
177.757272781167
 21
421.476843769938
 31
0.0
  0
ARC
  5
4D25
330
1A
100
AcDbEntity
  8
外形線
 48
10.0
100
AcDbCircle
 10
169.757271279875
 20
467.971362075578
 30
0.0
 40
2.5
100
AcDbArc
 50
270.0
 51
90.0
  0
LINE
  5
4D26
330
1A
100
AcDbEntity
  8
外形線
 48
10.0
100
AcDbLine
 10
169.757271279875
 20
470.471362075578
 30
0.0
 11
162.257272781167
 21
470.471362075578
 31
0.0
  0
LINE
  5
4D27
330
1A
100
AcDbEntity
  8
外形線
 48
10.0
100
AcDbLine
 10
169.757271279875
 20
465.471362075578
 30
0.0
 11
162.257272781167
 21
465.471362075578
 31
0.0
  0
LINE
  5
4D28
330
1A
100
AcDbEntity
  8
外形線
 48
10.0
100
AcDbLine
 10
162.257272781167
 20
465.471362075578
 30
0.0
 11
162.257272781167
 21
426.476843769938
 31
0.0
  0
CIRCLE
  5
4D29
330
1A
100
AcDbEntity
  8
外形線
 48
10.0
100
AcDbCircle
 10
353.757272781167
 20
467.976843769938
 30
0.0
 40
2.5
  0
LINE
  5
4D2A
330
1A
100
AcDbEntity
  8
外形線
 48
10.0
100
AcDbLine
 10
356.257272781167
 20
514.476843769938
 30
0.0
 11
361.257272781167
 21
509.476843769938
 31
0.0
  0
LINE
  5
4D2B
330
1A
100
AcDbEntity
  8
外形線
 48
10.0
100
AcDbLine
 10
361.257272781167
 20
426.476843769938
 30
0.0
 11
356.257272781167
 21
421.476843769938
 31
0.0
  0
LINE
  5
4D2C
330
1A
100
AcDbEntity
  8
外形線
 48
10.0
100
AcDbLine
 10
167.257272781167
 20
514.476843769938
 30
0.0
 11
162.257272781167
 21
509.476843769938
 31
0.0
  0
LINE
  5
4D2D
330
1A
100
AcDbEntity
  8
外形線
 48
10.0
100
AcDbLine
 10
167.257272781167
 20
421.476843769938
 30
0.0
 11
162.257272781167
 21
426.476843769938
 31
0.0
  0
LINE
  5
4D2E
330
1A
100
AcDbEntity
  8
外形線
 48
10.0
100
AcDbLine
 10
345.257272781167
 20
314.192735965639
 30
0.0
 11
177.257272781167
 21
314.192735965639
 31
0.0
  0
LINE
  5
4D2F
330
1A
100
AcDbEntity
  8
外形線
 48
10.0
100
AcDbLine
 10
344.757272781167
 20
368.192735965639
 30
0.0
 11
344.757272781167
 21
314.192735965639
 31
0.0
  0
LINE
  5
4D30
330
1A
100
AcDbEntity
  8
外形線
 48
10.0
100
AcDbLine
 10
344.757272781167
 20
369.192735965639
 30
0.0
 11
344.757272781167
 21
315.192735965639
 31
0.0
  0
LINE
  5
4D31
330
1A
100
AcDbEntity
  8
外形線
 48
10.0
100
AcDbLine
 10
345.757272781167
 20
371.942735965639
 30
0.0
 11
345.757272781167
 21
313.942735965639
 31
0.0
  0
LINE
  5
4D32
330
1A
100
AcDbEntity
  8
外形線
 48
10.0
100
AcDbLine
 10
344.757272781167
 20
369.692735965639
 30
0.0
 11
344.757272781167
 21
369.192735965639
 31
0.0
  0
LINE
  5
4D33
330
1A
100
AcDbEntity
  8
外形線
 48
10.0
100
AcDbLine
 10
178.757272781167
 20
369.192735965639
 30
0.0
 11
178.757272781167
 21
314.192735965639
 31
0.0
  0
LINE
  5
4D34
330
1A
100
AcDbEntity
  8
外形線
 48
10.0
100
AcDbLine
 10
177.757272781167
 20
368.192735965639
 30
0.0
 11
177.757272781167
 21
314.192735965639
 31
0.0
  0
LINE
  5
4D35
330
1A
100
AcDbEntity
  8
外形線
 48
10.0
100
AcDbLine
 10
178.757272781167
 20
369.692735965639
 30
0.0
 11
178.757272781167
 21
369.192735965639
 31
0.0
  0
LINE
  5
4D36
330
1A
100
AcDbEntity
  8
外形線
 48
10.0
100
AcDbLine
 10
177.757272781167
 20
372.192735965639
 30
0.0
 11
177.757272781167
 21
314.192735965639
 31
0.0
  0
LINE
  5
4D37
330
1A
100
AcDbEntity
  8
外形線
 48
10.0
100
AcDbLine
 10
361.257272781167
 20
314.192735965639
 30
0.0
 11
361.257272781167
 21
313.192735965639
 31
0.0
  0
LINE
  5
4D38
330
1A
100
AcDbEntity
  8
外形線
 48
10.0
100
AcDbLine
 10
356.882272781167
 20
314.192735965639
 30
0.0
 11
356.882272781167
 21
313.192735965639
 31
0.0
  0
LINE
  5
4D39
330
1A
100
AcDbEntity
  8
外形線
 48
10.0
100
AcDbLine
 10
167.257272781167
 20
314.192735965639
 30
0.0
 11
167.257272781167
 21
313.192735965639
 31
0.0
  0
LINE
  5
4D3A
330
1A
100
AcDbEntity
  8
外形線
 48
10.0
100
AcDbLine
 10
162.257272781167
 20
314.192735965639
 30
0.0
 11
162.257272781167
 21
313.192735965639
 31
0.0
  0
LINE
  5
4D3B
330
1A
100
AcDbEntity
  8
外形線
 48
10.0
100
AcDbLine
 10
167.257272781167
 20
314.192735965639
 30
0.0
 11
167.257272781167
 21
313.192735965639
 31
0.0
  0
LINE
  5
4D3C
330
1A
100
AcDbEntity
  8
外形線
 48
10.0
100
AcDbLine
 10
162.257272781167
 20
314.192735965639
 30
0.0
 11
162.257272781167
 21
313.192735965639
 31
0.0
  0
LINE
  5
4D3D
330
1A
100
AcDbEntity
  8
外形線
 48
10.0
100
AcDbLine
 10
344.257272781167
 20
314.192735965639
 30
0.0
 11
361.257272781167
 21
314.192735965639
 31
0.0
  0
LINE
  5
4D3E
330
1A
100
AcDbEntity
  8
外形線
 48
10.0
100
AcDbLine
 10
179.257272781167
 20
314.192735965639
 30
0.0
 11
162.257272781167
 21
314.192735965639
 31
0.0
  0
LINE
  5
4D3F
330
1A
100
AcDbEntity
  8
外形線
 48
10.0
100
AcDbLine
 10
162.257272781167
 20
313.192735965639
 30
0.0
 11
361.257272781167
 21
313.192735965639
 31
0.0
  0
LINE
  5
4D40
330
1A
100
AcDbEntity
  8
外形線
 48
10.0
100
AcDbLine
 10
345.257272781167
 20
314.192735965639
 30
0.0
 11
177.257272781167
 21
314.192735965639
 31
0.0
  0
LINE
  5
4D41
330
1A
100
AcDbEntity
  8
外形線
 48
10.0
100
AcDbLine
 10
162.257272781167
 20
313.192735965639
 30
0.0
 11
361.257272781167
 21
313.192735965639
 31
0.0
  0
LINE
  5
4D42
330
1A
100
AcDbEntity
  8
外形線
 48
10.0
100
AcDbLine
 10
162.861029927913
 20
314.192735965639
 30
0.0
 11
346.017837266732
 21
314.192735965639
 31
0.0
  0
LINE
  5
4D43
330
1A
100
AcDbEntity
  8
外形線
 48
10.0
100
AcDbLine
 10
162.861029927913
 20
314.192735965639
 30
0.0
 11
346.017837266732
 21
314.192735965639
 31
0.0
  0
DIMENSION
  5
4D44
330
1A
100
AcDbEntity
  8
寸法線
 48
10.0
100
AcDbDimension
  2
*D29
 10
383.140009750906
 20
373.192735965639
 30
0.0
 11
378.515009750906
 21
343.192735965639
 31
0.0
 70
    32
  3
ISO-25
100
AcDbAlignedDimension
 13
361.257272781167
 23
313.192735965639
 33
0.0
 14
345.757272781167
 24
373.192735965639
 34
0.0
 50
-90.0
100
AcDbRotatedDimension
1001
ACAD
1000
DSTYLE
1002
{
1070
     5
1000
OPEN30
1070
    41
1040
6.0
1070
   271
1070
     1
1070
   341
1005
2AF4
1070
   272
1070
     1
1070
    73
1070
     0
1070
    48
1040
0.1
1070
    47
1040
0.1
1070
   140
1040
8.0
1002
}
  0
LINE
  5
4D45
330
1A
100
AcDbEntity
  8
外形線
 48
10.0
100
AcDbLine
 10
35.673691545907
 20
369.192735965639
 30
0.0
 11
35.673691545907
 21
313.192735965639
 31
0.0
  0
LINE
  5
4D46
330
1A
100
AcDbEntity
  8
外形線
 48
10.0
100
AcDbLine
 10
128.673691545907
 20
369.192735965639
 30
0.0
 11
128.673691545907
 21
313.192735965639
 31
0.0
  0
LINE
  5
4D47
330
1A
100
AcDbEntity
  8
外形線
 48
10.0
100
AcDbLine
 10
35.673691545907
 20
313.192735965639
 30
0.0
 11
128.673691545907
 21
313.192735965639
 31
0.0
  0
LINE
  5
4D48
330
1A
100
AcDbEntity
  8
外形線
 48
10.0
100
AcDbLine
 10
35.673691545907
 20
314.192735965639
 30
0.0
 11
128.673691545907
 21
314.192735965639
 31
0.0
  0
LINE
  5
4D49
330
1A
100
AcDbEntity
  8
外形線
 48
10.0
100
AcDbLine
 10
36.673691545907
 20
372.192735965639
 30
0.0
 11
127.673691545907
 21
372.192735965639
 31
0.0
  0
CIRCLE
  5
4D4A
330
1A
100
AcDbEntity
  8
外形線
 48
10.0
100
AcDbCircle
 10
62.173691545907
 20
360.192735965639
 30
0.0
 40
7.0
  0
LINE
  5
4D4B
330
1A
100
AcDbEntity
  8
中心線
 48
10.0
100
AcDbLine
 10
52.15842801455
 20
360.192735965639
 30
0.0
 11
72.279241039712
 21
360.192735965639
 31
0.0
  0
LINE
  5
4D4C
330
1A
100
AcDbEntity
  8
中心線
 48
10.0
100
AcDbLine
 10
62.173691545907
 20
368.812074122528
 30
0.0
 11
62.173691545907
 21
349.700907628328
 31
0.0
  0
LINE
  5
4D4D
330
1A
100
AcDbEntity
  8
外形線
 48
10.0
100
AcDbLine
 10
415.572748144451
 20
369.192735965639
 30
0.0
 11
415.572748144451
 21
313.192735965639
 31
0.0
  0
LINE
  5
4D4E
330
1A
100
AcDbEntity
  8
外形線
 48
10.0
100
AcDbLine
 10
508.572748144451
 20
369.192735965639
 30
0.0
 11
508.572748144451
 21
313.192735965639
 31
0.0
  0
LINE
  5
4D4F
330
1A
100
AcDbEntity
  8
外形線
 48
10.0
100
AcDbLine
 10
415.572748144451
 20
313.192735965639
 30
0.0
 11
508.572748144451
 21
313.192735965639
 31
0.0
  0
LINE
  5
4D50
330
1A
100
AcDbEntity
  8
外形線
 48
10.0
100
AcDbLine
 10
415.572748144451
 20
314.192735965639
 30
0.0
 11
508.572748144451
 21
314.192735965639
 31
0.0
  0
LINE
  5
4D51
330
1A
100
AcDbEntity
  8
外形線
 48
10.0
100
AcDbLine
 10
416.572748144451
 20
372.192735965639
 30
0.0
 11
507.572748144451
 21
372.192735965639
 31
0.0
  0
CIRCLE
  5
4D52
330
1A
100
AcDbEntity
  8
外形線
 48
10.0
100
AcDbCircle
 10
462.106007746715
 20
360.192674509758
 30
0.0
 40
7.0
  0
DIMENSION
  5
4D53
330
1A
100
AcDbEntity
  8
寸法線
 48
10.0
100
AcDbDimension
  2
*D30
 10
456.438807816538
 20
364.30154843819
 30
0.0
 11
484.140620807175
 21
344.216981355699
 31
0.0
 70
   163
  3
ISO-25
100
AcDbDiametricDimension
 15
467.773207676891
 25
356.083800581327
 35
0.0
 40
0.0
1001
ACAD
1000
DSTYLE
1002
{
1070
     5
1000
OPEN30
1070
    41
1040
6.0
1070
   271
1070
     1
1070
   341
1005
2AF4
1070
   272
1070
     1
1070
    73
1070
     0
1070
    48
1040
0.1
1070
    47
1040
0.1
1070
   140
1040
8.0
1002
}
  0
CIRCLE
  5
4D54
330
1A
100
AcDbEntity
  8
外形線
 48
10.0
100
AcDbCircle
 10
102.173691545907
 20
360.192735965639
 30
0.0
 40
7.0
  0
LINE
  5
4D55
330
1A
100
AcDbEntity
  8
中心線
 48
10.0
100
AcDbLine
 10
92.15842801455
 20
360.192735965639
 30
0.0
 11
112.279241039712
 21
360.192735965639
 31
0.0
  0
LINE
  5
4D56
330
1A
100
AcDbEntity
  8
中心線
 48
10.0
100
AcDbLine
 10
102.173691545907
 20
368.812074122528
 30
0.0
 11
102.173691545907
 21
349.700907628328
 31
0.0
  0
DIMENSION
  5
4D57
330
1A
100
AcDbEntity
  8
寸法線
 48
10.0
100
AcDbDimension
  2
*D31
 10
102.173691545907
 20
333.126965816176
 30
0.0
 11
82.173691545907
 21
337.751965816176
 31
0.0
 70
    32
  3
ISO-25
100
AcDbAlignedDimension
 13
62.173691545907
 23
350.032019969352
 33
0.0
 14
102.173691545907
 24
350.032019969352
 34
0.0
 50
0.0
100
AcDbRotatedDimension
1001
ACAD
1000
DSTYLE
1002
{
1070
     5
1000
OPEN30
1070
    41
1040
6.0
1070
   271
1070
     1
1070
   341
1005
2AF4
1070
   272
1070
     1
1070
    73
1070
     0
1070
    48
1040
0.1
1070
    47
1040
0.1
1070
   140
1040
8.0
1002
}
  0
LINE
  5
4D58
330
1A
100
AcDbEntity
  8
外形線
 48
10.0
100
AcDbLine
 10
178.757272781167
 20
369.192735965639
 30
0.0
 11
344.757272781167
 21
369.192735965639
 31
0.0
  0
LINE
  5
4D59
330
1A
100
AcDbEntity
  8
外形線
 48
10.0
100
AcDbLine
 10
415.572748144451
 20
369.192735965639
 30
0.0
 11
416.572748144451
 21
369.192735965639
 31
0.0
  0
LINE
  5
4D5A
330
1A
100
AcDbEntity
  8
外形線
 48
10.0
100
AcDbLine
 10
507.572748144451
 20
369.192735965639
 30
0.0
 11
507.572748144451
 21
372.192735965639
 31
0.0
  0
LINE
  5
4D5B
330
1A
100
AcDbEntity
  8
外形線
 48
10.0
100
AcDbLine
 10
508.572748144451
 20
369.192735965639
 30
0.0
 11
507.572748144451
 21
369.192735965639
 31
0.0
  0
LINE
  5
4D5C
330
1A
100
AcDbEntity
  8
外形線
 48
10.0
100
AcDbLine
 10
35.673691545907
 20
369.192735965639
 30
0.0
 11
36.673691545907
 21
369.192735965639
 31
0.0
  0
LINE
  5
4D5D
330
1A
100
AcDbEntity
  8
外形線
 48
10.0
100
AcDbLine
 10
127.673691545907
 20
369.192735965639
 30
0.0
 11
127.673691545907
 21
372.192735965639
 31
0.0
  0
LINE
  5
4D5E
330
1A
100
AcDbEntity
  8
外形線
 48
10.0
100
AcDbLine
 10
36.673691545907
 20
369.192735965639
 30
0.0
 11
36.673691545907
 21
372.192735965639
 31
0.0
  0
LINE
  5
4D5F
330
1A
100
AcDbEntity
  8
外形線
 48
10.0
100
AcDbLine
 10
127.673691545907
 20
369.192735965639
 30
0.0
 11
128.673691545907
 21
369.192735965639
 31
0.0
  0
LINE
  5
4D60
330
1A
100
AcDbEntity
  8
外形線
 48
10.0
100
AcDbLine
 10
345.757272781167
 20
514.476843769938
 30
0.0
 11
345.757272781167
 21
421.476843769938
 31
0.0
  0
LINE
  5
4D61
330
1A
100
AcDbEntity
  8
下書線
 48
10.0
100
AcDbLine
 10
345.757272781167
 20
421.476843769938
 30
0.0
 11
345.757272781167
 21
372.192735965639
 31
0.0
  0
LINE
  5
4D62
330
1A
100
AcDbEntity
  8
中心線
 48
10.0
100
AcDbLine
 10
353.757272781167
 20
471.961625753246
 30
0.0
 11
353.757272781167
 21
463.992061786629
 31
0.0
  0
LINE
  5
4D63
330
1A
100
AcDbEntity
  8
中心線
 48
10.0
100
AcDbLine
 10
169.757271279875
 20
471.854197250489
 30
0.0
 11
169.757271279875
 21
464.088526900901
 31
0.0
  0
LINE
  5
4D64
330
1A
100
AcDbEntity
  8
外形線
 48
10.0
100
AcDbLine
 10
416.572748144451
 20
369.192735965639
 30
0.0
 11
416.572748144451
 21
372.192735965639
 31
0.0
  0
LINE
  5
4D65
330
1A
100
AcDbEntity
  8
下書線
 48
10.0
100
AcDbLine
 10
177.757272781167
 20
421.476843769938
 30
0.0
 11
177.757272781167
 21
373.192735965639
 31
0.0
  0
DIMENSION
  5
4D66
330
1A
100
AcDbEntity
  8
寸法線
 48
10.0
100
AcDbDimension
  2
*D32
 10
361.257272781167
 20
290.16269752341
 30
0.0
 11
261.757272781167
 21
294.78769752341
 31
0.0
 70
    32
  3
ISO-25
100
AcDbAlignedDimension
 13
162.257272781167
 23
313.192735965639
 33
0.0
 14
361.257272781167
 24
313.192735965639
 34
0.0
100
AcDbRotatedDimension
1001
ACAD
1000
DSTYLE
1002
{
1070
     5
1000
OPEN30
1070
    41
1040
6.0
1070
   271
1070
     1
1070
   341
1005
2AF4
1070
   272
1070
     1
1070
    73
1070
     0
1070
    48
1040
0.1
1070
    47
1040
0.1
1070
   140
1040
8.0
1002
}
  0
LINE
  5
4D67
330
1A
100
AcDbEntity
  8
下書線
 48
10.0
100
AcDbLine
 10
361.257272781167
 20
313.192735965639
 30
0.0
 11
415.572748144451
 21
313.192735965639
 31
0.0
  0
LINE
  5
4D68
330
1A
100
AcDbEntity
  8
下書線
 48
10.0
100
AcDbLine
 10
162.235051806379
 20
313.192735965639
 30
0.0
 11
128.673691545907
 21
313.192735965639
 31
0.0
  0
DIMENSION
  5
4D69
330
1A
100
AcDbEntity
  8
寸法線
 48
10.0
100
AcDbDimension
  2
*D33
 10
65.856408160872
 20
366.145684674243
 30
0.0
 11
47.85493861129
 21
337.047104437937
 31
0.0
 70
   163
  3
ISO-25
100
AcDbDiametricDimension
 15
58.490974930942
 25
354.239787257036
 35
0.0
 40
0.0
1001
ACAD
1000
DSTYLE
1002
{
1070
     5
1000
OPEN30
1070
    41
1040
6.0
1070
   271
1070
     1
1070
   341
1005
2AF4
1070
   272
1070
     1
1070
    73
1070
     0
1070
    48
1040
0.1
1070
    47
1040
0.1
1070
   140
1040
8.0
1002
}
  0
DIMENSION
  5
4D6A
330
1A
100
AcDbEntity
  8
寸法線
 48
10.0
100
AcDbDimension
  2
*D34
 10
353.757272781167
 20
401.154230098749
 30
0.0
 11
261.757272030521
 21
405.787563432082
 31
0.0
 70
    32
  3
ISO-25
100
AcDbAlignedDimension
 13
169.757271279875
 23
464.088526900901
 33
0.0
 14
353.757272781167
 24
463.992061786629
 34
0.0
100
AcDbRotatedDimension
1001
ACAD
1000
DSTYLE
1002
{
1070
     5
1000
OPEN30
1070
    41
1040
6.0
1070
   271
1070
     1
1070
   341
1005
2AF4
1070
   272
1070
     1
1070
    73
1070
     0
1070
    48
1040
0.1
1070
    47
1040
0.1
1070
   140
1040
8.0
1002
}
  0
DIMENSION
  5
4D6B
330
1A
100
AcDbEntity
  8
寸法線
 48
10.0
100
AcDbDimension
  2
*D35
 10
152.312537511173
 20
465.471362075578
 30
0.0
 11
147.687537511173
 21
467.971362075578
 31
0.0
 70
    32
  3
ISO-25
100
AcDbAlignedDimension
 13
162.257272781167
 23
470.471362075578
 33
0.0
 14
162.257272781167
 24
465.471362075578
 34
0.0
 50
90.0
100
AcDbRotatedDimension
1001
ACAD
1000
DSTYLE
1002
{
1070
     5
1000
OPEN30
1070
    41
1040
6.0
1070
   271
1070
     1
1070
   341
1005
2AF4
1070
   272
1070
     1
1070
    73
1070
     0
1070
    48
1040
0.1
1070
    47
1040
0.1
1070
   140
1040
8.0
1002
}
  0
DIMENSION
  5
4D6C
330
1A
100
AcDbEntity
  8
寸法線
 48
10.0
100
AcDbDimension
  2
*D36
 10
351.480866202447
 20
466.943415936125
 30
0.0
 11
372.25687024509
 21
476.375167299777
 31
0.0
 70
   163
  3
ISO-25
100
AcDbDiametricDimension
 15
356.033679359886
 25
469.01027160375
 35
0.0
 40
0.0
1001
ACAD
1000
DSTYLE
1002
{
1070
     5
1000
OPEN30
1070
    41
1040
6.0
1070
   271
1070
     1
1070
   341
1005
2AF4
1070
   272
1070
     1
1070
    73
1070
     0
1070
    48
1040
0.1
1070
    47
1040
0.1
1070
   140
1040
8.0
1002
}
  0
INSERT
  5
4D6D
330
1A
100
AcDbEntity
  8
寸法線
 48
10.0
100
AcDbBlockReference
  2
4840138
 10
180.757272781167
 20
504.476843769938
 30
0.0
  0
INSERT
  5
4D6E
330
1A
100
AcDbEntity
  8
寸法線
 48
10.0
100
AcDbBlockReference
  2
4840138
 10
290.757272781167
 20
424.476843769938
 30
0.0
  0
INSERT
  5
4D6F
330
1A
100
AcDbEntity
  8
寸法線
 48
10.0
100
AcDbBlockReference
  2
4840138
 10
302.763858114663
 20
504.476843769938
 30
0.0
  0
INSERT
  5
4D70
330
1A
100
AcDbEntity
  8
寸法線
 48
10.0
100
AcDbBlockReference
  2
4840138
 10
335.757272781167
 20
424.476843769938
 30
0.0
  0
INSERT
  5
4D71
330
1A
100
AcDbEntity
  8
寸法線
 48
10.0
100
AcDbBlockReference
  2
2420094
 10
180.757272781167
 20
373.192735965639
 30
0.0
  0
INSERT
  5
4D72
330
1A
100
AcDbEntity
  8
寸法線
 48
10.0
100
AcDbBlockReference
  2
2420094
 10
38.673691545907
 20
373.192735965639
 30
0.0
  0
INSERT
  5
4D73
330
1A
100
AcDbEntity
  8
寸法線
 48
10.0
100
AcDbBlockReference
  2
2420094
 10
118.673691545907
 20
373.192735965639
 30
0.0
  0
INSERT
  5
4D74
330
1A
100
AcDbEntity
  8
寸法線
 48
10.0
100
AcDbBlockReference
  2
2420094
 10
290.757272781167
 20
373.192735965639
 30
0.0
  0
INSERT
  5
4D75
330
1A
100
AcDbEntity
  8
寸法線
 48
10.0
100
AcDbBlockReference
  2
2420094
 10
302.757272781167
 20
373.192735965639
 30
0.0
  0
INSERT
  5
4D76
330
1A
100
AcDbEntity
  8
寸法線
 48
10.0
100
AcDbBlockReference
  2
2420094
 10
335.757272781167
 20
373.192735965639
 30
0.0
  0
INSERT
  5
4D77
330
1A
100
AcDbEntity
  8
寸法線
 48
10.0
100
AcDbBlockReference
  2
2420094
 10
418.572748144451
 20
373.192735965639
 30
0.0
  0
INSERT
  5
4D78
330
1A
100
AcDbEntity
  8
寸法線
 48
10.0
100
AcDbBlockReference
  2
2420094
 10
498.572748144451
 20
373.192735965639
 30
0.0
  0
LINE
  5
4D79
330
1A
100
AcDbEntity
  8
外形線
 48
10.0
100
AcDbLine
 10
79.673691545907
 20
313.192735965639
 30
0.0
 11
79.673691545907
 21
314.192735965639
 31
0.0
  0
LINE
  5
4D7A
330
1A
100
AcDbEntity
  8
外形線
 48
10.0
100
AcDbLine
 10
84.673691545907
 20
313.192735965639
 30
0.0
 11
84.673691545907
 21
314.192735965639
 31
0.0
  0
LINE
  5
4D7B
330
1A
100
AcDbEntity
  8
中心線
 48
10.0
100
AcDbLine
 10
450.865260125432
 20
360.192674509758
 30
0.0
 11
473.346755367998
 21
360.192674509758
 31
0.0
  0
LINE
  5
4D7C
330
1A
100
AcDbEntity
  8
中心線
 48
10.0
100
AcDbLine
 10
462.106007746715
 20
371.433422131274
 30
0.0
 11
462.106007746715
 21
348.951926888242
 31
0.0
  0
DIMENSION
  5
4D7D
330
1A
100
AcDbEntity
  8
寸法線
 48
10.0
100
AcDbDimension
  2
*D37
 10
128.673691545907
 20
290.130536962576
 30
0.0
 11
82.173691545907
 21
294.759703629243
 31
0.0
 70
    32
  3
ISO-25
100
AcDbAlignedDimension
 13
35.673691545907
 23
313.192735965639
 33
0.0
 14
128.673691545907
 24
313.192735965639
 34
0.0
100
AcDbRotatedDimension
1001
ACAD
1000
DSTYLE
1002
{
1070
     5
1000
OPEN30
1070
    41
1040
6.0
1070
   271
1070
     1
1070
   341
1005
2AF4
1070
   272
1070
     1
1070
    73
1070
     0
1070
    48
1040
0.1
1070
    47
1040
0.1
1070
   140
1040
8.0
1002
}
  0
DIMENSION
  5
4D7E
330
1A
100
AcDbEntity
  8
寸法線
 48
10.0
100
AcDbDimension
  2
*D38
 10
345.757272781167
 20
389.026430417594
 30
0.0
 11
261.757272781167
 21
393.65559708426
 31
0.0
 70
    32
  3
ISO-25
100
AcDbAlignedDimension
 13
177.757272781167
 23
373.192735965639
 33
0.0
 14
345.757272781167
 24
373.192735965639
 34
0.0
100
AcDbRotatedDimension
1001
ACAD
1000
DSTYLE
1002
{
1070
     5
1000
OPEN30
1070
    41
1040
6.0
1070
   271
1070
     1
1070
   341
1005
2AF4
1070
   272
1070
     1
1070
    73
1070
     0
1070
    48
1040
0.1
1070
    47
1040
0.1
1070
   140
1040
8.0
1002
}
  0
MTEXT
  5
5051
102
{ACAD_XDICTIONARY
360
5052
102
}
330
1A
100
AcDbEntity
  8
寸法線
 48
10.0
100
AcDbMText
 10
449.966088657768
 20
124.382976757177
 30
0.0
 40
9.0
 41
211.446139439538
 71
     1
 72
     5
  1
MATERIALS:STEEL PLATE MADE\PCOLOR：10YR7.5/15
1001
ACADANNOTATIVE
1000
AnnotativeData
1002
{
1070
     1
1070
     0
1002
}
  0
VIEWPORT
  5
2902
330
28FB
100
AcDbEntity
 67
     1
  8
0
 48
10.0
100
AcDbViewport
 10
0.0
 20
0.0
 30
0.0
 40
553.688825541619
 41
300.3
 68
     1
 69
     1
1001
ACAD
1000
MVIEW
1002
{
1070
    16
1010
0.0
1020
0.0
1030
0.0
1010
0.0
1020
0.0
1030
1.0
1040
0.0
1040
300.3
1040
205.756503333333
1040
143.551503333333
1040
50.0
1040
0.0
1040
0.0
1070
    16
1070
   100
1070
     0
1070
     1
1070
     0
1070
     0
1070
     0
1070
     0
1040
0.0
1040
0.0
1040
0.0
1040
10.0
1040
10.0
1040
10.0
1040
10.0
1070
     0
1002
{
1002
}
1002
}
  0
VIEWPORT
  5
2904
330
28FB
100
AcDbEntity
 67
     1
  8
図枠太線
 48
10.0
100
AcDbViewport
 10
204.746305129083
 20
161.396645458131
 30
0.0
 40
400.0
 41
240.0
 68
     2
 69
     2
1001
ACAD
1000
MVIEW
1002
{
1070
    16
1010
0.0
1020
0.0
1030
0.0
1010
0.0
1020
0.0
1030
1.0
1040
0.0
1040
480.000003226523
1040
250.338910047881
1040
312.556229315095
1040
50.0
1040
0.0
1040
0.0
1070
    16
1070
   100
1070
     0
1070
     0
1070
     0
1070
     0
1070
     0
1070
     0
1040
0.0
1040
0.0
1040
0.0
1040
1.0
1040
1.0
1040
0.0
1040
0.0
1070
     0
1002
{
1002
}
1002
}
  0
INSERT
  5
2A59
330
28FB
100
AcDbEntity
 67
     1
  8
図枠太線
100
AcDbBlockReference
  2
A3横用_タイトル
 10
-0.352109406709
 20
-2.129314295396
 30
0.0
  0
MTEXT
  5
2E82
102
{ACAD_XDICTIONARY
360
4ED1
102
}
330
28FB
100
AcDbEntity
 67
     1
  8
寸法線
 48
10.0
100
AcDbMText
 10
345.004201623477
 20
15.49393312214
 30
0.0
 40
8.0
 41
33.206594841881
 71
     1
 72
     5
  1
E-14026
1001
ACADANNOTATIVE
1000
AnnotativeData
1002
{
1070
     1
1070
     0
1002
}
  0
MTEXT
  5
2E85
330
28FB
100
AcDbEntity
 67
     1
  8
寸法線
 48
10.0
100
AcDbMText
 10
149.12611673873
 20
14.255245025413
 30
0.0
 40
5.0
 41
11.452149180996
 71
     1
 72
     5
  1
{\H1.4x;1:2}
  0
MTEXT
  5
4E2F
330
28FB
100
AcDbEntity
 67
     1
  8
寸法線
 48
10.0
100
AcDbMText
 10
210.548677740965
 20
51.185679132829
 30
0.0
 40
5.0
 41
106.699923235854
 71
     1
 72
     5
  1
a reduced drawing（A3size～）
  0
LINE
  5
4E30
330
28FB
100
AcDbEntity
 67
     1
  8
寸法線
 48
10.0
100
AcDbLine
 10
206.834699746824
 20
44.330291551503
 30
0.0
 11
303.487818087333
 21
44.330291551503
 31
0.0
  0
MTEXT
  5
4E31
330
28FB
100
AcDbEntity
 67
     1
  8
寸法線
 48
10.0
100
AcDbMText
 10
210.548677740965
 20
51.185679132829
 30
0.0
 40
5.0
 41
106.699923235854
 71
     1
 72
     5
  1
a reduced drawing（A3size～）
  0
MTEXT
  5
4E9A
102
{ACAD_XDICTIONARY
360
4E9B
102
}
330
28FB
100
AcDbEntity
 67
     1
  8
寸法線
 48
10.0
100
AcDbMText
 10
366.780856715838
 20
31.891569781358
 30
0.0
 40
5.0
 41
58.239684951579
 71
     1
 72
     5
  1
CONVERTER
1001
ACADANNOTATIVE
1000
AnnotativeData
1002
{
1070
     1
1070
     0
1002
}
  0
MTEXT
  5
4ECD
102
{ACAD_XDICTIONARY
360
4ECE
102
}
330
28FB
100
AcDbEntity
 67
     1
  8
寸法線
 48
10.0
100
AcDbMText
 10
318.159104073912
 20
31.957564695022
 30
0.0
 40
6.0
 41
33.805894524366
 71
     1
 72
     5
  1
TSE-RBE
1001
ACADANNOTATIVE
1000
AnnotativeData
1002
{
1070
     1
1070
     0
1002
}
  0
MTEXT
  5
50E5
102
{ACAD_XDICTIONARY
360
50E6
102
}
330
28FB
100
AcDbEntity
 67
     1
  8
寸法線
 48
10.0
100
AcDbMText
 10
175.484603081977
 20
12.378255572513
 30
0.0
 40
4.0
 41
31.372065131184
 71
     1
 72
     5
  1
Sep,26,2016
1001
ACADANNOTATIVE
1000
AnnotativeData
1002
{
1070
     1
1070
     0
1002
}
  0
MTEXT
  5
511C
102
{ACAD_XDICTIONARY
360
511D
102
}
330
28FB
100
AcDbEntity
 67
     1
  8
寸法線
 48
10.0
100
AcDbMText
 10
173.844001466027
 20
32.126899520275
 30
0.0
 40
5.0
 41
31.372065131184
 71
     1
 72
     5
  1
takahashi
1001
ACADANNOTATIVE
1000
AnnotativeData
1002
{
1070
     1
1070
     0
1002
}
  0
ENDSEC
  0
SECTION
  2
OBJECTS
  0
DICTIONARY
  5
C
330
0
100
AcDbDictionary
  3
ACAD_COLOR
350
2948
  3
ACAD_GROUP
350
D
  3
ACAD_LAYOUT
350
2816
  3
ACAD_MATERIAL
350
2947
  3
ACAD_MLEADERSTYLE
350
49E0
  3
ACAD_MLINESTYLE
350
E
  3
ACAD_PLOTSETTINGS
350
2817
  3
ACAD_SCALELIST
350
49B9
  3
ACAD_VISUALSTYLE
350
49A0
  3
ACADDIM
350
4312
  3
ACDBHEADERROUNDTRIPXREC
350
523A
  3
ACDBVARIABLEDICTIONARY
350
4A04
  3
DWGPROPS
350
525F
  0
DICTIONARY
  5
5260
330
8
100
AcDbDictionary
280
     1
  3
ACAD_XREC_ROUNDTRIP
360
5261
  0
DICTIONARY
  5
29EA
330
2
100
AcDbDictionary
280
     1
  3
ACAD_LAYERFILTERS
360
2B0C
  3
ACAD_LAYERSTATES
360
29EB
  0
DICTIONARY
  5
45A8
330
1A
100
AcDbDictionary
280
     1
  3
ACAD_SORTENTS
360
45A9
  0
DICTIONARY
  5
4B69
330
4B22
100
AcDbDictionary
280
     1
  3
ACDBCONTEXTDATAMANAGER
360
4B6A
  0
DICTIONARY
  5
4B9E
330
4B9D
100
AcDbDictionary
280
     1
  3
ACDBCONTEXTDATAMANAGER
360
4B9F
  0
DICTIONARY
  5
5052
330
5051
100
AcDbDictionary
280
     1
  3
ACDBCONTEXTDATAMANAGER
360
5053
  0
DICTIONARY
  5
4ED1
330
2E82
100
AcDbDictionary
280
     1
  3
ACDBCONTEXTDATAMANAGER
360
4ED2
  0
DICTIONARY
  5
4E9B
330
4E9A
100
AcDbDictionary
280
     1
  3
ACDBCONTEXTDATAMANAGER
360
4E9C
  0
DICTIONARY
  5
4ECE
330
4ECD
100
AcDbDictionary
280
     1
  3
ACDBCONTEXTDATAMANAGER
360
4ECF
  0
DICTIONARY
  5
50E6
330
50E5
100
AcDbDictionary
280
     1
  3
ACDBCONTEXTDATAMANAGER
360
50E7
  0
DICTIONARY
  5
511D
330
511C
100
AcDbDictionary
280
     1
  3
ACDBCONTEXTDATAMANAGER
360
511E
  0
DICTIONARY
  5
2948
102
{ACAD_REACTORS
330
C
102
}
330
C
100
AcDbDictionary
  0
DICTIONARY
  5
D
102
{ACAD_REACTORS
330
C
102
}
330
C
100
AcDbDictionary
  0
DICTIONARY
  5
2816
102
{ACAD_REACTORS
330
C
102
}
330
C
100
AcDbDictionary
  0
DICTIONARY
  5
2947
102
{ACAD_REACTORS
330
C
102
}
330
C
100
AcDbDictionary
  3
BYBLOCK
350
49DC
  3
BYLAYER
350
49DB
  3
GLOBAL
350
49DD
  0
DICTIONARY
  5
49E0
102
{ACAD_REACTORS
330
C
102
}
330
C
100
AcDbDictionary
  3
STANDARD
350
49E1
  0
DICTIONARY
  5
E
102
{ACAD_REACTORS
330
C
102
}
330
C
100
AcDbDictionary
  3
STANDARD
350
13
  0
DICTIONARY
  5
2817
102
{ACAD_REACTORS
330
C
102
}
330
C
100
AcDbDictionary
  0
DICTIONARY
  5
49B9
102
{ACAD_REACTORS
330
C
102
}
330
C
100
AcDbDictionary
  3
A0
350
49BA
  3
A1
350
49BB
  3
A2
350
49BC
  3
A3
350
49BD
  3
A4
350
49BE
  3
A5
350
49BF
  3
A6
350
49C0
  3
A7
350
49C1
  3
A8
350
49C2
  3
A9
350
49C3
  3
B0
350
49C4
  3
B1
350
49C5
  3
B2
350
49C6
  3
B3
350
49C7
  3
B4
350
49C8
  3
B5
350
49C9
  3
B6
350
49CA
  3
B7
350
49CB
  3
B8
350
49CC
  3
B9
350
49CD
  3
C0
350
49CE
  3
C1
350
49CF
  3
C2
350
49D0
  3
C3
350
49D1
  3
C4
350
49D2
  3
C5
350
49D3
  3
C6
350
49D4
  3
C7
350
49D5
  3
C8
350
49D6
  3
C9
350
49D7
  3
D0
350
49D8
  3
D1
350
49D9
  3
D2
350
49DA
  0
DICTIONARY
  5
49A0
102
{ACAD_REACTORS
330
C
102
}
330
C
100
AcDbDictionary
  3
2DWIREFRAME
350
49A5
  3
BASIC
350
49A8
  3
BRIGHTEN
350
49AC
  3
COLORCHANGE
350
49B0
  3
CONCEPTUAL
350
49AA
  3
DIM
350
49AB
  3
EDGECOLOROFF
350
49B3
  3
FACEPATTERN
350
49AF
  3
FLAT
350
49A1
  3
FLATWITHEDGES
350
49A2
  3
GOURAUD
350
49A3
  3
GOURAUDWITHEDGES
350
49A4
  3
HIDDEN
350
49A7
  3
JITTEROFF
350
49B1
  3
LINEPATTERN
350
49AE
  3
MODELING
350
49E2
  3
OVERHANGOFF
350
49B2
  3
REALISTIC
350
49A9
  3
SHADED
350
49B8
  3
SHADED_WITH_EDGES
350
49B7
  3
SHADES_OF_GRAY
350
49B4
  3
SKETCHY
350
49B5
  3
THICKEN
350
49AD
  3
WIREFRAME
350
49A6
  3
X-RAY
350
49B6
  0
XRECORD
  5
4312
102
{ACAD_REACTORS
330
C
102
}
330
C
100
AcDbXrecord
 90
   990106
  3

 60
     0
 61
     0
 62
     4
 63
     4
 64
     0
 65
     0
 66
     0
 67
     3
 68
     1
 69
     0
 70
     0
 71
     0
 72
     0
 40
0.0
170
     2
340
0
  0
DICTIONARY
  5
523A
102
{ACAD_REACTORS
330
C
102
}
330
C
100
AcDbDictionary
  3
CEPSNID
350
5244
  3
CEPSNTYPE
350
5243
  3
COLORDICT
350
525D
  3
DIMSTYLEDATA
350
525A
  3
FINGERPRINTGUID
350
5245
  3
HYPERLINKBASE
350
523D
  3
INSUNITS
350
5242
  3
LAYOUTDICT
350
523F
  3
LWETCUNION
350
5241
  3
MATERIALDICT
350
525E
  3
PLOTSETDICT
350
5240
  3
PSVPSCALE
350
5247
  3
PUCSBASE
350
524A
  3
PUCSORGBACK
350
5250
  3
PUCSORGBOTTOM
350
524C
  3
PUCSORGFRONT
350
524F
  3
PUCSORGLEFT
350
524D
  3
PUCSORGRIGHT
350
524E
  3
PUCSORGTOP
350
524B
  3
PUCSORTHOREF
350
5248
  3
PUCSORTHOVIEW
350
5249
  3
STYLESHEET
350
523E
  3
TSTACKALIGN
350
523B
  3
TSTACKSIZE
350
523C
  3
UCSBASE
350
5253
  3
UCSORGBACK
350
5259
  3
UCSORGBOTTOM
350
5255
  3
UCSORGFRONT
350
5258
  3
UCSORGLEFT
350
5256
  3
UCSORGRIGHT
350
5257
  3
UCSORGTOP
350
5254
  3
UCSORTHOREF
350
5251
  3
UCSORTHOVIEW
350
5252
  3
VERSIONGUID
350
5246
  0
DICTIONARY
  5
4A04
102
{ACAD_REACTORS
330
C
102
}
330
C
100
AcDbDictionary
  3
CANNOSCALE
350
4A05
  3
CMLEADERSTYLE
350
4A46
  3
CTABLESTYLE
350
4A45
  3
DIMASSOC
350
525B
  3
HIDETEXT
350
525C
  3
MSLTSCALE
350
4A47
  3
XCLIPFRAME
350
4A48
  0
XRECORD
  5
525F
102
{ACAD_REACTORS
330
C
102
}
330
C
100
AcDbXrecord
  1
DWGPROPS COOKIE
  2

  3

  4

  6

  7

  8
takahashi
  9

300
=
301
=
302
=
303
=
304
=
305
=
306
=
307
=
308
=
309
=
 40
0.0
 41
2450576.222302431
 42
2457661.240511921
  1

 90
        0
  0
XRECORD
  5
5261
102
{ACAD_REACTORS
330
5260
102
}
330
5260
100
AcDbXrecord
102
VTR_0.000_0.000_1.000_1.000_VISUALSTYLE
340
49A5
102
VTR_0.000_0.000_1.000_1.000_GRIDDISPLAY
 70
     3
102
VTR_0.000_0.000_1.000_1.000_GRIDMAJOR
 70
     5
102
VTR_0.000_0.000_1.000_1.000_DEFAULTLIGHTING
280
     1
102
VTR_0.000_0.000_1.000_1.000_DEFAULTLIGHTINGTYPE
 70
     1
102
VTR_0.000_0.000_1.000_1.000_BRIGHTNESS
141
0.0
102
VTR_0.000_0.000_1.000_1.000_CONTRAST
142
0.0
  0
DICTIONARY
  5
2B0C
102
{ACAD_REACTORS
330
29EA
102
}
330
29EA
100
AcDbDictionary
  0
DICTIONARY
  5
29EB
102
{ACAD_REACTORS
330
29EA
102
}
330
29EA
100
AcDbDictionary
  0
SORTENTSTABLE
  5
45A9
102
{ACAD_REACTORS
330
45A8
102
}
330
45A8
100
AcDbSortentsTable
330
1A
331
0
  5
2D37
  0
DICTIONARY
  5
4B6A
102
{ACAD_REACTORS
330
4B69
102
}
330
4B69
100
AcDbDictionary
  3
ACDB_ANNOTATIONSCALES
350
4B6B
  0
DICTIONARY
  5
4B9F
102
{ACAD_REACTORS
330
4B9E
102
}
330
4B9E
100
AcDbDictionary
  3
ACDB_ANNOTATIONSCALES
350
4BA0
  0
DICTIONARY
  5
5053
102
{ACAD_REACTORS
330
5052
102
}
330
5052
100
AcDbDictionary
  3
ACDB_ANNOTATIONSCALES
350
5054
  0
DICTIONARY
  5
4ED2
102
{ACAD_REACTORS
330
4ED1
102
}
330
4ED1
100
AcDbDictionary
  3
ACDB_ANNOTATIONSCALES
350
4ED3
  0
DICTIONARY
  5
4E9C
102
{ACAD_REACTORS
330
4E9B
102
}
330
4E9B
100
AcDbDictionary
  3
ACDB_ANNOTATIONSCALES
350
4E9D
  0
DICTIONARY
  5
4ECF
102
{ACAD_REACTORS
330
4ECE
102
}
330
4ECE
100
AcDbDictionary
  3
ACDB_ANNOTATIONSCALES
350
4ED0
  0
DICTIONARY
  5
50E7
102
{ACAD_REACTORS
330
50E6
102
}
330
50E6
100
AcDbDictionary
  3
ACDB_ANNOTATIONSCALES
350
50E8
  0
DICTIONARY
  5
511E
102
{ACAD_REACTORS
330
511D
102
}
330
511D
100
AcDbDictionary
  3
ACDB_ANNOTATIONSCALES
350
511F
  0
MATERIAL
  5
49DC
102
{ACAD_REACTORS
330
2947
102
}
102
{ACAD_XDICTIONARY
360
5264
102
}
330
2947
100
AcDbMaterial
  1
BYBLOCK
  0
MATERIAL
  5
49DB
102
{ACAD_REACTORS
330
2947
102
}
102
{ACAD_XDICTIONARY
360
5262
102
}
330
2947
100
AcDbMaterial
  1
BYLAYER
  0
MATERIAL
  5
49DD
102
{ACAD_REACTORS
330
2947
102
}
102
{ACAD_XDICTIONARY
360
5266
102
}
330
2947
100
AcDbMaterial
  1
GLOBAL
  0
ACAD_PROXY_OBJECT
  5
49E1
102
{ACAD_REACTORS
330
49E0
102
}
330
49E0
100
AcDbProxyObject
 90
      499
 91
      508
 93
      610
310
40901902A4063FBFFFFFE0000000000000020400000000000020404214DD185B99185C990000000000000104090141901A00000000000004100000000000000041025764000000000000039000
340
14
340
0
340
10
340
0
 94
        0
1001
ACAD_MLEADERVER
1070
     2
  0
MLINESTYLE
  5
13
102
{ACAD_REACTORS
330
E
102
}
330
E
100
AcDbMlineStyle
  2
STANDARD
 70
     0
  3

 62
     0
 51
90.0
 52
90.0
 71
     2
 49
0.5
 62
   256
  6
BYLAYER
 49
-0.5
 62
   256
  6
BYLAYER
  0
ACAD_PROXY_OBJECT
  5
49BA
102
{ACAD_REACTORS
330
49B9
102
}
330
49B9
100
AcDbProxyObject
 90
      499
 91
      505
 93
       41
310
903313A31580
  0
ACAD_PROXY_OBJECT
  5
49BB
102
{ACAD_REACTORS
330
49B9
102
}
330
49B9
100
AcDbProxyObject
 90
      499
 91
      505
 93
      105
310
903313A324000000000000004000
  0
ACAD_PROXY_OBJECT
  5
49BC
102
{ACAD_REACTORS
330
49B9
102
}
330
49B9
100
AcDbProxyObject
 90
      499
 91
      505
 93
      105
310
903313A344000000000000104000
  0
ACAD_PROXY_OBJECT
  5
49BD
102
{ACAD_REACTORS
330
49B9
102
}
330
49B9
100
AcDbProxyObject
 90
      499
 91
      505
 93
      105
310
903313A354000000000000144000
  0
ACAD_PROXY_OBJECT
  5
49BE
102
{ACAD_REACTORS
330
49B9
102
}
330
49B9
100
AcDbProxyObject
 90
      499
 91
      505
 93
      105
310
903313A384000000000000204000
  0
ACAD_PROXY_OBJECT
  5
49BF
102
{ACAD_REACTORS
330
49B9
102
}
330
49B9
100
AcDbProxyObject
 90
      499
 91
      505
 93
      113
310
904313A31304000000000000244000
  0
ACAD_PROXY_OBJECT
  5
49C0
102
{ACAD_REACTORS
330
49B9
102
}
330
49B9
100
AcDbProxyObject
 90
      499
 91
      505
 93
      113
310
904313A31364000000000000304000
  0
ACAD_PROXY_OBJECT
  5
49C1
102
{ACAD_REACTORS
330
49B9
102
}
330
49B9
100
AcDbProxyObject
 90
      499
 91
      505
 93
      113
310
904313A32304000000000000344000
  0
ACAD_PROXY_OBJECT
  5
49C2
102
{ACAD_REACTORS
330
49B9
102
}
330
49B9
100
AcDbProxyObject
 90
      499
 91
      505
 93
      113
310
904313A333040000000000003E4000
  0
ACAD_PROXY_OBJECT
  5
49C3
102
{ACAD_REACTORS
330
49B9
102
}
330
49B9
100
AcDbProxyObject
 90
      499
 91
      505
 93
      113
310
904313A34304000000000000444000
  0
ACAD_PROXY_OBJECT
  5
49C4
102
{ACAD_REACTORS
330
49B9
102
}
330
49B9
100
AcDbProxyObject
 90
      499
 91
      505
 93
      113
310
904313A35304000000000000494000
  0
ACAD_PROXY_OBJECT
  5
49C5
102
{ACAD_REACTORS
330
49B9
102
}
330
49B9
100
AcDbProxyObject
 90
      499
 91
      505
 93
      121
310
905313A3130304000000000000594000
  0
ACAD_PROXY_OBJECT
  5
49C6
102
{ACAD_REACTORS
330
49B9
102
}
330
49B9
100
AcDbProxyObject
 90
      499
 91
      505
 93
      105
310
903323A310000000000000010100
  0
ACAD_PROXY_OBJECT
  5
49C7
102
{ACAD_REACTORS
330
49B9
102
}
330
49B9
100
AcDbProxyObject
 90
      499
 91
      505
 93
      105
310
903343A310000000000000410100
  0
ACAD_PROXY_OBJECT
  5
49C8
102
{ACAD_REACTORS
330
49B9
102
}
330
49B9
100
AcDbProxyObject
 90
      499
 91
      505
 93
      105
310
903383A310000000000000810100
  0
ACAD_PROXY_OBJECT
  5
49C9
102
{ACAD_REACTORS
330
49B9
102
}
330
49B9
100
AcDbProxyObject
 90
      499
 91
      505
 93
      113
310
90431303A310000000000000910100
  0
ACAD_PROXY_OBJECT
  5
49CA
102
{ACAD_REACTORS
330
49B9
102
}
330
49B9
100
AcDbProxyObject
 90
      499
 91
      505
 93
      121
310
9053130303A310000000000001650100
  0
ACAD_PROXY_OBJECT
  5
49CB
102
{ACAD_REACTORS
330
49B9
102
}
330
49B9
100
AcDbProxyObject
 90
      499
 91
      505
 93
      257
310
90E312F31323822203D2031272D3022000000000000200FC000000000000284000
  0
ACAD_PROXY_OBJECT
  5
49CC
102
{ACAD_REACTORS
330
49B9
102
}
330
49B9
100
AcDbProxyObject
 90
      499
 91
      505
 93
      249
310
90D312F363422203D2031272D3022000000000000240FC000000000000284000
  0
ACAD_PROXY_OBJECT
  5
49CD
102
{ACAD_REACTORS
330
49B9
102
}
330
49B9
100
AcDbProxyObject
 90
      499
 91
      505
 93
      249
310
90D312F333222203D2031272D3022000000000000280FC000000000000284000
  0
ACAD_PROXY_OBJECT
  5
49CE
102
{ACAD_REACTORS
330
49B9
102
}
330
49B9
100
AcDbProxyObject
 90
      499
 91
      505
 93
      249
310
90D312F313622203D2031272D30220000000000002C0FC000000000000284000
  0
ACAD_PROXY_OBJECT
  5
49CF
102
{ACAD_REACTORS
330
49B9
102
}
330
49B9
100
AcDbProxyObject
 90
      499
 91
      505
 93
      249
310
90D332F333222203D2031272D30220000000000002E0FC000000000000284000
  0
ACAD_PROXY_OBJECT
  5
49D0
102
{ACAD_REACTORS
330
49B9
102
}
330
49B9
100
AcDbProxyObject
 90
      499
 91
      505
 93
      241
310
90C312F3822203D2031272D3022000000000000300FC000000000000284000
  0
ACAD_PROXY_OBJECT
  5
49D1
102
{ACAD_REACTORS
330
49B9
102
}
330
49B9
100
AcDbProxyObject
 90
      499
 91
      505
 93
      249
310
90D332F313622203D2031272D3022000000000000320FC000000000000284000
  0
ACAD_PROXY_OBJECT
  5
49D2
102
{ACAD_REACTORS
330
49B9
102
}
330
49B9
100
AcDbProxyObject
 90
      499
 91
      505
 93
      241
310
90C312F3422203D2031272D3022000000000000340FC000000000000284000
  0
ACAD_PROXY_OBJECT
  5
49D3
102
{ACAD_REACTORS
330
49B9
102
}
330
49B9
100
AcDbProxyObject
 90
      499
 91
      505
 93
      241
310
90C332F3822203D2031272D3022000000000000360FC000000000000284000
  0
ACAD_PROXY_OBJECT
  5
49D4
102
{ACAD_REACTORS
330
49B9
102
}
330
49B9
100
AcDbProxyObject
 90
      499
 91
      505
 93
      241
310
90C312F3222203D2031272D3022000000000000380FC000000000000284000
  0
ACAD_PROXY_OBJECT
  5
49D5
102
{ACAD_REACTORS
330
49B9
102
}
330
49B9
100
AcDbProxyObject
 90
      499
 91
      505
 93
      241
310
90C332F3422203D2031272D30220000000000003A0FC000000000000284000
  0
ACAD_PROXY_OBJECT
  5
49D6
102
{ACAD_REACTORS
330
49B9
102
}
330
49B9
100
AcDbProxyObject
 90
      499
 91
      505
 93
      161
310
90A3122203D2031272D30224000000000000284000
  0
ACAD_PROXY_OBJECT
  5
49D7
102
{ACAD_REACTORS
330
49B9
102
}
330
49B9
100
AcDbProxyObject
 90
      499
 91
      505
 93
      257
310
90E312D312F3222203D2031272D30220000000000003E0FC000000000000284000
  0
ACAD_PROXY_OBJECT
  5
49D8
102
{ACAD_REACTORS
330
49B9
102
}
330
49B9
100
AcDbProxyObject
 90
      499
 91
      505
 93
      225
310
90A3322203D2031272D302200000000000002100000000000000284000
  0
ACAD_PROXY_OBJECT
  5
49D9
102
{ACAD_REACTORS
330
49B9
102
}
330
49B9
100
AcDbProxyObject
 90
      499
 91
      505
 93
      225
310
90A3622203D2031272D302200000000000006100000000000000284000
  0
ACAD_PROXY_OBJECT
  5
49DA
102
{ACAD_REACTORS
330
49B9
102
}
330
49B9
100
AcDbProxyObject
 90
      499
 91
      505
 93
      249
310
90D31272D3022203D2031272D30220000000000000A100000000000000284000
  0
ACAD_PROXY_OBJECT
  5
49A5
102
{ACAD_REACTORS
330
49A0
102
}
330
49A0
100
AcDbProxyObject
 90
      499
 91
      504
 93
      436
310
42CC9915DA5C99599C985B595049028333333333333E33F0000000000000F90107901411070040501600405405064090741402480A0340
1001
ACAD
1000
AcDbSavedByObjectVersion
1070
     0
  0
ACAD_PROXY_OBJECT
  5
49A8
102
{ACAD_REACTORS
330
49A0
102
}
330
49A0
100
AcDbProxyObject
 90
      499
 91
      504
 93
      388
310
4150985CDA58D07406404333333333333E33F0000000000000F90107A41107004050150841D405064090741402480A0350
1001
ACAD
1000
AcDbSavedByObjectVersion
1070
     0
  0
ACAD_PROXY_OBJECT
  5
49AC
102
{ACAD_REACTORS
330
49A0
102
}
330
49A0
100
AcDbProxyObject
 90
      499
 91
      504
 93
      428
310
42109C9A59DA1D195B90C409028333333333333E33F0000000000000F9010790141107004050150841D405064090741402480A029950
1001
ACAD
1000
AcDbSavedByObjectVersion
1070
     0
  0
ACAD_PROXY_OBJECT
  5
49B0
102
{ACAD_REACTORS
330
49A0
102
}
330
49A0
100
AcDbProxyObject
 90
      499
 91
      504
 93
      452
310
42D0DBDB1BDC90DA185B99D95104090240C333333333333E33F0000000000000F90108901411070040501508421405064090741402480A0350
1001
ACAD
1000
AcDbSavedByObjectVersion
1070
     0
  0
ACAD_PROXY_OBJECT
  5
49AA
102
{ACAD_REACTORS
330
49A0
102
}
330
49A0
100
AcDbProxyObject
 90
      499
 91
      504
 93
      500
310
4290DBDB98D95C1D1D585B10940D028333333333333E33F0000000000000F90107902409070040501000000000018199010841D405064090740C02480A0340
1001
ACAD
1000
AcDbSavedByObjectVersion
1070
     0
  0
ACAD_PROXY_OBJECT
  5
49AB
102
{ACAD_REACTORS
330
49A0
102
}
330
49A0
100
AcDbProxyObject
 90
      499
 91
      504
 93
      412
310
40D11A5B50B409028333333333333E33F0000000000000F9010790141107004050150841D405064090741402480A02677FFFFFD0
1001
ACAD
1000
AcDbSavedByObjectVersion
1070
     0
  0
ACAD_PROXY_OBJECT
  5
49B3
102
{ACAD_REACTORS
330
49A0
102
}
330
49A0
100
AcDbProxyObject
 90
      499
 91
      504
 93
      452
310
43115919D950DBDB1BDC93D999916409028333333333333E33F0000000000000F9010790141107004050150841D405064090741402480A0350
1001
ACAD
1000
AcDbSavedByObjectVersion
1070
     0
  0
ACAD_PROXY_OBJECT
  5
49AF
102
{ACAD_REACTORS
330
49A0
102
}
330
49A0
100
AcDbProxyObject
 90
      499
 91
      504
 93
      444
310
42D19858D95C185D1D195C9B90F409028333333333333E33F0000000000000F9010790141107004050150841D405064090741402480A0350
1001
ACAD
1000
AcDbSavedByObjectVersion
1070
     0
  0
ACAD_PROXY_OBJECT
  5
49A1
102
{ACAD_REACTORS
330
49A0
102
}
330
49A0
100
AcDbProxyObject
 90
      499
 91
      504
 93
      380
310
41119B185D240901404333333333333E33F0000000000000F9010740A907004050150841D405064090741402480A1B50
1001
ACAD
1000
AcDbSavedByObjectVersion
1070
     0
  0
ACAD_PROXY_OBJECT
  5
49A2
102
{ACAD_REACTORS
330
49A0
102
}
330
49A0
100
AcDbProxyObject
 90
      499
 91
      504
 93
      468
310
43519B185D15DA5D1A115919D95CD0140901404333333333333E33F0000000000000F90107409019070040501600405405064090741402480A1B50
1001
ACAD
1000
AcDbSavedByObjectVersion
1070
     0
  0
ACAD_PROXY_OBJECT
  5
49A3
102
{ACAD_REACTORS
330
49A0
102
}
330
49A0
100
AcDbProxyObject
 90
      499
 91
      504
 93
      404
310
41D1DBDD5C985D5910240902404333333333333E33F0000000000000F9010740A9070040501641D405064090741402480A1B50
1001
ACAD
1000
AcDbSavedByObjectVersion
1070
     0
  0
ACAD_PROXY_OBJECT
  5
49A4
102
{ACAD_REACTORS
330
49A0
102
}
330
49A0
100
AcDbProxyObject
 90
      499
 91
      504
 93
      492
310
4411DBDD5C985D5915DA5D1A115919D95CD0340902404333333333333E33F0000000000000F90107409019070040501600405405064090741402480A1B50
1001
ACAD
1000
AcDbSavedByObjectVersion
1070
     0
  0
ACAD_PROXY_OBJECT
  5
49A7
102
{ACAD_REACTORS
330
49A0
102
}
330
49A0
100
AcDbProxyObject
 90
      499
 91
      504
 93
      476
310
41921A5919195B90640502408333333333333E33F0000000000000F901079024090700405020000000000001110200405405064090740C02480A0340
1001
ACAD
1000
AcDbSavedByObjectVersion
1070
     0
  0
ACAD_PROXY_OBJECT
  5
49B1
102
{ACAD_REACTORS
330
49A0
102
}
330
49A0
100
AcDbProxyObject
 90
      499
 91
      504
 93
      428
310
42529A5D1D195C93D999914409028333333333333E33F0000000000000F9010790141107004050150A41D405064090741402480A0350
1001
ACAD
1000
AcDbSavedByObjectVersion
1070
     0
  0
ACAD_PROXY_OBJECT
  5
49AE
102
{ACAD_REACTORS
330
49A0
102
}
330
49A0
100
AcDbProxyObject
 90
      499
 91
      504
 93
      444
310
42D31A5B995C185D1D195C9B90E409028333333333333E33F0000000000000F9010790141107004050750841D405064090741402483A0350
1001
ACAD
1000
AcDbSavedByObjectVersion
1070
     0
  0
ACAD_PROXY_OBJECT
  5
49E2
102
{ACAD_REACTORS
330
49A0
102
}
330
49A0
100
AcDbProxyObject
 90
      499
 91
      504
 93
      412
310
90A409038333333333333E33F0000000000000F901074090290700405010000000000201990108421405064090741402480A1B40
1001
ACAD
1000
AcDbSavedByObjectVersion
1070
     0
  0
ACAD_PROXY_OBJECT
  5
49B2
102
{ACAD_REACTORS
330
49A0
102
}
330
49A0
100
AcDbProxyObject
 90
      499
 91
      504
 93
      444
310
42D3DD995C9A185B99D3D999915409028333333333333E33F0000000000000F9010790141107004050150941D405064090741402480A0350
1001
ACAD
1000
AcDbSavedByObjectVersion
1070
     0
  0
ACAD_PROXY_OBJECT
  5
49A9
102
{ACAD_REACTORS
330
49A0
102
}
330
49A0
100
AcDbProxyObject
 90
      499
 91
      504
 93
      428
310
425499585B1A5CDD1A58D08409038333333333333E33F0000000000000F9010740A907004050150800405405064090740C02480A1B40
1001
ACAD
1000
AcDbSavedByObjectVersion
1070
     0
  0
ACAD_PROXY_OBJECT
  5
49B8
102
{ACAD_REACTORS
330
49A0
102
}
330
49A0
100
AcDbProxyObject
 90
      499
 91
      504
 93
      420
310
4194DA1859195911B40902404333333333333E33F0000000000000F9010740A41107004050150800405405064090840C02480A0B40
1001
ACAD
1000
AcDbSavedByObjectVersion
1070
     0
  0
ACAD_PROXY_OBJECT
  5
49B7
102
{ACAD_REACTORS
330
49A0
102
}
330
49A0
100
AcDbProxyObject
 90
      499
 91
      504
 93
      516
310
4454DA18591959081DDA5D1A08195919D95CD1A40902404333333333333E33F0000000000000F901074090142907004050250800405405064090740C02480A0B40
1001
ACAD
1000
AcDbSavedByObjectVersion
1070
     0
  0
ACAD_PROXY_OBJECT
  5
49B4
102
{ACAD_REACTORS
330
49A0
102
}
330
49A0
100
AcDbProxyObject
 90
      499
 91
      504
 93
      532
310
4394DA1859195CC81BD98811DC985E5174090240C333333333333E33F0000000000000F901079024090741D01000000000000111010841D405064090740C02480A0340
1001
ACAD
1000
AcDbSavedByObjectVersion
1070
     0
  0
ACAD_PROXY_OBJECT
  5
49B5
102
{ACAD_REACTORS
330
49A0
102
}
330
49A0
100
AcDbProxyObject
 90
      499
 91
      504
 93
      476
310
41D4DAD95D18DA1E51840502408333333333333E33F0000000000000F901079024090741D01000000000000111010B41D405064090741802480A0340
1001
ACAD
1000
AcDbSavedByObjectVersion
1070
     0
  0
ACAD_PROXY_OBJECT
  5
49AD
102
{ACAD_REACTORS
330
49A0
102
}
330
49A0
100
AcDbProxyObject
 90
      499
 91
      504
 93
      412
310
41D51A1A58DAD95B90D409028333333333333E33F0000000000000F9010790141107004050150C41D405064090741402480A0350
1001
ACAD
1000
AcDbSavedByObjectVersion
1070
     0
  0
ACAD_PROXY_OBJECT
  5
49A6
102
{ACAD_REACTORS
330
49A0
102
}
330
49A0
100
AcDbProxyObject
 90
      499
 91
      504
 93
      420
310
4255DA5C99599C985B595059028333333333333E33F0000000000000F90107901411070040501600405405064090740C02480A0340
1001
ACAD
1000
AcDbSavedByObjectVersion
1070
     0
  0
ACAD_PROXY_OBJECT
  5
49B6
102
{ACAD_REACTORS
330
49A0
102
}
330
49A0
100
AcDbProxyObject
 90
      499
 91
      504
 93
      404
310
41560B54985E51940902404000000000000E03F0000000000000F9010740501907004050150841D405064090740C02480A1B40
1001
ACAD
1000
AcDbSavedByObjectVersion
1070
     0
  0
XRECORD
  5
5244
102
{ACAD_REACTORS
330
523A
102
}
330
523A
100
AcDbXrecord
340
0
  0
XRECORD
  5
5243
102
{ACAD_REACTORS
330
523A
102
}
330
523A
100
AcDbXrecord
 90
        0
  0
XRECORD
  5
525D
102
{ACAD_REACTORS
330
523A
102
}
330
523A
100
AcDbXrecord
340
2948
  0
XRECORD
  5
525A
102
{ACAD_REACTORS
330
523A
102
}
330
523A
100
AcDbXrecord
1000
DSTYLE
1002
{
1070
   171
 70
     2
1070
   143
 40
0.0394
1070
   274
 70
     2
1070
    41
 40
6.0
1070
   342
340
2AF4
1070
   271
 70
     1
1070
   278
 70
    46
1070
   341
340
2AF4
1070
   272
 70
     1
1070
    48
 40
0.1
1070
   283
 70
     1
1070
    47
 40
0.1
1070
   145
 40
1.0
1070
   340
340
10
1070
   140
 40
8.0
1070
   284
 70
     0
1002
}
  0
XRECORD
  5
5245
102
{ACAD_REACTORS
330
523A
102
}
330
523A
100
AcDbXrecord
  1
{23698909-1D67-4744-B0E2-8DE11E3ED422}
  0
XRECORD
  5
523D
102
{ACAD_REACTORS
330
523A
102
}
330
523A
100
AcDbXrecord
  1

  0
XRECORD
  5
5242
102
{ACAD_REACTORS
330
523A
102
}
330
523A
100
AcDbXrecord
 90
        0
  0
XRECORD
  5
523F
102
{ACAD_REACTORS
330
523A
102
}
330
523A
100
AcDbXrecord
340
2816
  0
XRECORD
  5
5241
102
{ACAD_REACTORS
330
523A
102
}
330
523A
100
AcDbXrecord
 90
    10781
  0
XRECORD
  5
525E
102
{ACAD_REACTORS
330
523A
102
}
330
523A
100
AcDbXrecord
340
2947
  0
XRECORD
  5
5240
102
{ACAD_REACTORS
330
523A
102
}
330
523A
100
AcDbXrecord
340
2817
  0
XRECORD
  5
5247
102
{ACAD_REACTORS
330
523A
102
}
330
523A
100
AcDbXrecord
 40
0.25
  0
XRECORD
  5
524A
102
{ACAD_REACTORS
330
523A
102
}
330
523A
100
AcDbXrecord
340
0
  0
XRECORD
  5
5250
102
{ACAD_REACTORS
330
523A
102
}
330
523A
100
AcDbXrecord
 10
0.0
 20
0.0
 30
0.0
  0
XRECORD
  5
524C
102
{ACAD_REACTORS
330
523A
102
}
330
523A
100
AcDbXrecord
 10
0.0
 20
0.0
 30
0.0
  0
XRECORD
  5
524F
102
{ACAD_REACTORS
330
523A
102
}
330
523A
100
AcDbXrecord
 10
0.0
 20
0.0
 30
0.0
  0
XRECORD
  5
524D
102
{ACAD_REACTORS
330
523A
102
}
330
523A
100
AcDbXrecord
 10
0.0
 20
0.0
 30
0.0
  0
XRECORD
  5
524E
102
{ACAD_REACTORS
330
523A
102
}
330
523A
100
AcDbXrecord
 10
0.0
 20
0.0
 30
0.0
  0
XRECORD
  5
524B
102
{ACAD_REACTORS
330
523A
102
}
330
523A
100
AcDbXrecord
 10
0.0
 20
0.0
 30
0.0
  0
XRECORD
  5
5248
102
{ACAD_REACTORS
330
523A
102
}
330
523A
100
AcDbXrecord
340
0
  0
XRECORD
  5
5249
102
{ACAD_REACTORS
330
523A
102
}
330
523A
100
AcDbXrecord
 70
     0
  0
XRECORD
  5
523E
102
{ACAD_REACTORS
330
523A
102
}
330
523A
100
AcDbXrecord
  1

  0
XRECORD
  5
523B
102
{ACAD_REACTORS
330
523A
102
}
330
523A
100
AcDbXrecord
 90
        1
  0
XRECORD
  5
523C
102
{ACAD_REACTORS
330
523A
102
}
330
523A
100
AcDbXrecord
 90
       70
  0
XRECORD
  5
5253
102
{ACAD_REACTORS
330
523A
102
}
330
523A
100
AcDbXrecord
340
0
  0
XRECORD
  5
5259
102
{ACAD_REACTORS
330
523A
102
}
330
523A
100
AcDbXrecord
 10
0.0
 20
0.0
 30
0.0
  0
XRECORD
  5
5255
102
{ACAD_REACTORS
330
523A
102
}
330
523A
100
AcDbXrecord
 10
0.0
 20
0.0
 30
0.0
  0
XRECORD
  5
5258
102
{ACAD_REACTORS
330
523A
102
}
330
523A
100
AcDbXrecord
 10
0.0
 20
0.0
 30
0.0
  0
XRECORD
  5
5256
102
{ACAD_REACTORS
330
523A
102
}
330
523A
100
AcDbXrecord
 10
0.0
 20
0.0
 30
0.0
  0
XRECORD
  5
5257
102
{ACAD_REACTORS
330
523A
102
}
330
523A
100
AcDbXrecord
 10
0.0
 20
0.0
 30
0.0
  0
XRECORD
  5
5254
102
{ACAD_REACTORS
330
523A
102
}
330
523A
100
AcDbXrecord
 10
0.0
 20
0.0
 30
0.0
  0
XRECORD
  5
5251
102
{ACAD_REACTORS
330
523A
102
}
330
523A
100
AcDbXrecord
340
0
  0
XRECORD
  5
5252
102
{ACAD_REACTORS
330
523A
102
}
330
523A
100
AcDbXrecord
 70
     0
  0
XRECORD
  5
5246
102
{ACAD_REACTORS
330
523A
102
}
330
523A
100
AcDbXrecord
  1
{C64F447A-79DD-4337-BC52-1D6E535A9AC5}
  0
DICTIONARYVAR
  5
4A05
102
{ACAD_REACTORS
330
4A04
102
}
330
4A04
100
DictionaryVariables
280
     0
  1
1:1
  0
DICTIONARYVAR
  5
4A46
102
{ACAD_REACTORS
330
4A04
102
}
330
4A04
100
DictionaryVariables
280
     0
  1
Standard
  0
DICTIONARYVAR
  5
4A45
102
{ACAD_REACTORS
330
4A04
102
}
330
4A04
100
DictionaryVariables
280
     0
  1
Standard
  0
DICTIONARYVAR
  5
525B
102
{ACAD_REACTORS
330
4A04
102
}
330
4A04
100
DictionaryVariables
280
     0
  1
1
  0
DICTIONARYVAR
  5
525C
102
{ACAD_REACTORS
330
4A04
102
}
330
4A04
100
DictionaryVariables
280
     0
  1
0
  0
DICTIONARYVAR
  5
4A47
102
{ACAD_REACTORS
330
4A04
102
}
330
4A04
100
DictionaryVariables
280
     0
  1
0
  0
DICTIONARYVAR
  5
4A48
102
{ACAD_REACTORS
330
4A04
102
}
330
4A04
100
DictionaryVariables
280
     0
  1
0
  0
DICTIONARY
  5
4B6B
102
{ACAD_REACTORS
330
4B6A
102
}
330
4B6A
100
AcDbDictionary
  0
DICTIONARY
  5
4BA0
102
{ACAD_REACTORS
330
4B9F
102
}
330
4B9F
100
AcDbDictionary
  0
DICTIONARY
  5
5054
102
{ACAD_REACTORS
330
5053
102
}
330
5053
100
AcDbDictionary
  0
DICTIONARY
  5
4ED3
102
{ACAD_REACTORS
330
4ED2
102
}
330
4ED2
100
AcDbDictionary
  0
DICTIONARY
  5
4E9D
102
{ACAD_REACTORS
330
4E9C
102
}
330
4E9C
100
AcDbDictionary
  0
DICTIONARY
  5
4ED0
102
{ACAD_REACTORS
330
4ECF
102
}
330
4ECF
100
AcDbDictionary
  0
DICTIONARY
  5
50E8
102
{ACAD_REACTORS
330
50E7
102
}
330
50E7
100
AcDbDictionary
  0
DICTIONARY
  5
511F
102
{ACAD_REACTORS
330
511E
102
}
330
511E
100
AcDbDictionary
  0
DICTIONARY
  5
5264
330
49DC
100
AcDbDictionary
280
     1
  3
ACAD_XREC_ROUNDTRIP
360
5265
  0
DICTIONARY
  5
5262
330
49DB
100
AcDbDictionary
280
     1
  3
ACAD_XREC_ROUNDTRIP
360
5263
  0
DICTIONARY
  5
5266
330
49DD
100
AcDbDictionary
280
     1
  3
ACAD_XREC_ROUNDTRIP
360
5267
  0
XRECORD
  5
5265
102
{ACAD_REACTORS
330
5264
102
}
330
5264
100
AcDbXrecord
102
MATERIAL
148
0.0
149
0.0
149
0.0
 93
        0
 94
      127
282
     0
 72
     1
 77
     1
171
     1
175
     1
179
     1
273
     0
  0
XRECORD
  5
5263
102
{ACAD_REACTORS
330
5262
102
}
330
5262
100
AcDbXrecord
102
MATERIAL
148
0.0
149
0.0
149
0.0
 93
        0
 94
      127
282
     0
 72
     1
 77
     1
171
     1
175
     1
179
     1
273
     0
  0
XRECORD
  5
5267
102
{ACAD_REACTORS
330
5266
102
}
330
5266
100
AcDbXrecord
102
MATERIAL
148
0.0
149
0.0
149
0.0
 93
        0
 94
      127
282
     0
 72
     1
 77
     1
171
     1
175
     1
179
     1
273
     0
  0
ENDSEC
  0
EOF
